  0
SECTION
  2
HEADER
  9
$ACADVER
  1
AC1014
  9
$ACADMAINTVER
 70
     0
  9
$DWGCODEPAGE
  3
DOS932
  9
$INSBASE
 10
0.0
 20
0.0
 30
0.0
  9
$EXTMIN
 10
0.0
 20
0.0
 30
0.0
  9
$EXTMAX
 10
420.0
 20
297.0
 30
0.0
  9
$LIMMIN
 10
0.0
 20
0.0
  9
$LIMMAX
 10
420.0
 20
297.0
  9
$ORTHOMODE
 70
     0
  9
$REGENMODE
 70
     1
  9
$FILLMODE
 70
     1
  9
$QTEXTMODE
 70
     0
  9
$MIRRTEXT
 70
     1
  9
$DRAGMODE
 70
     2
  9
$LTSCALE
 40
0.25
  9
$OSMODE
 70
     0
  9
$ATTMODE
 70
     1
  9
$TEXTSIZE
 40
4.0
  9
$TRACEWID
 40
0.05
  9
$TEXTSTYLE
  7
STANDARD
  9
$CLAYER
  8
0
  9
$CELTYPE
  6
CONTINUOUS
  9
$CECOLOR
 62
   256
  9
$CELTSCALE
 40
1.0
  9
$DELOBJ
 70
     1
  9
$DISPSILH
 70
     0
  9
$DIMSCALE
 40
1.0
  9
$DIMASZ
 40
4.0
  9
$DIMEXO
 40
0.5
  9
$DIMDLI
 40
10.0
  9
$DIMRND
 40
0.0
  9
$DIMDLE
 40
0.0
  9
$DIMEXE
 40
2.0
  9
$DIMTP
 40
0.0
  9
$DIMTM
 40
0.0
  9
$DIMTXT
 40
4.0
  9
$DIMCEN
 40
0.09
  9
$DIMTSZ
 40
0.0
  9
$DIMTOL
 70
     0
  9
$DIMLIM
 70
     0
  9
$DIMTIH
 70
     0
  9
$DIMTOH
 70
     0
  9
$DIMSE1
 70
     0
  9
$DIMSE2
 70
     0
  9
$DIMTAD
 70
     3
  9
$DIMZIN
 70
     0
  9
$DIMBLK
  1

  9
$DIMASO
 70
     1
  9
$DIMSHO
 70
     1
  9
$DIMPOST
  1

  9
$DIMAPOST
  1

  9
$DIMALT
 70
     0
  9
$DIMALTD
 70
     2
  9
$DIMALTF
 40
25.4
  9
$DIMLFAC
 40
1.0
  9
$DIMTOFL
 70
     1
  9
$DIMTVP
 40
0.7
  9
$DIMTIX
 70
     0
  9
$DIMSOXD
 70
     0
  9
$DIMSAH
 70
     0
  9
$DIMBLK1
  1

  9
$DIMBLK2
  1

  9
$DIMSTYLE
  2
STANDARD
  9
$DIMCLRD
 70
     0
  9
$DIMCLRE
 70
     0
  9
$DIMCLRT
 70
     0
  9
$DIMTFAC
 40
0.5
  9
$DIMGAP
 40
0.0
  9
$DIMJUST
 70
     0
  9
$DIMSD1
 70
     0
  9
$DIMSD2
 70
     0
  9
$DIMTOLJ
 70
     1
  9
$DIMTZIN
 70
     0
  9
$DIMALTZ
 70
     0
  9
$DIMALTTZ
 70
     0
  9
$DIMFIT
 70
     3
  9
$DIMUPT
 70
     0
  9
$DIMUNIT
 70
     2
  9
$DIMDEC
 70
     2
  9
$DIMTDEC
 70
     4
  9
$DIMALTU
 70
     2
  9
$DIMALTTD
 70
     2
  9
$DIMTXSTY
  7
STANDARD
  9
$DIMAUNIT
 70
     0
  9
$LUNITS
 70
     2
  9
$LUPREC
 70
     4
  9
$SKETCHINC
 40
0.1
  9
$FILLETRAD
 40
0.0
  9
$AUNITS
 70
     0
  9
$AUPREC
 70
     0
  9
$MENU
  1
acad
  9
$ELEVATION
 40
0.0
  9
$PELEVATION
 40
0.0
  9
$THICKNESS
 40
0.0
  9
$LIMCHECK
 70
     0
  9
$BLIPMODE
 70
     1
  9
$CHAMFERA
 40
0.0
  9
$CHAMFERB
 40
0.0
  9
$CHAMFERC
 40
0.0
  9
$CHAMFERD
 40
0.0
  9
$SKPOLY
 70
     0
  9
$TDCREATE
 40
2453683.380266204
  9
$TDUPDATE
 40
2453683.380266204
  9
$TDINDWG
 40
0.0000000000
  9
$TDUSRTIMER
 40
0.0000000000
  9
$USRTIMER
 70
     1
  9
$ANGBASE
 50
0.0
  9
$ANGDIR
 70
     0
  9
$PDMODE
 70
     0
  9
$PDSIZE
 40
0.0
  9
$PLINEWID
 40
0.0
  9
$COORDS
 70
     0
  9
$SPLFRAME
 70
     0
  9
$SPLINETYPE
 70
     6
  9
$SPLINESEGS
 70
     8
  9
$ATTDIA
 70
     0
  9
$ATTREQ
 70
     1
  9
$HANDLING
 70
     1
  9
$HANDSEED
  5
1C1
  9
$SURFTAB1
 70
     6
  9
$SURFTAB2
 70
     6
  9
$SURFTYPE
 70
     6
  9
$SURFU
 70
     6
  9
$SURFV
 70
     6
  9
$UCSNAME
  2

  9
$UCSORG
 10
0.0
 20
0.0
 30
0.0
  9
$UCSXDIR
 10
1.0
 20
0.0
 30
0.0
  9
$UCSYDIR
 10
0.0
 20
1.0
 30
0.0
  9
$PUCSNAME
  2

  9
$PUCSORG
 10
0.0
 20
0.0
 30
0.0
  9
$PUCSXDIR
 10
1.0
 20
0.0
 30
0.0
  9
$PUCSYDIR
 10
0.0
 20
1.0
 30
0.0
  9
$USERI1
 70
     0
  9
$USERI2
 70
     0
  9
$USERI3
 70
     0
  9
$USERI4
 70
     0
  9
$USERI5
 70
     0
  9
$USERR1
 40
0.0
  9
$USERR2
 40
0.0
  9
$USERR3
 40
0.0
  9
$USERR4
 40
0.0
  9
$USERR5
 40
0.0
  9
$WORLDVIEW
 70
     1
  9
$SHADEDGE
 70
     3
  9
$SHADEDIF
 70
    70
  9
$TILEMODE
 70
     1
  9
$MAXACTVP
 70
    16
  9
$PINSBASE
 10
0.0
 20
0.0
 30
0.0
  9
$PLIMCHECK
 70
     0
  9
$PEXTMIN
 10
0.0
 20
0.0
 30
0.0
  9
$PEXTMAX
 10
420.0
 20
297.0
 30
0.0
  9
$PLIMMIN
 10
0.0
 20
0.0
  9
$PLIMMAX
 10
420.0
 20
297.0
  9
$UNITMODE
 70
     0
  9
$VISRETAIN
 70
     0
  9
$PLINEGEN
 70
     1
  9
$PSLTSCALE
 70
     0
  9
$TREEDEPTH
 70
  3020
  9
$PICKSTYLE
 70
     1
  9
$CMLSTYLE
  2
STANDARD
  9
$CMLJUST
 70
     0
  9
$CMLSCALE
 40
1.0
  9
$PROXYGRAPHICS
 70
     0
  9
$MEASUREMENT
 70
     0
  0
ENDSEC
  0
SECTION
  2
CLASSES
  0
CLASS
  1
LWPOLYLINE
  2
AcDbPolyline
  3
"AutoCAD"
 90
        0
280
     0
281
     1
  0
CLASS
  1
IMAGE
  2
AcDbRasterImage
  3
ISM
 90
      127
280
     0
281
     1
  0
CLASS
  1
OLE2FRAME
  2
AcDbOle2Frame
  3
""
 90
        0
280
     0
281
     1
  0
CLASS
  1
HATCH
  2
AcDbHatch
  3
"ACAD_SEDONA"
 90
        0
280
     0
281
     1
  0
CLASS
  1
DICTIONARYVAR
  2
AcDbDictionaryVar
  3
"AutoCAD"
 90
        0
280
     0
281
     0
  0
CLASS
  1
RASTERVARIABLES
  2
AcDbRasterVariables
  3
ISM
 90
        0
280
     0
281
     0
  0
CLASS
  1
IMAGEDEF
  2
AcDbRasterImageDef
  3
ISM
 90
        0
280
     0
281
     0
  0
CLASS
  1
IMAGEDEF_REACTOR
  2
AcDbRasterImageDefReactor
  3
ISM
 90
        1
280
     0
281
     0
  0
CLASS
  1
IDBUFFER
  2
AcDbIdBuffer
  3
"Acad"
 90
        0
280
     0
281
     0
  0
CLASS
  1
SPATIAL_FILTER
  2
AcDbSpatialFilter
  3
"Acad"
 90
        0
280
     0
281
     0
  0
CLASS
  1
XRECORD
  2
AcDbXrecord
  3
"<Built In>"
 90
        0
280
     0
281
     0
  0
CLASS
  1
SORTENTSTABLE
  2
AcDbSortentsTable
  3
"AutoCAD"
 90
        0
280
     0
281
     0
  0
CLASS
  1
LAYER_INDEX
  2
AcDbLayerIndex
  3
"Acad"
 90
        0
280
     0
281
     0
  0
CLASS
  1
SPATIAL_INDEX
  2
AcDbSpatialIndex
  3
"Acad"
 90
        0
280
     0
281
     0
  0
CLASS
  1
OBJECT_PTR
  2
CAseDLPNTableRecord
  3
"ASE-LPNTableRecord"
 90
        1
280
     0
281
     0
  0
CLASS
  1
LAYOUT
  2
AcDbLayout
  3
"AutoCAD 2000"
 90
        1
280
     0
281
     0
  0
CLASS
  1
PLOTSETTINGS
  2
AcDbPlotSettings
  3
"AutoCAD 2000"
 90
        1
280
     0
281
     0
  0
CLASS
  1
ACDBDICTIONARYWDFLT
  2
AcDbDictionaryWithDefault
  3
"AutoCAD 2000"
 90
        1
280
     0
281
     0
  0
CLASS
  1
ACDBPLACEHOLDER
  2
AcDbPlaceHolder
  3
"AutoCAD 2000"
 90
        1
280
     0
281
     0
  0
CLASS
  1
VBA_PROJECT
  2
AcDbVbaProject
  3
"acadvba"
 90
        1
280
     0
281
     0
  0
CLASS
  1
WIPEOUT
  2
AcDbWipeout
  3
WipeOut|AutoCAD Express Tool|expresstools@autodesk.com
 90
      127
280
     0
281
     1
  0
CLASS
  1
WIPEOUTVARIABLES
  2
AcDbWipeoutVariables
  3
WipeOut|AutoCAD Express Tool|expresstools@autodesk.com
 90
        0
280
     0
281
     0
  0
CLASS
  1
RTEXT
  2
RText
  3
RText|AutoCAD Express Tool|expresstools@autodesk.com
 90
        0
280
     0
281
     1
  0
CLASS
  1
ARCALIGNEDTEXT
  2
AcDbArcAlignedText
  3
ATEXT|AutoCAD Express Tool|expresstools@autodesk.com
 90
        0
280
     0
281
     1
  0
ENDSEC
  0
SECTION
  2
TABLES
  0
TABLE
  2
VPORT
  5
7
100
AcDbSymbolTable
 70
     1
  0
VPORT
  5
15
100
AcDbSymbolTableRecord
100
AcDbViewportTableRecord
  2
*ACTIVE
 70
     0
 10
0.0
 20
0.0
 11
1.0
 21
1.0
 12
6.591288
 22
4.579184
 13
0.0
 23
0.0
 14
1.0
 24
1.0
 15
0.0
 25
0.0
 16
0.0
 26
0.0
 36
1.0
 17
0.0
 27
0.0
 37
0.0
 40
9.158369
 41
0.688564
 42
50.0
 43
0.0
 44
0.0
 50
0.0
 51
0.0
 71
     0
 72
   100
 73
     1
 74
     1
 75
     0
 76
     0
 77
     0
 78
     0
  0
ENDTAB
  0
TABLE
  2
LTYPE
  5
4
100
AcDbSymbolTable
 70
     9
  0
LTYPE
  5
11
100
AcDbSymbolTableRecord
100
AcDbLinetypeTableRecord
  2
BYBLOCK
 70
    64
  3

 72
    65
 73
     0
 40
0.0
  0
LTYPE
  5
12
100
AcDbSymbolTableRecord
100
AcDbLinetypeTableRecord
  2
BYLAYER
 70
    64
  3

 72
    65
 73
     0
 40
0.0
  0
LTYPE
  5
13
100
AcDbSymbolTableRecord
100
AcDbLinetypeTableRecord
  2
CONTINUOUS
 70
    64
  3
Solid line
 72
    65
 73
     0
 40
0.0
  0
LTYPE
  5
1E
100
AcDbSymbolTableRecord
100
AcDbLinetypeTableRecord
  2
HIDDEN
 70
    64
  3
- - - - - - - - 
 72
    65
 73
     2
 40
12.6
 49
8.4
 74
     0
 49
-4.2
 74
     0
  0
LTYPE
  5
1F
100
AcDbSymbolTableRecord
100
AcDbLinetypeTableRecord
  2
DOT
 70
    64
  3
･ ･ ･ ･ ･ ･ ･ ･ 
 72
    65
 73
     2
 40
8.0
 49
6.0
 74
     0
 49
-2.0
 74
     0
  0
LTYPE
  5
20
100
AcDbSymbolTableRecord
100
AcDbLinetypeTableRecord
  2
CENTER
 70
    64
  3
- ･ - ･ - ･ - ･ 
 72
    65
 73
     4
 40
50.5
 49
30.0
 74
     0
 49
-9.0
 74
     0
 49
2.5
 74
     0
 49
-9.0
 74
     0
  0
LTYPE
  5
21
100
AcDbSymbolTableRecord
100
AcDbLinetypeTableRecord
  2
PHANTOM
 70
    64
  3
- ･･ - ･･ - ･･ - ･･ 
 72
    65
 73
     6
 40
58.0
 49
30.0
 74
     0
 49
-9.0
 74
     0
 49
2.5
 74
     0
 49
-5.0
 74
     0
 49
2.5
 74
     0
 49
-9.0
 74
     0
  0
LTYPE
  5
22
100
AcDbSymbolTableRecord
100
AcDbLinetypeTableRecord
  2
ACAD_ISO06W100
 70
    64
  3
____ ... ____ ... ____
 72
    65
 73
     8
 40
37.5
 49
24.0
 74
     0
 49
-3.0
 74
     0
 49
0.5
 74
     0
 49
-3.0
 74
     0
 49
0.5
 74
     0
 49
-3.0
 74
     0
 49
0.5
 74
     0
 49
-3.0
 74
     0
  0
LTYPE
  5
23
100
AcDbSymbolTableRecord
100
AcDbLinetypeTableRecord
  2
ACAD_ISO14W100
 70
    64
  3
__ . . . __ . . . __ . . . 
 72
    65
 73
     8
 40
25.5
 49
12.0
 74
     0
 49
-3.0
 74
     0
 49
0.5
 74
     0
 49
-3.0
 74
     0
 49
0.5
 74
     0
 49
-3.0
 74
     0
 49
0.5
 74
     0
 49
-3.0
 74
     0
  0
ENDTAB
  0
TABLE
  2
LAYER
  5
2
100
AcDbSymbolTable
 70
    22
  0
LAYER
  5
14
100
AcDbSymbolTableRecord
100
AcDbLayerTableRecord
  2
0
 70
     0
 62
     7
  6
CONTINUOUS
  0
LAYER
  5
24
100
AcDbSymbolTableRecord
100
AcDbLayerTableRecord
  2
1
 70
     0
 62
     7
  6
CONTINUOUS
  0
LAYER
  5
25
100
AcDbSymbolTableRecord
100
AcDbLayerTableRecord
  2
2
 70
     0
 62
   134
  6
CONTINUOUS
  0
LAYER
  5
26
100
AcDbSymbolTableRecord
100
AcDbLayerTableRecord
  2
3
 70
     0
 62
   214
  6
CONTINUOUS
  0
LAYER
  5
27
100
AcDbSymbolTableRecord
100
AcDbLayerTableRecord
  2
4
 70
     0
 62
    54
  6
CONTINUOUS
  0
LAYER
  5
28
100
AcDbSymbolTableRecord
100
AcDbLayerTableRecord
  2
5
 70
     0
 62
    94
  6
CONTINUOUS
  0
LAYER
  5
29
100
AcDbSymbolTableRecord
100
AcDbLayerTableRecord
  2
6
 70
     0
 62
    14
  6
CONTINUOUS
  0
LAYER
  5
2A
100
AcDbSymbolTableRecord
100
AcDbLayerTableRecord
  2
7
 70
     0
 62
     4
  6
CONTINUOUS
  0
LAYER
  5
2B
100
AcDbSymbolTableRecord
100
AcDbLayerTableRecord
  2
8
 70
     0
 62
     6
  6
CONTINUOUS
  0
LAYER
  5
2C
100
AcDbSymbolTableRecord
100
AcDbLayerTableRecord
  2
9
 70
     0
 62
     2
  6
CONTINUOUS
  0
LAYER
  5
2D
100
AcDbSymbolTableRecord
100
AcDbLayerTableRecord
  2
10
 70
     0
 62
     3
  6
CONTINUOUS
  0
LAYER
  5
2E
100
AcDbSymbolTableRecord
100
AcDbLayerTableRecord
  2
11
 70
     0
 62
   251
  6
CONTINUOUS
  0
LAYER
  5
2F
100
AcDbSymbolTableRecord
100
AcDbLayerTableRecord
  2
12
 70
     0
 62
   136
  6
CONTINUOUS
  0
LAYER
  5
30
100
AcDbSymbolTableRecord
100
AcDbLayerTableRecord
  2
13
 70
     0
 62
   216
  6
CONTINUOUS
  0
LAYER
  5
31
100
AcDbSymbolTableRecord
100
AcDbLayerTableRecord
  2
14
 70
     0
 62
    56
  6
CONTINUOUS
  0
LAYER
  5
32
100
AcDbSymbolTableRecord
100
AcDbLayerTableRecord
  2
15
 70
     0
 62
    96
  6
CONTINUOUS
  0
LAYER
  5
33
100
AcDbSymbolTableRecord
100
AcDbLayerTableRecord
  2
16
 70
     0
 62
    16
  6
CONTINUOUS
  0
LAYER
  5
34
100
AcDbSymbolTableRecord
100
AcDbLayerTableRecord
  2
17
 70
     0
 62
   132
  6
CONTINUOUS
  0
LAYER
  5
35
100
AcDbSymbolTableRecord
100
AcDbLayerTableRecord
  2
18
 70
     0
 62
   212
  6
CONTINUOUS
  0
LAYER
  5
36
100
AcDbSymbolTableRecord
100
AcDbLayerTableRecord
  2
19
 70
     0
 62
    52
  6
CONTINUOUS
  0
LAYER
  5
37
100
AcDbSymbolTableRecord
100
AcDbLayerTableRecord
  2
20
 70
     0
 62
   250
  6
CONTINUOUS
  0
LAYER
  5
38
100
AcDbSymbolTableRecord
100
AcDbLayerTableRecord
  2
128
 70
     0
 62
     7
  6
CONTINUOUS
  0
ENDTAB
  0
TABLE
  2
STYLE
  5
3
100
AcDbSymbolTable
 70
     2
  0
STYLE
  5
17
100
AcDbSymbolTableRecord
100
AcDbTextStyleTableRecord
  2
STANDARD
 70
     0
 40
0.0
 41
1.0
 50
0.0
 71
     0
 42
0.0
  3
txt
  4
bigfont
  0
STYLE
  5
1D
100
AcDbSymbolTableRecord
100
AcDbTextStyleTableRecord
  2
T_STANDARD
 70
    68
 40
10.0
 41
1.0
 50
0.0
 71
     0
 42
10.0
  3
txt
  4
bigfont
  0
ENDTAB
  0
TABLE
  2
VIEW
  5
5
100
AcDbSymbolTable
 70
     0
  0
ENDTAB
  0
TABLE
  2
UCS
  5
6
100
AcDbSymbolTable
 70
     0
  0
ENDTAB
  0
TABLE
  2
APPID
  5
8
100
AcDbSymbolTable
 70
     1
  0
APPID
  5
16
100
AcDbSymbolTableRecord
100
AcDbRegAppTableRecord
  2
ACAD
 70
     0
  0
ENDTAB
  0
TABLE
  2
DIMSTYLE
  5
9
100
AcDbSymbolTable
 70
     1
  0
DIMSTYLE
105
18
100
AcDbSymbolTableRecord
100
AcDbDimStyleTableRecord
  2
STANDARD
 70
     0
  3

  4

  5

  6

  7

 40
1.0
 41
0.18
 42
0.0625
 43
0.38
 44
0.18
 45
0.0
 46
0.0
 47
0.0
 48
0.0
 71
     0
 72
     0
 73
     1
 74
     1
 75
     0
 76
     0
 77
     0
 78
     0
140
0.18
141
0.09
142
0.0
143
25.4
144
1.0
145
0.0
146
1.0
147
0.09
170
     0
171
     2
172
     0
173
     0
174
     0
175
     0
176
     0
177
     0
178
     0
270
     2
271
     4
272
     4
273
     2
274
     2
275
     0
280
     0
281
     0
282
     0
283
     1
284
     0
285
     0
286
     0
287
     0
288
     0
340
17
  0
ENDTAB
  0
TABLE
  2
BLOCK_RECORD
  5
1
100
AcDbSymbolTable
 70
     5
  0
BLOCK_RECORD
  5
A
100
AcDbSymbolTableRecord
100
AcDbBlockTableRecord
  2
*MODEL_SPACE
  0
BLOCK_RECORD
  5
B
100
AcDbSymbolTableRecord
100
AcDbBlockTableRecord
  2
*PAPER_SPACE
  0
BLOCK_RECORD
  5
39
100
AcDbSymbolTableRecord
100
AcDbBlockTableRecord
  2
*G0
  0
BLOCK_RECORD
  5
91
100
AcDbSymbolTableRecord
100
AcDbBlockTableRecord
  2
*G1
  0
BLOCK_RECORD
  5
19D
100
AcDbSymbolTableRecord
100
AcDbBlockTableRecord
  2
*D2
  0
BLOCK_RECORD
  5
1A9
100
AcDbSymbolTableRecord
100
AcDbBlockTableRecord
  2
*D3
  0
BLOCK_RECORD
  5
1B5
100
AcDbSymbolTableRecord
100
AcDbBlockTableRecord
  2
*D4
  0
ENDTAB
  0
ENDSEC
  0
SECTION
  2
BLOCKS
  0
BLOCK
  5
D
100
AcDbEntity
  8
0
100
AcDbBlockBegin
  2
*MODEL_SPACE
 70
     0
 10
0.0
 20
0.0
 30
0.0
  3
*MODEL_SPACE
  1

  0
ENDBLK
  5
E
100
AcDbEntity
  8
0
100
AcDbBlockEnd
  0
BLOCK
  5
F
100
AcDbEntity
 67
     1
  8
0
100
AcDbBlockBegin
  2
*PAPER_SPACE
 70
     0
 10
0.0
 20
0.0
 30
0.0
  3
*PAPER_SPACE
  1

  0
ENDBLK
  5
10
100
AcDbEntity
 67
     1
  8
0
100
AcDbBlockEnd
  0
BLOCK
  5
3A
100
AcDbEntity
  8
0
  6
CONTINUOUS
 62
     7
100
AcDbBlockBegin
  2
*G0
 70
     0
 10
0.0
 20
0.0
 30
0.0
  3
*G0
  1

  0
ENDBLK
  5
3B
100
AcDbEntity
  8
0
100
AcDbBlockEnd
  0
BLOCK
  5
92
100
AcDbEntity
  8
0
  6
CONTINUOUS
 62
   214
100
AcDbBlockBegin
  2
*G1
 70
     0
 10
0.0
 20
0.0
 30
0.0
  3
*G1
  1

  0
LINE
  5
93
100
AcDbEntity
  8
3
  6
CONTINUOUS
 62
   214
100
AcDbLine
 10
159.910904
 20
113.229193
 30
0.0
 11
159.974067
 21
113.25551
 31
0.0
  0
LINE
  5
94
100
AcDbEntity
  8
3
  6
CONTINUOUS
 62
   214
100
AcDbLine
 10
159.907835
 20
113.336247
 30
0.0
 11
160.10198
 21
113.417142
 31
0.0
  0
LINE
  5
95
100
AcDbEntity
  8
3
  6
CONTINUOUS
 62
   214
100
AcDbLine
 10
159.904765
 20
113.443302
 30
0.0
 11
160.229895
 21
113.578774
 31
0.0
  0
LINE
  5
96
100
AcDbEntity
  8
3
  6
CONTINUOUS
 62
   214
100
AcDbLine
 10
159.901697
 20
113.550356
 30
0.0
 11
160.35781
 21
113.740404
 31
0.0
  0
LINE
  5
97
100
AcDbEntity
  8
3
  6
CONTINUOUS
 62
   214
100
AcDbLine
 10
159.898628
 20
113.657411
 30
0.0
 11
160.485725
 21
113.902037
 31
0.0
  0
LINE
  5
98
100
AcDbEntity
  8
3
  6
CONTINUOUS
 62
   214
100
AcDbLine
 10
159.895559
 20
113.764466
 30
0.0
 11
160.61364
 21
114.063668
 31
0.0
  0
LINE
  5
99
100
AcDbEntity
  8
3
  6
CONTINUOUS
 62
   214
100
AcDbLine
 10
159.89249
 20
113.87152
 30
0.0
 11
160.741553
 21
114.2253
 31
0.0
  0
LINE
  5
9A
100
AcDbEntity
  8
3
  6
CONTINUOUS
 62
   214
100
AcDbLine
 10
159.889421
 20
113.978575
 30
0.0
 11
160.869469
 21
114.386931
 31
0.0
  0
LINE
  5
9B
100
AcDbEntity
  8
3
  6
CONTINUOUS
 62
   214
100
AcDbLine
 10
159.886354
 20
114.08563
 30
0.0
 11
160.997383
 21
114.548562
 31
0.0
  0
LINE
  5
9C
100
AcDbEntity
  8
3
  6
CONTINUOUS
 62
   214
100
AcDbLine
 10
159.883283
 20
114.192684
 30
0.0
 11
161.10067
 21
114.699933
 31
0.0
  0
LINE
  5
9D
100
AcDbEntity
  8
3
  6
CONTINUOUS
 62
   214
100
AcDbLine
 10
159.880214
 20
114.29974
 30
0.0
 11
160.955938
 21
114.747961
 31
0.0
  0
LINE
  5
9E
100
AcDbEntity
  8
3
  6
CONTINUOUS
 62
   214
100
AcDbLine
 10
159.877145
 20
114.406795
 30
0.0
 11
160.811205
 21
114.795989
 31
0.0
  0
LINE
  5
9F
100
AcDbEntity
  8
3
  6
CONTINUOUS
 62
   214
100
AcDbLine
 10
159.874077
 20
114.513849
 30
0.0
 11
160.666474
 21
114.844018
 31
0.0
  0
LINE
  5
A0
100
AcDbEntity
  8
3
  6
CONTINUOUS
 62
   214
100
AcDbLine
 10
159.871008
 20
114.620904
 30
0.0
 11
160.521742
 21
114.892044
 31
0.0
  0
LINE
  5
A1
100
AcDbEntity
  8
3
  6
CONTINUOUS
 62
   214
100
AcDbLine
 10
159.867939
 20
114.727958
 30
0.0
 11
160.37701
 21
114.940072
 31
0.0
  0
LINE
  5
A2
100
AcDbEntity
  8
3
  6
CONTINUOUS
 62
   214
100
AcDbLine
 10
159.864871
 20
114.835012
 30
0.0
 11
160.232278
 21
114.9881
 31
0.0
  0
LINE
  5
A3
100
AcDbEntity
  8
3
  6
CONTINUOUS
 62
   214
100
AcDbLine
 10
159.861801
 20
114.942068
 30
0.0
 11
160.087546
 21
115.036128
 31
0.0
  0
LINE
  5
A4
100
AcDbEntity
  8
3
  6
CONTINUOUS
 62
   214
100
AcDbLine
 10
159.858732
 20
115.049123
 30
0.0
 11
159.942814
 21
115.084156
 31
0.0
  0
ENDBLK
  5
A5
100
AcDbEntity
  8
0
100
AcDbBlockEnd
  0
BLOCK
  5
19E
100
AcDbEntity
  8
2
  6
CONTINUOUS
 62
   134
100
AcDbBlockBegin
  2
*D2
 70
     0
 10
0.0
 20
0.0
 30
0.0
  3
*D2
  1

  0
LINE
  5
19F
100
AcDbEntity
  8
2
  6
CONTINUOUS
 62
   134
100
AcDbLine
 10
86.891556
 20
79.127288
 30
0.0
 11
86.891556
 21
157.127288
 31
0.0
  0
LINE
  5
1A0
100
AcDbEntity
  8
2
  6
CONTINUOUS
 62
   134
100
AcDbLine
 10
84.891556
 20
79.127288
 30
0.0
 11
100.455805
 21
79.127288
 31
0.0
  0
LINE
  5
1A1
100
AcDbEntity
  8
2
  6
CONTINUOUS
 62
   134
100
AcDbLine
 10
84.891556
 20
157.127288
 30
0.0
 11
98.391556
 21
157.127288
 31
0.0
  0
LINE
  5
1A2
100
AcDbEntity
  8
2
  6
CONTINUOUS
 62
   134
100
AcDbLine
 10
86.891556
 20
79.127288
 30
0.0
 11
85.85628
 21
82.990992
 31
0.0
  0
LINE
  5
1A3
100
AcDbEntity
  8
2
  6
CONTINUOUS
 62
   134
100
AcDbLine
 10
86.891556
 20
79.127288
 30
0.0
 11
87.926832
 21
82.990992
 31
0.0
  0
LINE
  5
1A4
100
AcDbEntity
  8
2
  6
CONTINUOUS
 62
   134
100
AcDbLine
 10
86.891556
 20
157.127288
 30
0.0
 11
87.926832
 21
153.263585
 31
0.0
  0
LINE
  5
1A5
100
AcDbEntity
  8
2
  6
CONTINUOUS
 62
   134
100
AcDbLine
 10
86.891556
 20
157.127288
 30
0.0
 11
85.85628
 21
153.263585
 31
0.0
  0
TEXT
  5
1A6
100
AcDbEntity
  8
2
  6
CONTINUOUS
 62
   134
100
AcDbText
 10
86.891556
 20
116.127288
 30
0.0
 40
4.0
  1
78
 50
90.0
 41
0.5
 11
86.891556
 21
116.127288
 31
0.0
100
AcDbText
 73
     1
  0
ENDBLK
  5
1A7
100
AcDbEntity
  8
2
  6
CONTINUOUS
 62
   134
100
AcDbBlockEnd
  0
BLOCK
  5
1AA
100
AcDbEntity
  8
2
  6
CONTINUOUS
 62
   134
100
AcDbBlockBegin
  2
*D3
 70
     0
 10
0.0
 20
0.0
 30
0.0
  3
*D3
  1

  0
LINE
  5
1AB
100
AcDbEntity
  8
2
  6
CONTINUOUS
 62
   134
100
AcDbLine
 10
98.891556
 20
169.127288
 30
0.0
 11
196.891556
 21
169.127288
 31
0.0
  0
LINE
  5
1AC
100
AcDbEntity
  8
2
  6
CONTINUOUS
 62
   134
100
AcDbLine
 10
98.891556
 20
171.127288
 30
0.0
 11
98.891556
 21
157.627288
 31
0.0
  0
LINE
  5
1AD
100
AcDbEntity
  8
2
  6
CONTINUOUS
 62
   134
100
AcDbLine
 10
196.891556
 20
171.127288
 30
0.0
 11
196.891556
 21
157.627288
 31
0.0
  0
LINE
  5
1AE
100
AcDbEntity
  8
2
  6
CONTINUOUS
 62
   134
100
AcDbLine
 10
98.891556
 20
169.127288
 30
0.0
 11
102.755259
 21
170.162564
 31
0.0
  0
LINE
  5
1AF
100
AcDbEntity
  8
2
  6
CONTINUOUS
 62
   134
100
AcDbLine
 10
98.891556
 20
169.127288
 30
0.0
 11
102.755259
 21
168.092012
 31
0.0
  0
LINE
  5
1B0
100
AcDbEntity
  8
2
  6
CONTINUOUS
 62
   134
100
AcDbLine
 10
196.891556
 20
169.127288
 30
0.0
 11
193.027853
 21
168.092012
 31
0.0
  0
LINE
  5
1B1
100
AcDbEntity
  8
2
  6
CONTINUOUS
 62
   134
100
AcDbLine
 10
196.891556
 20
169.127288
 30
0.0
 11
193.027853
 21
170.162564
 31
0.0
  0
TEXT
  5
1B2
100
AcDbEntity
  8
2
  6
CONTINUOUS
 62
   134
100
AcDbText
 10
145.891556
 20
169.127288
 30
0.0
 40
4.0
  1
98
 41
0.5
 11
145.891556
 21
169.127288
 31
0.0
100
AcDbText
 73
     1
  0
ENDBLK
  5
1B3
100
AcDbEntity
  8
2
  6
CONTINUOUS
 62
   134
100
AcDbBlockEnd
  0
BLOCK
  5
1B6
100
AcDbEntity
  8
2
  6
CONTINUOUS
 62
   134
100
AcDbBlockBegin
  2
*D4
 70
     0
 10
0.0
 20
0.0
 30
0.0
  3
*D4
  1

  0
LINE
  5
1B7
100
AcDbEntity
  8
2
  6
CONTINUOUS
 62
   134
100
AcDbLine
 10
315.591556
 20
169.127288
 30
0.0
 11
285.891556
 21
169.127288
 31
0.0
  0
LINE
  5
1B8
100
AcDbEntity
  8
2
  6
CONTINUOUS
 62
   134
100
AcDbLine
 10
315.591556
 20
171.127288
 30
0.0
 11
315.591556
 21
157.627288
 31
0.0
  0
LINE
  5
1B9
100
AcDbEntity
  8
2
  6
CONTINUOUS
 62
   134
100
AcDbLine
 10
285.891556
 20
171.127288
 30
0.0
 11
285.891556
 21
157.627288
 31
0.0
  0
LINE
  5
1BA
100
AcDbEntity
  8
2
  6
CONTINUOUS
 62
   134
100
AcDbLine
 10
315.591556
 20
169.127288
 30
0.0
 11
311.727853
 21
168.092012
 31
0.0
  0
LINE
  5
1BB
100
AcDbEntity
  8
2
  6
CONTINUOUS
 62
   134
100
AcDbLine
 10
315.591556
 20
169.127288
 30
0.0
 11
311.727853
 21
170.162564
 31
0.0
  0
LINE
  5
1BC
100
AcDbEntity
  8
2
  6
CONTINUOUS
 62
   134
100
AcDbLine
 10
285.891556
 20
169.127288
 30
0.0
 11
289.755259
 21
170.162564
 31
0.0
  0
LINE
  5
1BD
100
AcDbEntity
  8
2
  6
CONTINUOUS
 62
   134
100
AcDbLine
 10
285.891556
 20
169.127288
 30
0.0
 11
289.755259
 21
168.092012
 31
0.0
  0
TEXT
  5
1BE
100
AcDbEntity
  8
2
  6
CONTINUOUS
 62
   134
100
AcDbText
 10
296.741556
 20
169.127288
 30
0.0
 40
4.0
  1
29.7
 41
0.555556
 11
296.741556
 21
169.127288
 31
0.0
100
AcDbText
 73
     1
  0
ENDBLK
  5
1BF
100
AcDbEntity
  8
2
  6
CONTINUOUS
 62
   134
100
AcDbBlockEnd
  0
ENDSEC
  0
SECTION
  2
ENTITIES
  0
INSERT
  5
3C
100
AcDbEntity
  8
0
  6
CONTINUOUS
 62
     7
100
AcDbBlockReference
  2
*G0
 10
0.0
 20
0.0
 30
0.0
  0
TEXT
  5
3D
100
AcDbEntity
  8
10
  6
CONTINUOUS
 62
     3
100
AcDbText
 10
172.017495
 20
39.57732
 30
0.0
 40
10.0
  1
MSW-B-*.*-****-E1
 41
0.512048
 11
172.017495
 21
39.57732
 31
0.0
100
AcDbText
 73
     1
  0
LINE
  5
3E
100
AcDbEntity
  8
3
  6
CONTINUOUS
 62
   214
100
AcDbLine
 10
114.977342
 20
152.541502
 30
0.0
 11
117.805769
 21
149.713075
 31
0.0
  0
LINE
  5
3F
100
AcDbEntity
  8
3
  6
CONTINUOUS
 62
   214
100
AcDbLine
 10
114.977342
 20
149.713075
 30
0.0
 11
117.805769
 21
152.541502
 31
0.0
  0
CIRCLE
  5
40
100
AcDbEntity
  8
3
  6
CONTINUOUS
 62
   214
100
AcDbCircle
 10
116.391556
 20
151.127288
 30
0.0
 40
2.8
  0
LINE
  5
41
100
AcDbEntity
  8
3
  6
CONTINUOUS
 62
   214
100
AcDbLine
 10
177.977342
 20
152.541502
 30
0.0
 11
180.805769
 21
149.713075
 31
0.0
  0
LINE
  5
42
100
AcDbEntity
  8
3
  6
CONTINUOUS
 62
   214
100
AcDbLine
 10
177.977342
 20
149.713075
 30
0.0
 11
180.805769
 21
152.541502
 31
0.0
  0
CIRCLE
  5
43
100
AcDbEntity
  8
3
  6
CONTINUOUS
 62
   214
100
AcDbCircle
 10
179.391556
 20
151.127288
 30
0.0
 40
2.8
  0
LINE
  5
44
100
AcDbEntity
  8
3
  6
CONTINUOUS
 62
   214
100
AcDbLine
 10
114.977342
 20
86.541502
 30
0.0
 11
117.805769
 21
83.713075
 31
0.0
  0
LINE
  5
45
100
AcDbEntity
  8
3
  6
CONTINUOUS
 62
   214
100
AcDbLine
 10
114.977342
 20
83.713075
 30
0.0
 11
117.805769
 21
86.541502
 31
0.0
  0
CIRCLE
  5
46
100
AcDbEntity
  8
3
  6
CONTINUOUS
 62
   214
100
AcDbCircle
 10
116.391556
 20
85.127288
 30
0.0
 40
2.8
  0
CIRCLE
  5
47
100
AcDbEntity
  8
3
  6
CONTINUOUS
 62
   214
100
AcDbCircle
 10
179.391556
 20
85.127288
 30
0.0
 40
4.5
  0
LINE
  5
48
100
AcDbEntity
  8
3
  6
CONTINUOUS
 62
   214
100
AcDbLine
 10
177.623789
 20
86.895055
 30
0.0
 11
181.159323
 21
83.359521
 31
0.0
  0
LINE
  5
49
100
AcDbEntity
  8
3
  6
CONTINUOUS
 62
   214
100
AcDbLine
 10
177.623789
 20
83.359521
 30
0.0
 11
181.159323
 21
86.895055
 31
0.0
  0
LINE
  5
4A
100
AcDbEntity
  8
3
  6
CONTINUOUS
 62
   214
100
AcDbLine
 10
182.191556
 20
210.334886
 30
0.0
 11
182.191556
 21
210.626252
 31
0.0
  0
ARC
  5
4B
100
AcDbEntity
  8
3
  6
CONTINUOUS
 62
   214
100
AcDbCircle
 10
180.191556
 20
210.334886
 30
0.0
 40
2.0
100
AcDbArc
 50
-74.53399
 51
0.0
  0
LINE
  5
4C
100
AcDbEntity
  8
3
  6
CONTINUOUS
 62
   214
100
AcDbLine
 10
176.591556
 20
210.334886
 30
0.0
 11
176.591556
 21
210.626252
 31
0.0
  0
ARC
  5
4D
100
AcDbEntity
  8
3
  6
CONTINUOUS
 62
   214
100
AcDbCircle
 10
178.591556
 20
210.334886
 30
0.0
 40
2.0
100
AcDbArc
 50
-180.0
 51
-105.46601
  0
LINE
  5
4E
100
AcDbEntity
  8
3
  6
CONTINUOUS
 62
   214
100
AcDbLine
 10
179.791556
 20
208.242278
 30
0.0
 11
179.791556
 21
208.426252
 31
0.0
  0
LINE
  5
4F
100
AcDbEntity
  8
3
  6
CONTINUOUS
 62
   214
100
AcDbLine
 10
179.791556
 20
208.426252
 30
0.0
 11
179.391556
 21
208.426252
 31
0.0
  0
LINE
  5
50
100
AcDbEntity
  8
3
  6
CONTINUOUS
 62
   214
100
AcDbLine
 10
178.991556
 20
208.242278
 30
0.0
 11
178.991556
 21
208.426252
 31
0.0
  0
LINE
  5
51
100
AcDbEntity
  8
3
  6
CONTINUOUS
 62
   214
100
AcDbLine
 10
178.991556
 20
208.426252
 30
0.0
 11
179.391556
 21
208.426252
 31
0.0
  0
ARC
  5
52
100
AcDbEntity
  8
3
  6
CONTINUOUS
 62
   214
100
AcDbCircle
 10
179.391556
 20
213.226252
 30
0.0
 40
5.0
100
AcDbArc
 50
-85.411434
 51
-74.53399
  0
ARC
  5
53
100
AcDbEntity
  8
3
  6
CONTINUOUS
 62
   214
100
AcDbCircle
 10
179.391556
 20
213.226252
 30
0.0
 40
5.0
100
AcDbArc
 50
-105.46601
 51
-94.588566
  0
LINE
  5
54
100
AcDbEntity
  8
3
  6
CONTINUOUS
 62
   214
100
AcDbLine
 10
179.791556
 20
206.426252
 30
0.0
 11
179.391556
 21
206.426252
 31
0.0
  0
LINE
  5
55
100
AcDbEntity
  8
3
  6
CONTINUOUS
 62
   214
100
AcDbLine
 10
178.991556
 20
206.426252
 30
0.0
 11
179.391556
 21
206.426252
 31
0.0
  0
LINE
  5
56
100
AcDbEntity
  8
3
  6
CONTINUOUS
 62
   214
100
AcDbLine
 10
174.891556
 20
209.026252
 30
0.0
 11
174.891556
 21
208.726252
 31
0.0
  0
LINE
  5
57
100
AcDbEntity
  8
3
  6
CONTINUOUS
 62
   214
100
AcDbLine
 10
183.891556
 20
209.026252
 30
0.0
 11
183.891556
 21
208.726252
 31
0.0
  0
ARC
  5
58
100
AcDbEntity
  8
3
  6
CONTINUOUS
 62
   214
100
AcDbCircle
 10
179.391556
 20
211.526252
 30
0.0
 40
5.3
100
AcDbArc
 50
-148.109208
 51
-94.328325
  0
ARC
  5
59
100
AcDbEntity
  8
3
  6
CONTINUOUS
 62
   214
100
AcDbCircle
 10
179.391556
 20
211.526252
 30
0.0
 40
5.3
100
AcDbArc
 50
-85.671675
 51
-31.890792
  0
LINE
  5
5A
100
AcDbEntity
  8
3
  6
CONTINUOUS
 62
   214
100
AcDbLine
 10
179.791556
 20
206.241368
 30
0.0
 11
179.791556
 21
206.426252
 31
0.0
  0
LINE
  5
5B
100
AcDbEntity
  8
3
  6
CONTINUOUS
 62
   214
100
AcDbLine
 10
178.991556
 20
206.241368
 30
0.0
 11
178.991556
 21
206.426252
 31
0.0
  0
LINE
  5
5C
100
AcDbEntity
  8
3
  6
CONTINUOUS
 62
   214
100
AcDbLine
 10
147.016058
 20
132.530335
 30
0.0
 11
149.844485
 21
129.701908
 31
0.0
  0
CIRCLE
  5
5D
100
AcDbEntity
  8
3
  6
CONTINUOUS
 62
   214
100
AcDbCircle
 10
148.430272
 20
131.116121
 30
0.0
 40
2.8
  0
LINE
  5
5E
100
AcDbEntity
  8
3
  6
CONTINUOUS
 62
   214
100
AcDbLine
 10
146.450548
 20
129.136397
 30
0.0
 11
150.409509
 21
133.095359
 31
0.0
  0
LINE
  5
5F
100
AcDbEntity
  8
3
  6
CONTINUOUS
 62
   214
100
AcDbLine
 10
151.235724
 20
208.034886
 30
0.0
 11
151.235724
 21
208.326252
 31
0.0
  0
ARC
  5
60
100
AcDbEntity
  8
3
  6
CONTINUOUS
 62
   214
100
AcDbCircle
 10
149.235724
 20
208.034886
 30
0.0
 40
2.0
100
AcDbArc
 50
-74.53399
 51
0.0
  0
LINE
  5
61
100
AcDbEntity
  8
3
  6
CONTINUOUS
 62
   214
100
AcDbLine
 10
145.635724
 20
208.034886
 30
0.0
 11
145.635724
 21
208.326252
 31
0.0
  0
ARC
  5
62
100
AcDbEntity
  8
3
  6
CONTINUOUS
 62
   214
100
AcDbCircle
 10
147.635724
 20
208.034886
 30
0.0
 40
2.0
100
AcDbArc
 50
-180.0
 51
-105.46601
  0
LINE
  5
63
100
AcDbEntity
  8
3
  6
CONTINUOUS
 62
   214
100
AcDbLine
 10
148.835724
 20
205.942278
 30
0.0
 11
148.835724
 21
206.126252
 31
0.0
  0
LINE
  5
64
100
AcDbEntity
  8
3
  6
CONTINUOUS
 62
   214
100
AcDbLine
 10
148.835724
 20
206.126252
 30
0.0
 11
148.435724
 21
206.126252
 31
0.0
  0
LINE
  5
65
100
AcDbEntity
  8
3
  6
CONTINUOUS
 62
   214
100
AcDbLine
 10
148.035724
 20
205.942278
 30
0.0
 11
148.035724
 21
206.126252
 31
0.0
  0
LINE
  5
66
100
AcDbEntity
  8
3
  6
CONTINUOUS
 62
   214
100
AcDbLine
 10
148.035724
 20
206.126252
 30
0.0
 11
148.435724
 21
206.126252
 31
0.0
  0
ARC
  5
67
100
AcDbEntity
  8
3
  6
CONTINUOUS
 62
   214
100
AcDbCircle
 10
148.435724
 20
210.926252
 30
0.0
 40
5.0
100
AcDbArc
 50
-85.411434
 51
-74.53399
  0
ARC
  5
68
100
AcDbEntity
  8
3
  6
CONTINUOUS
 62
   214
100
AcDbCircle
 10
148.435724
 20
210.926252
 30
0.0
 40
5.0
100
AcDbArc
 50
-105.46601
 51
-94.588566
  0
LINE
  5
69
100
AcDbEntity
  8
3
  6
CONTINUOUS
 62
   214
100
AcDbLine
 10
281.691556
 20
84.727288
 30
0.0
 11
281.691556
 21
85.127288
 31
0.0
  0
LINE
  5
6A
100
AcDbEntity
  8
3
  6
CONTINUOUS
 62
   214
100
AcDbLine
 10
281.691556
 20
85.527288
 30
0.0
 11
281.691556
 21
85.127288
 31
0.0
  0
LINE
  5
6B
100
AcDbEntity
  8
3
  6
CONTINUOUS
 62
   214
100
AcDbLine
 10
284.291556
 20
89.627288
 30
0.0
 11
283.991556
 21
89.627288
 31
0.0
  0
LINE
  5
6C
100
AcDbEntity
  8
3
  6
CONTINUOUS
 62
   214
100
AcDbLine
 10
284.291556
 20
80.627288
 30
0.0
 11
283.991556
 21
80.627288
 31
0.0
  0
ARC
  5
6D
100
AcDbEntity
  8
3
  6
CONTINUOUS
 62
   214
100
AcDbCircle
 10
286.791556
 20
85.127288
 30
0.0
 40
5.3
100
AcDbArc
 50
-175.671675
 51
-121.890792
  0
LINE
  5
6E
100
AcDbEntity
  8
3
  6
CONTINUOUS
 62
   214
100
AcDbLine
 10
281.506672
 20
84.727288
 30
0.0
 11
281.691556
 21
84.727288
 31
0.0
  0
LINE
  5
6F
100
AcDbEntity
  8
3
  6
CONTINUOUS
 62
   214
100
AcDbLine
 10
281.506672
 20
85.527288
 30
0.0
 11
281.691556
 21
85.527288
 31
0.0
  0
ARC
  5
70
100
AcDbEntity
  8
3
  6
CONTINUOUS
 62
   214
100
AcDbCircle
 10
286.791556
 20
85.127288
 30
0.0
 40
5.3
100
AcDbArc
 50
121.890792
 51
175.671675
  0
LINE
  5
71
100
AcDbEntity
  8
3
  6
CONTINUOUS
 62
   214
100
AcDbLine
 10
283.300189
 20
128.316121
 30
0.0
 11
283.591556
 21
128.316121
 31
0.0
  0
ARC
  5
72
100
AcDbEntity
  8
3
  6
CONTINUOUS
 62
   214
100
AcDbCircle
 10
283.300189
 20
130.316121
 30
0.0
 40
2.0
100
AcDbArc
 50
-164.53399
 51
-90.0
  0
LINE
  5
73
100
AcDbEntity
  8
3
  6
CONTINUOUS
 62
   214
100
AcDbLine
 10
283.300189
 20
133.916121
 30
0.0
 11
283.591556
 21
133.916121
 31
0.0
  0
ARC
  5
74
100
AcDbEntity
  8
3
  6
CONTINUOUS
 62
   214
100
AcDbCircle
 10
283.300189
 20
131.916121
 30
0.0
 40
2.0
100
AcDbArc
 50
90.0
 51
164.53399
  0
LINE
  5
75
100
AcDbEntity
  8
3
  6
CONTINUOUS
 62
   214
100
AcDbLine
 10
281.207582
 20
130.716121
 30
0.0
 11
281.391556
 21
130.716121
 31
0.0
  0
LINE
  5
76
100
AcDbEntity
  8
3
  6
CONTINUOUS
 62
   214
100
AcDbLine
 10
281.391556
 20
130.716121
 30
0.0
 11
281.391556
 21
131.116121
 31
0.0
  0
LINE
  5
77
100
AcDbEntity
  8
3
  6
CONTINUOUS
 62
   214
100
AcDbLine
 10
281.207582
 20
131.516121
 30
0.0
 11
281.391556
 21
131.516121
 31
0.0
  0
LINE
  5
78
100
AcDbEntity
  8
3
  6
CONTINUOUS
 62
   214
100
AcDbLine
 10
281.391556
 20
131.516121
 30
0.0
 11
281.391556
 21
131.116121
 31
0.0
  0
ARC
  5
79
100
AcDbEntity
  8
3
  6
CONTINUOUS
 62
   214
100
AcDbCircle
 10
286.191556
 20
131.116121
 30
0.0
 40
5.0
100
AcDbArc
 50
-175.411434
 51
-164.53399
  0
ARC
  5
7A
100
AcDbEntity
  8
3
  6
CONTINUOUS
 62
   214
100
AcDbCircle
 10
286.191556
 20
131.116121
 30
0.0
 40
5.0
100
AcDbArc
 50
164.53399
 51
175.411434
  0
LINE
  5
7B
100
AcDbEntity
  8
3
  6
CONTINUOUS
 62
   214
100
AcDbLine
 10
285.600189
 20
148.327288
 30
0.0
 11
285.891556
 21
148.327288
 31
0.0
  0
ARC
  5
7C
100
AcDbEntity
  8
3
  6
CONTINUOUS
 62
   214
100
AcDbCircle
 10
285.600189
 20
150.327288
 30
0.0
 40
2.0
100
AcDbArc
 50
-164.53399
 51
-90.0
  0
LINE
  5
7D
100
AcDbEntity
  8
3
  6
CONTINUOUS
 62
   214
100
AcDbLine
 10
285.600189
 20
153.927288
 30
0.0
 11
285.891556
 21
153.927288
 31
0.0
  0
ARC
  5
7E
100
AcDbEntity
  8
3
  6
CONTINUOUS
 62
   214
100
AcDbCircle
 10
285.600189
 20
151.927288
 30
0.0
 40
2.0
100
AcDbArc
 50
90.0
 51
164.53399
  0
LINE
  5
7F
100
AcDbEntity
  8
3
  6
CONTINUOUS
 62
   214
100
AcDbLine
 10
283.507582
 20
150.727288
 30
0.0
 11
283.691556
 21
150.727288
 31
0.0
  0
LINE
  5
80
100
AcDbEntity
  8
3
  6
CONTINUOUS
 62
   214
100
AcDbLine
 10
283.691556
 20
150.727288
 30
0.0
 11
283.691556
 21
151.127288
 31
0.0
  0
LINE
  5
81
100
AcDbEntity
  8
3
  6
CONTINUOUS
 62
   214
100
AcDbLine
 10
283.507582
 20
151.527288
 30
0.0
 11
283.691556
 21
151.527288
 31
0.0
  0
LINE
  5
82
100
AcDbEntity
  8
3
  6
CONTINUOUS
 62
   214
100
AcDbLine
 10
283.691556
 20
151.527288
 30
0.0
 11
283.691556
 21
151.127288
 31
0.0
  0
ARC
  5
83
100
AcDbEntity
  8
3
  6
CONTINUOUS
 62
   214
100
AcDbCircle
 10
288.491556
 20
151.127288
 30
0.0
 40
5.0
100
AcDbArc
 50
-175.411434
 51
-164.53399
  0
ARC
  5
84
100
AcDbEntity
  8
3
  6
CONTINUOUS
 62
   214
100
AcDbCircle
 10
288.491556
 20
151.127288
 30
0.0
 40
5.0
100
AcDbArc
 50
164.53399
 51
175.411434
  0
LINE
  5
85
100
AcDbEntity
  8
3
  6
CONTINUOUS
 62
   214
100
AcDbLine
 10
119.191556
 20
210.334886
 30
0.0
 11
119.191556
 21
210.626252
 31
0.0
  0
ARC
  5
86
100
AcDbEntity
  8
3
  6
CONTINUOUS
 62
   214
100
AcDbCircle
 10
117.191556
 20
210.334886
 30
0.0
 40
2.0
100
AcDbArc
 50
-74.53399
 51
0.0
  0
LINE
  5
87
100
AcDbEntity
  8
3
  6
CONTINUOUS
 62
   214
100
AcDbLine
 10
113.591556
 20
210.334886
 30
0.0
 11
113.591556
 21
210.626252
 31
0.0
  0
ARC
  5
88
100
AcDbEntity
  8
3
  6
CONTINUOUS
 62
   214
100
AcDbCircle
 10
115.591556
 20
210.334886
 30
0.0
 40
2.0
100
AcDbArc
 50
-180.0
 51
-105.46601
  0
LINE
  5
89
100
AcDbEntity
  8
3
  6
CONTINUOUS
 62
   214
100
AcDbLine
 10
116.791556
 20
208.242278
 30
0.0
 11
116.791556
 21
208.426252
 31
0.0
  0
LINE
  5
8A
100
AcDbEntity
  8
3
  6
CONTINUOUS
 62
   214
100
AcDbLine
 10
116.791556
 20
208.426252
 30
0.0
 11
116.391556
 21
208.426252
 31
0.0
  0
LINE
  5
8B
100
AcDbEntity
  8
3
  6
CONTINUOUS
 62
   214
100
AcDbLine
 10
115.991556
 20
208.242278
 30
0.0
 11
115.991556
 21
208.426252
 31
0.0
  0
LINE
  5
8C
100
AcDbEntity
  8
3
  6
CONTINUOUS
 62
   214
100
AcDbLine
 10
115.991556
 20
208.426252
 30
0.0
 11
116.391556
 21
208.426252
 31
0.0
  0
ARC
  5
8D
100
AcDbEntity
  8
3
  6
CONTINUOUS
 62
   214
100
AcDbCircle
 10
116.391556
 20
213.226252
 30
0.0
 40
5.0
100
AcDbArc
 50
-85.411434
 51
-74.53399
  0
ARC
  5
8E
100
AcDbEntity
  8
3
  6
CONTINUOUS
 62
   214
100
AcDbCircle
 10
116.391556
 20
213.226252
 30
0.0
 40
5.0
100
AcDbArc
 50
-105.46601
 51
-94.588566
  0
ARC
  5
8F
100
AcDbEntity
  8
3
  6
CONTINUOUS
 62
   214
100
AcDbCircle
 10
147.891556
 20
118.127288
 30
0.0
 40
13.0
100
AcDbArc
 50
-22.379995
 51
17.62
  0
TEXT
  5
90
100
AcDbEntity
  8
3
  6
CONTINUOUS
 62
   214
100
AcDbText
 10
155.118021
 20
107.593788
 30
0.0
 40
5.0
  1
強
 50
-4.76
 41
0.833333
 11
155.118021
 21
107.593788
 31
0.0
100
AcDbText
 73
     1
  0
INSERT
  5
A6
100
AcDbEntity
  8
0
  6
CONTINUOUS
 62
   214
100
AcDbBlockReference
  2
*G1
 10
0.0
 20
0.0
 30
0.0
  0
LINE
  5
A7
100
AcDbEntity
  8
3
  6
CONTINUOUS
 62
   214
100
AcDbLine
 10
159.856911
 20
115.112662
 30
0.0
 11
161.113744
 21
114.695593
 31
0.0
  0
LINE
  5
A8
100
AcDbEntity
  8
3
  6
CONTINUOUS
 62
   214
100
AcDbLine
 10
159.912383
 20
113.17757
 30
0.0
 11
161.113744
 21
114.695593
 31
0.0
  0
LINE
  5
A9
100
AcDbEntity
  8
3
  6
CONTINUOUS
 62
   214
100
AcDbLine
 10
159.912383
 20
113.17757
 30
0.0
 11
159.856911
 21
115.112662
 31
0.0
  0
LINE
  5
AA
100
AcDbEntity
  8
3
  6
CENTER
 62
   214
100
AcDbLine
 10
116.391556
 20
206.626252
 30
0.0
 11
116.391556
 21
215.626252
 31
0.0
  0
LINE
  5
AB
100
AcDbEntity
  8
3
  6
CONTINUOUS
 62
   214
100
AcDbLine
 10
283.591556
 20
132.644028
 30
0.0
 11
284.291556
 21
132.644028
 31
0.0
  0
LINE
  5
AC
100
AcDbEntity
  8
3
  6
CONTINUOUS
 62
   214
100
AcDbLine
 10
283.591556
 20
130.132009
 30
0.0
 11
284.291556
 21
130.132009
 31
0.0
  0
LINE
  5
AD
100
AcDbEntity
  8
3
  6
CONTINUOUS
 62
   214
100
AcDbLine
 10
283.591556
 20
110.035188
 30
0.0
 11
284.291556
 21
110.035188
 31
0.0
  0
LINE
  5
AE
100
AcDbEntity
  8
3
  6
CONTINUOUS
 62
   214
100
AcDbLine
 10
283.591556
 20
108.834278
 30
0.0
 11
284.291556
 21
108.834278
 31
0.0
  0
LINE
  5
AF
100
AcDbEntity
  8
3
  6
CONTINUOUS
 62
   214
100
AcDbLine
 10
283.591556
 20
106.13201
 30
0.0
 11
284.291556
 21
106.13201
 31
0.0
  0
LINE
  5
B0
100
AcDbEntity
  8
3
  6
CONTINUOUS
 62
   214
100
AcDbLine
 10
283.591556
 20
98.24178
 30
0.0
 11
284.291556
 21
98.24178
 31
0.0
  0
LINE
  5
B1
100
AcDbEntity
  8
3
  6
CONTINUOUS
 62
   214
100
AcDbLine
 10
283.591556
 20
94.317538
 30
0.0
 11
284.291556
 21
94.317538
 31
0.0
  0
LINE
  5
B2
100
AcDbEntity
  8
3
  6
CONTINUOUS
 62
   214
100
AcDbLine
 10
283.591556
 20
94.127289
 30
0.0
 11
283.591556
 21
142.106446
 31
0.0
  0
LINE
  5
B3
100
AcDbEntity
  8
3
  6
CONTINUOUS
 62
   214
100
AcDbLine
 10
284.291556
 20
94.127289
 30
0.0
 11
283.591556
 21
94.127289
 31
0.0
  0
LINE
  5
B4
100
AcDbEntity
  8
3
  6
CENTER
 62
   214
100
AcDbLine
 10
281.891556
 20
151.127288
 30
0.0
 11
290.891556
 21
151.127288
 31
0.0
  0
LINE
  5
B5
100
AcDbEntity
  8
3
  6
CENTER
 62
   214
100
AcDbLine
 10
279.591556
 20
131.116121
 30
0.0
 11
288.591556
 21
131.116121
 31
0.0
  0
LINE
  5
B6
100
AcDbEntity
  8
3
  6
CONTINUOUS
 62
   214
100
AcDbLine
 10
284.291556
 20
140.986972
 30
0.0
 11
284.291556
 21
80.127288
 31
0.0
  0
LINE
  5
B7
100
AcDbEntity
  8
3
  6
CENTER
 62
   214
100
AcDbLine
 10
278.491556
 20
85.127288
 30
0.0
 11
290.891556
 21
85.127288
 31
0.0
  0
LINE
  5
B8
100
AcDbEntity
  8
3
  6
CONTINUOUS
 62
   214
100
AcDbLine
 10
284.291556
 20
80.127288
 30
0.0
 11
285.891556
 21
80.127288
 31
0.0
  0
LINE
  5
B9
100
AcDbEntity
  8
3
  6
CONTINUOUS
 62
   214
100
AcDbLine
 10
285.891556
 20
140.986972
 30
0.0
 11
284.291556
 21
140.986972
 31
0.0
  0
LINE
  5
BA
100
AcDbEntity
  8
3
  6
CENTER
 62
   214
100
AcDbLine
 10
148.430272
 20
204.326252
 30
0.0
 11
148.430272
 21
213.326252
 31
0.0
  0
LINE
  5
BB
100
AcDbEntity
  8
3
  6
CONTINUOUS
 62
   214
100
AcDbLine
 10
151.105975
 20
207.326252
 30
0.0
 11
153.891556
 21
207.326252
 31
0.0
  0
LINE
  5
BC
100
AcDbEntity
  8
3
  6
CONTINUOUS
 62
   214
100
AcDbLine
 10
150.275229
 20
206.326252
 30
0.0
 11
152.891556
 21
206.326252
 31
0.0
  0
LINE
  5
BD
100
AcDbEntity
  8
3
  6
CONTINUOUS
 62
   214
100
AcDbLine
 10
143.891556
 20
206.326252
 30
0.0
 11
146.596218
 21
206.326252
 31
0.0
  0
LINE
  5
BE
100
AcDbEntity
  8
3
  6
CONTINUOUS
 62
   214
100
AcDbLine
 10
141.891556
 20
207.326252
 30
0.0
 11
145.765473
 21
207.326252
 31
0.0
  0
LINE
  5
BF
100
AcDbEntity
  8
3
  6
CONTINUOUS
 62
   214
100
AcDbLine
 10
127.104221
 20
210.626252
 30
0.0
 11
127.104221
 21
208.326252
 31
0.0
  0
LINE
  5
C0
100
AcDbEntity
  8
3
  6
CONTINUOUS
 62
   214
100
AcDbLine
 10
125.763746
 20
208.326252
 30
0.0
 11
170.019365
 21
208.326252
 31
0.0
  0
LINE
  5
C1
100
AcDbEntity
  8
3
  6
CONTINUOUS
 62
   214
100
AcDbLine
 10
125.763746
 20
210.626252
 30
0.0
 11
125.763746
 21
208.326252
 31
0.0
  0
LINE
  5
C2
100
AcDbEntity
  8
3
  6
CONTINUOUS
 62
   214
100
AcDbLine
 10
147.886104
 20
210.626252
 30
0.0
 11
147.886104
 21
208.326252
 31
0.0
  0
LINE
  5
C3
100
AcDbEntity
  8
3
  6
CONTINUOUS
 62
   214
100
AcDbLine
 10
144.875634
 20
210.626252
 30
0.0
 11
144.875634
 21
208.326252
 31
0.0
  0
LINE
  5
C4
100
AcDbEntity
  8
3
  6
CONTINUOUS
 62
   214
100
AcDbLine
 10
169.743396
 20
209.026252
 30
0.0
 11
169.743396
 21
208.326252
 31
0.0
  0
LINE
  5
C5
100
AcDbEntity
  8
3
  6
CONTINUOUS
 62
   214
100
AcDbLine
 10
168.673439
 20
209.026252
 30
0.0
 11
168.673439
 21
208.326252
 31
0.0
  0
LINE
  5
C6
100
AcDbEntity
  8
3
  6
CONTINUOUS
 62
   214
100
AcDbLine
 10
167.003444
 20
209.026252
 30
0.0
 11
167.003444
 21
208.326252
 31
0.0
  0
LINE
  5
C7
100
AcDbEntity
  8
3
  6
CONTINUOUS
 62
   214
100
AcDbLine
 10
164.044435
 20
209.026252
 30
0.0
 11
164.044435
 21
208.326252
 31
0.0
  0
LINE
  5
C8
100
AcDbEntity
  8
3
  6
CONTINUOUS
 62
   214
100
AcDbLine
 10
170.019365
 20
208.326252
 30
0.0
 11
170.019365
 21
209.026252
 31
0.0
  0
LINE
  5
C9
100
AcDbEntity
  8
3
  6
CENTER
 62
   214
100
AcDbLine
 10
148.223073
 20
126.120416
 30
0.0
 11
148.63747
 21
136.111826
 31
0.0
  0
ARC
  5
CA
100
AcDbEntity
  8
3
  6
CONTINUOUS
 62
   214
100
AcDbCircle
 10
145.335404
 20
113.016311
 30
0.0
 40
25.0
100
AcDbArc
 50
89.039218
 51
136.823331
  0
ARC
  5
CB
100
AcDbEntity
  8
3
  6
CONTINUOUS
 62
   214
100
AcDbCircle
 10
142.187244
 20
117.785492
 30
0.0
 40
25.0
100
AcDbArc
 50
29.039218
 51
76.823331
  0
LINE
  5
CC
100
AcDbEntity
  8
3
  6
CONTINUOUS
 62
   214
100
AcDbLine
 10
144.875634
 20
141.937039
 30
0.0
 11
145.754604
 21
138.012797
 31
0.0
  0
ARC
  5
CD
100
AcDbEntity
  8
3
  6
CONTINUOUS
 62
   214
100
AcDbCircle
 10
147.891556
 20
118.127288
 30
0.0
 40
24.0
100
AcDbArc
 50
90.013015
 51
97.219068
  0
ARC
  5
CE
100
AcDbEntity
  8
3
  6
CONTINUOUS
 62
   214
100
AcDbCircle
 10
144.743396
 20
122.896469
 30
0.0
 40
25.0
100
AcDbArc
 50
-30.960782
 51
16.823331
  0
LINE
  5
CF
100
AcDbEntity
  8
3
  6
CONTINUOUS
 62
   214
100
AcDbLine
 10
167.003444
 20
132.644029
 30
0.0
 11
164.044435
 21
129.920697
 31
0.0
  0
ARC
  5
D0
100
AcDbEntity
  8
3
  6
CONTINUOUS
 62
   214
100
AcDbCircle
 10
147.891556
 20
118.127288
 30
0.0
 40
24.0
100
AcDbArc
 50
30.013015
 51
37.219068
  0
ARC
  5
D1
100
AcDbEntity
  8
3
  6
CONTINUOUS
 62
   214
100
AcDbCircle
 10
150.447708
 20
123.238265
 30
0.0
 40
25.0
100
AcDbArc
 50
-90.960782
 51
-43.176669
  0
LINE
  5
D2
100
AcDbEntity
  8
3
  6
CONTINUOUS
 62
   214
100
AcDbLine
 10
170.019366
 20
108.834278
 30
0.0
 11
166.181387
 21
110.035188
 31
0.0
  0
ARC
  5
D3
100
AcDbEntity
  8
3
  6
CONTINUOUS
 62
   214
100
AcDbCircle
 10
147.891556
 20
118.127288
 30
0.0
 40
24.0
100
AcDbArc
 50
-29.986985
 51
-22.780932
  0
ARC
  5
D4
100
AcDbEntity
  8
3
  6
CONTINUOUS
 62
   214
100
AcDbCircle
 10
153.595868
 20
118.469084
 30
0.0
 40
25.0
100
AcDbArc
 50
-150.960782
 51
-103.176669
  0
LINE
  5
D5
100
AcDbEntity
  8
3
  6
CONTINUOUS
 62
   214
100
AcDbLine
 10
150.907478
 20
94.317537
 30
0.0
 11
150.028507
 21
98.24178
 31
0.0
  0
ARC
  5
D6
100
AcDbEntity
  8
3
  6
CONTINUOUS
 62
   214
100
AcDbCircle
 10
147.891556
 20
118.127288
 30
0.0
 40
24.0
100
AcDbArc
 50
-89.986985
 51
-82.780932
  0
ARC
  5
D7
100
AcDbEntity
  8
3
  6
CONTINUOUS
 62
   214
100
AcDbCircle
 10
151.039716
 20
113.358107
 30
0.0
 40
25.0
100
AcDbArc
 50
149.039218
 51
-163.176669
  0
LINE
  5
D8
100
AcDbEntity
  8
3
  6
CONTINUOUS
 62
   214
100
AcDbLine
 10
125.763746
 20
127.420299
 30
0.0
 11
129.601725
 21
126.219388
 31
0.0
  0
ARC
  5
D9
100
AcDbEntity
  8
3
  6
CONTINUOUS
 62
   214
100
AcDbCircle
 10
147.891556
 20
118.127288
 30
0.0
 40
24.0
100
AcDbArc
 50
150.013015
 51
157.219068
  0
LINE
  5
DA
100
AcDbEntity
  8
3
  6
CONTINUOUS
 62
   214
100
AcDbLine
 10
128.779667
 20
103.610548
 30
0.0
 11
131.738676
 21
106.33388
 31
0.0
  0
ARC
  5
DB
100
AcDbEntity
  8
3
  6
CONTINUOUS
 62
   214
100
AcDbCircle
 10
147.891556
 20
118.127288
 30
0.0
 40
24.0
100
AcDbArc
 50
-149.986985
 51
-142.780932
  0
LINE
  5
DC
100
AcDbEntity
  8
3
  6
CONTINUOUS
 62
   214
100
AcDbLine
 10
175.190498
 20
89.589755
 30
0.0
 11
168.634079
 21
94.173791
 31
0.0
  0
LINE
  5
DD
100
AcDbEntity
  8
3
  6
CONTINUOUS
 62
   214
100
AcDbLine
 10
173.757986
 20
87.540875
 30
0.0
 11
175.190498
 21
89.589755
 31
0.0
  0
LINE
  5
DE
100
AcDbEntity
  8
3
  6
CONTINUOUS
 62
   214
100
AcDbLine
 10
167.201568
 20
92.12491
 30
0.0
 11
173.757986
 21
87.540875
 31
0.0
  0
LINE
  5
DF
100
AcDbEntity
  8
3
  6
CONTINUOUS
 62
   214
100
AcDbLine
 10
168.634079
 20
94.173791
 30
0.0
 11
167.201568
 21
92.12491
 31
0.0
  0
ARC
  5
E0
100
AcDbEntity
  8
3
  6
CONTINUOUS
 62
   214
100
AcDbCircle
 10
164.012141
 20
135.062965
 30
0.0
 40
2.0
100
AcDbArc
 50
129.276898
 51
-156.7231
  0
LINE
  5
E1
100
AcDbEntity
  8
3
  6
CONTINUOUS
 62
   214
100
AcDbLine
 10
166.991693
 20
140.083354
 30
0.0
 11
162.746004
 21
136.611156
 31
0.0
  0
LINE
  5
E2
100
AcDbEntity
  8
3
  6
CONTINUOUS
 62
   214
100
AcDbLine
 10
164.045961
 20
129.923302
 30
0.0
 11
162.17493
 21
134.272614
 31
0.0
  0
ARC
  5
E3
100
AcDbEntity
  8
3
  6
CONTINUOUS
 62
   214
100
AcDbCircle
 10
169.523968
 20
136.986972
 30
0.0
 40
4.0
100
AcDbArc
 50
28.442165
 51
129.276898
  0
ARC
  5
E4
100
AcDbEntity
  8
3
  6
CONTINUOUS
 62
   214
100
AcDbCircle
 10
120.283263
 20
110.315772
 30
0.0
 40
60.0
100
AcDbArc
 50
8.047462
 51
28.442165
  0
ARC
  5
E5
100
AcDbEntity
  8
3
  6
CONTINUOUS
 62
   214
100
AcDbCircle
 10
141.095207
 20
86.617194
 30
0.0
 40
4.0
100
AcDbArc
 50
171.276898
 51
-93.723102
  0
LINE
  5
E6
100
AcDbEntity
  8
3
  6
CONTINUOUS
 62
   214
100
AcDbLine
 10
140.835468
 20
82.625635
 30
0.0
 11
179.066882
 21
80.137841
 31
0.0
  0
LINE
  5
E7
100
AcDbEntity
  8
3
  6
CONTINUOUS
 62
   214
100
AcDbLine
 10
138.177215
 20
93.974216
 30
0.0
 11
137.141475
 21
87.223831
 31
0.0
  0
ARC
  5
E8
100
AcDbEntity
  8
3
  6
CONTINUOUS
 62
   214
100
AcDbCircle
 10
151.082411
 20
104.687504
 30
0.0
 40
15.0
100
AcDbArc
 50
-113.723102
 51
-57.09373
  0
ARC
  5
E9
100
AcDbEntity
  8
3
  6
CONTINUOUS
 62
   214
100
AcDbCircle
 10
143.205049
 20
116.86113
 30
0.0
 40
29.5
100
AcDbArc
 50
-57.09373
 51
2.955876
  0
LINE
  5
EA
100
AcDbEntity
  8
3
  6
CONTINUOUS
 62
   214
100
AcDbLine
 10
145.047657
 20
90.954998
 30
0.0
 11
138.177215
 21
93.974215
 31
0.0
  0
ARC
  5
EB
100
AcDbEntity
  8
3
  6
CONTINUOUS
 62
   214
100
AcDbCircle
 10
120.283263
 20
110.315772
 30
0.0
 40
53.0
100
AcDbArc
 50
8.754421
 51
26.229412
  0
ARC
  5
EC
100
AcDbEntity
  8
3
  6
CONTINUOUS
 62
   214
100
AcDbCircle
 10
179.391556
 20
85.127288
 30
0.0
 40
5.0
100
AcDbArc
 50
-93.723103
 51
8.047462
  0
LINE
  5
ED
100
AcDbEntity
  8
3
  6
CONTINUOUS
 62
   214
100
AcDbLine
 10
184.342318
 20
85.827255
 30
0.0
 11
179.692409
 21
118.715374
 31
0.0
  0
LINE
  5
EE
100
AcDbEntity
  8
3
  6
CONTINUOUS
 62
   214
100
AcDbLine
 10
164.04596
 20
129.923301
 30
0.0
 11
167.825938
 21
133.739991
 31
0.0
  0
LINE
  5
EF
100
AcDbEntity
  8
3
  6
CONTINUOUS
 62
   214
100
AcDbLine
 10
162.047007
 20
209.026252
 30
0.0
 11
177.079115
 21
209.026252
 31
0.0
  0
LINE
  5
F0
100
AcDbEntity
  8
3
  6
CENTER
 62
   214
100
AcDbLine
 10
179.391556
 20
203.226252
 30
0.0
 11
179.391556
 21
215.626252
 31
0.0
  0
LINE
  5
F1
100
AcDbEntity
  8
3
  6
CONTINUOUS
 62
   214
100
AcDbLine
 10
181.703997
 20
209.026252
 30
0.0
 11
184.391556
 21
209.026252
 31
0.0
  0
LINE
  5
F2
100
AcDbEntity
  8
3
  6
CONTINUOUS
 62
   214
100
AcDbLine
 10
184.391556
 20
209.026252
 30
0.0
 11
184.391556
 21
210.626252
 31
0.0
  0
LINE
  5
F3
100
AcDbEntity
  8
3
  6
CONTINUOUS
 62
   214
100
AcDbLine
 10
162.047007
 20
210.626252
 30
0.0
 11
162.047007
 21
209.026252
 31
0.0
  0
LINE
  5
F4
100
AcDbEntity
  8
3
  6
CENTER
 62
   214
100
AcDbLine
 10
185.391556
 20
85.127288
 30
0.0
 11
173.391556
 21
85.127288
 31
0.0
  0
LINE
  5
F5
100
AcDbEntity
  8
3
  6
CENTER
 62
   214
100
AcDbLine
 10
179.391556
 20
79.127288
 30
0.0
 11
179.391556
 21
91.127288
 31
0.0
  0
LINE
  5
F6
100
AcDbEntity
  8
3
  6
CENTER
 62
   214
100
AcDbLine
 10
116.391556
 20
80.127288
 30
0.0
 11
116.391556
 21
90.127288
 31
0.0
  0
LINE
  5
F7
100
AcDbEntity
  8
3
  6
CENTER
 62
   214
100
AcDbLine
 10
111.391556
 20
85.127288
 30
0.0
 11
121.391556
 21
85.127288
 31
0.0
  0
LINE
  5
F8
100
AcDbEntity
  8
3
  6
CENTER
 62
   214
100
AcDbLine
 10
179.391556
 20
146.127288
 30
0.0
 11
179.391556
 21
156.127288
 31
0.0
  0
LINE
  5
F9
100
AcDbEntity
  8
3
  6
CENTER
 62
   214
100
AcDbLine
 10
174.391556
 20
151.127288
 30
0.0
 11
184.391556
 21
151.127288
 31
0.0
  0
LINE
  5
FA
100
AcDbEntity
  8
3
  6
CENTER
 62
   214
100
AcDbLine
 10
116.391556
 20
146.127288
 30
0.0
 11
116.391556
 21
156.127288
 31
0.0
  0
LINE
  5
FB
100
AcDbEntity
  8
3
  6
CENTER
 62
   214
100
AcDbLine
 10
111.391556
 20
151.127288
 30
0.0
 11
121.391556
 21
151.127288
 31
0.0
  0
LINE
  5
FC
100
AcDbEntity
  8
3
  6
CONTINUOUS
 62
   214
100
AcDbLine
 10
196.891556
 20
225.976252
 30
0.0
 11
214.891556
 21
225.976252
 31
0.0
  0
LINE
  5
FD
100
AcDbEntity
  8
3
  6
CONTINUOUS
 62
   214
100
AcDbLine
 10
196.891556
 20
224.976252
 30
0.0
 11
214.891556
 21
224.976252
 31
0.0
  0
LINE
  5
FE
100
AcDbEntity
  8
3
  6
CENTER
 62
   214
100
AcDbLine
 10
233.891556
 20
221.976252
 30
0.0
 11
233.891556
 21
228.976252
 31
0.0
  0
LINE
  5
FF
100
AcDbEntity
  8
3
  6
CONTINUOUS
 62
   214
100
AcDbLine
 10
224.891556
 20
224.976252
 30
0.0
 11
236.391556
 21
224.976252
 31
0.0
  0
LINE
  5
100
100
AcDbEntity
  8
3
  6
CONTINUOUS
 62
   214
100
AcDbLine
 10
224.891556
 20
225.976252
 30
0.0
 11
236.391556
 21
225.976252
 31
0.0
  0
ARC
  5
101
100
AcDbEntity
  8
3
  6
CONTINUOUS
 62
   214
100
AcDbCircle
 10
236.391556
 20
225.476252
 30
0.0
 40
0.5
100
AcDbArc
 50
-90.0
 51
90.0
  0
LINE
  5
102
100
AcDbEntity
  8
3
  6
CONTINUOUS
 62
   214
100
AcDbLine
 10
224.891556
 20
227.376252
 30
0.0
 11
214.891556
 21
227.376252
 31
0.0
  0
LINE
  5
103
100
AcDbEntity
  8
3
  6
CONTINUOUS
 62
   214
100
AcDbLine
 10
224.891556
 20
223.576252
 30
0.0
 11
224.891556
 21
227.376252
 31
0.0
  0
LINE
  5
104
100
AcDbEntity
  8
3
  6
CONTINUOUS
 62
   214
100
AcDbLine
 10
214.891556
 20
223.576252
 30
0.0
 11
224.891556
 21
223.576252
 31
0.0
  0
LINE
  5
105
100
AcDbEntity
  8
3
  6
CONTINUOUS
 62
   214
100
AcDbLine
 10
214.891556
 20
227.376252
 30
0.0
 11
214.891556
 21
223.576252
 31
0.0
  0
LINE
  5
106
100
AcDbEntity
  8
3
  6
CENTER
 62
   214
100
AcDbLine
 10
147.891556
 20
243.326252
 30
0.0
 11
147.891556
 21
203.326252
 31
0.0
  0
LINE
  5
107
100
AcDbEntity
  8
3
  6
CONTINUOUS
 62
   214
100
AcDbLine
 10
153.891556
 20
207.326252
 30
0.0
 11
153.891556
 21
208.326252
 31
0.0
  0
LINE
  5
108
100
AcDbEntity
  8
3
  6
CONTINUOUS
 62
   214
100
AcDbLine
 10
141.891556
 20
208.326252
 30
0.0
 11
141.891556
 21
207.326252
 31
0.0
  0
LINE
  5
109
100
AcDbEntity
  8
3
  6
CONTINUOUS
 62
   214
100
AcDbLine
 10
152.891556
 20
206.326252
 30
0.0
 11
152.891556
 21
207.326252
 31
0.0
  0
LINE
  5
10A
100
AcDbEntity
  8
3
  6
CONTINUOUS
 62
   214
100
AcDbLine
 10
143.891556
 20
207.326252
 30
0.0
 11
143.891556
 21
206.326252
 31
0.0
  0
LINE
  5
10B
100
AcDbEntity
  8
3
  6
CENTER
 62
   214
100
AcDbLine
 10
191.891556
 20
229.476252
 30
0.0
 11
191.891556
 21
243.326252
 31
0.0
  0
LINE
  5
10C
100
AcDbEntity
  8
3
  6
CENTER
 62
   214
100
AcDbLine
 10
191.891556
 20
211.476252
 30
0.0
 11
191.891556
 21
221.476252
 31
0.0
  0
LINE
  5
10D
100
AcDbEntity
  8
3
  6
CENTER
 62
   214
100
AcDbLine
 10
196.891556
 20
216.476252
 30
0.0
 11
186.891556
 21
216.476252
 31
0.0
  0
CIRCLE
  5
10E
100
AcDbEntity
  8
3
  6
CONTINUOUS
 62
   214
100
AcDbCircle
 10
191.891556
 20
216.476252
 30
0.0
 40
2.25
  0
LINE
  5
10F
100
AcDbEntity
  8
3
  6
CENTER
 62
   214
100
AcDbLine
 10
196.891556
 20
234.476252
 30
0.0
 11
186.891556
 21
234.476252
 31
0.0
  0
CIRCLE
  5
110
100
AcDbEntity
  8
3
  6
CONTINUOUS
 62
   214
100
AcDbCircle
 10
191.891556
 20
234.476252
 30
0.0
 40
2.25
  0
LINE
  5
111
100
AcDbEntity
  8
3
  6
CENTER
 62
   214
100
AcDbLine
 10
103.891556
 20
229.476252
 30
0.0
 11
103.891556
 21
243.326252
 31
0.0
  0
LINE
  5
112
100
AcDbEntity
  8
3
  6
CENTER
 62
   214
100
AcDbLine
 10
103.891556
 20
211.476252
 30
0.0
 11
103.891556
 21
221.476252
 31
0.0
  0
LINE
  5
113
100
AcDbEntity
  8
3
  6
CENTER
 62
   214
100
AcDbLine
 10
98.891556
 20
216.476252
 30
0.0
 11
108.891556
 21
216.476252
 31
0.0
  0
CIRCLE
  5
114
100
AcDbEntity
  8
3
  6
CONTINUOUS
 62
   214
100
AcDbCircle
 10
103.891556
 20
216.476252
 30
0.0
 40
2.25
  0
LINE
  5
115
100
AcDbEntity
  8
3
  6
CENTER
 62
   214
100
AcDbLine
 10
98.891556
 20
234.476252
 30
0.0
 11
108.891556
 21
234.476252
 31
0.0
  0
CIRCLE
  5
116
100
AcDbEntity
  8
3
  6
CONTINUOUS
 62
   214
100
AcDbCircle
 10
103.891556
 20
234.476252
 30
0.0
 40
2.25
  0
LINE
  5
117
100
AcDbEntity
  8
3
  6
HIDDEN
 62
   214
100
AcDbLine
 10
196.891556
 20
239.126252
 30
0.0
 11
186.891556
 21
239.126252
 31
0.0
  0
LINE
  5
118
100
AcDbEntity
  8
3
  6
HIDDEN
 62
   214
100
AcDbLine
 10
186.891556
 20
239.126252
 30
0.0
 11
186.891556
 21
210.626252
 31
0.0
  0
LINE
  5
119
100
AcDbEntity
  8
3
  6
HIDDEN
 62
   214
100
AcDbLine
 10
98.891556
 20
239.126252
 30
0.0
 11
108.891556
 21
239.126252
 31
0.0
  0
LINE
  5
11A
100
AcDbEntity
  8
3
  6
HIDDEN
 62
   214
100
AcDbLine
 10
108.891556
 20
239.126252
 30
0.0
 11
108.891556
 21
210.626252
 31
0.0
  0
LINE
  5
11B
100
AcDbEntity
  8
3
  6
CONTINUOUS
 62
   214
100
AcDbLine
 10
98.891556
 20
211.626252
 30
0.0
 11
99.891556
 21
210.626252
 31
0.0
  0
LINE
  5
11C
100
AcDbEntity
  8
3
  6
CONTINUOUS
 62
   214
100
AcDbLine
 10
195.891556
 20
210.626252
 30
0.0
 11
99.891556
 21
210.626252
 31
0.0
  0
LINE
  5
11D
100
AcDbEntity
  8
3
  6
CONTINUOUS
 62
   214
100
AcDbLine
 10
98.891556
 20
240.326252
 30
0.0
 11
98.891556
 21
211.626252
 31
0.0
  0
LINE
  5
11E
100
AcDbEntity
  8
3
  6
CONTINUOUS
 62
   214
100
AcDbLine
 10
195.891556
 20
210.626252
 30
0.0
 11
196.891556
 21
211.626252
 31
0.0
  0
LINE
  5
11F
100
AcDbEntity
  8
3
  6
CONTINUOUS
 62
   214
100
AcDbLine
 10
196.891556
 20
240.326252
 30
0.0
 11
196.891556
 21
211.626252
 31
0.0
  0
LINE
  5
120
100
AcDbEntity
  8
3
  6
CONTINUOUS
 62
   214
100
AcDbLine
 10
195.891556
 20
240.326252
 30
0.0
 11
196.891556
 21
239.326252
 31
0.0
  0
LINE
  5
121
100
AcDbEntity
  8
3
  6
CONTINUOUS
 62
   214
100
AcDbLine
 10
196.891556
 20
240.326252
 30
0.0
 11
98.891556
 21
240.326252
 31
0.0
  0
LINE
  5
122
100
AcDbEntity
  8
3
  6
CONTINUOUS
 62
   214
100
AcDbLine
 10
98.891556
 20
239.326252
 30
0.0
 11
99.891556
 21
240.326252
 31
0.0
  0
LINE
  5
123
100
AcDbEntity
  8
3
  6
CONTINUOUS
 62
   214
100
AcDbLine
 10
174.591556
 20
80.327288
 30
0.0
 11
174.591556
 21
79.127288
 31
0.0
  0
LINE
  5
124
100
AcDbEntity
  8
3
  6
CONTINUOUS
 62
   214
100
AcDbLine
 10
121.191556
 20
80.327288
 30
0.0
 11
174.591556
 21
80.327288
 31
0.0
  0
LINE
  5
125
100
AcDbEntity
  8
3
  6
CONTINUOUS
 62
   214
100
AcDbLine
 10
121.191556
 20
79.127288
 30
0.0
 11
121.191556
 21
80.327288
 31
0.0
  0
LINE
  5
126
100
AcDbEntity
  8
3
  6
CONTINUOUS
 62
   214
100
AcDbLine
 10
111.291556
 20
155.927288
 30
0.0
 11
111.291556
 21
157.127288
 31
0.0
  0
LINE
  5
127
100
AcDbEntity
  8
3
  6
CONTINUOUS
 62
   214
100
AcDbLine
 10
108.891556
 20
155.927288
 30
0.0
 11
111.291556
 21
155.927288
 31
0.0
  0
LINE
  5
128
100
AcDbEntity
  8
3
  6
CONTINUOUS
 62
   214
100
AcDbLine
 10
121.191556
 20
155.927288
 30
0.0
 11
121.191556
 21
157.127288
 31
0.0
  0
LINE
  5
129
100
AcDbEntity
  8
3
  6
CONTINUOUS
 62
   214
100
AcDbLine
 10
174.591556
 20
155.927288
 30
0.0
 11
121.191556
 21
155.927288
 31
0.0
  0
LINE
  5
12A
100
AcDbEntity
  8
3
  6
CONTINUOUS
 62
   214
100
AcDbLine
 10
174.591556
 20
157.127288
 30
0.0
 11
174.591556
 21
155.927288
 31
0.0
  0
LINE
  5
12B
100
AcDbEntity
  8
3
  6
CONTINUOUS
 62
   214
100
AcDbLine
 10
184.491556
 20
155.927288
 30
0.0
 11
186.891556
 21
155.927288
 31
0.0
  0
LINE
  5
12C
100
AcDbEntity
  8
3
  6
CONTINUOUS
 62
   214
100
AcDbLine
 10
184.491556
 20
157.127288
 30
0.0
 11
184.491556
 21
155.927288
 31
0.0
  0
LINE
  5
12D
100
AcDbEntity
  8
3
  6
CONTINUOUS
 62
   214
100
AcDbLine
 10
186.891556
 20
155.927288
 30
0.0
 11
186.891556
 21
79.127288
 31
0.0
  0
LINE
  5
12E
100
AcDbEntity
  8
3
  6
CONTINUOUS
 62
   214
100
AcDbLine
 10
108.891556
 20
155.927288
 30
0.0
 11
108.891556
 21
79.127288
 31
0.0
  0
LINE
  5
12F
100
AcDbEntity
  8
3
  6
CENTER
 62
   214
100
AcDbLine
 10
227.891556
 20
86.127288
 30
0.0
 11
239.891556
 21
86.127288
 31
0.0
  0
LINE
  5
130
100
AcDbEntity
  8
3
  6
CENTER
 62
   214
100
AcDbLine
 10
233.891556
 20
92.127288
 30
0.0
 11
233.891556
 21
80.127288
 31
0.0
  0
ARC
  5
131
100
AcDbEntity
  8
3
  6
CENTER
 62
   214
100
AcDbCircle
 10
233.891556
 20
86.127288
 30
0.0
 40
2.0
100
AcDbArc
 50
134.62792
 51
-134.627916
  0
LINE
  5
132
100
AcDbEntity
  8
3
  6
CONTINUOUS
 62
   214
100
AcDbLine
 10
196.891556
 20
85.127288
 30
0.0
 11
196.891556
 21
80.127288
 31
0.0
  0
LINE
  5
133
100
AcDbEntity
  8
3
  6
CONTINUOUS
 62
   214
100
AcDbLine
 10
196.891556
 20
154.927288
 30
0.0
 11
196.891556
 21
86.127288
 31
0.0
  0
LINE
  5
134
100
AcDbEntity
  8
3
  6
CONTINUOUS
 62
   214
100
AcDbLine
 10
187.891556
 20
85.127288
 30
0.0
 11
214.891556
 21
85.127288
 31
0.0
  0
LINE
  5
135
100
AcDbEntity
  8
3
  6
CONTINUOUS
 62
   214
100
AcDbLine
 10
187.891556
 20
86.127288
 30
0.0
 11
214.891556
 21
86.127288
 31
0.0
  0
ARC
  5
136
100
AcDbEntity
  8
3
  6
CONTINUOUS
 62
   214
100
AcDbCircle
 10
233.891556
 20
86.127288
 30
0.0
 40
3.0
100
AcDbArc
 50
-102.839588
 51
102.839588
  0
LINE
  5
137
100
AcDbEntity
  8
3
  6
CONTINUOUS
 62
   214
100
AcDbLine
 10
224.891556
 20
87.152934
 30
0.0
 11
233.224889
 21
89.052276
 31
0.0
  0
LINE
  5
138
100
AcDbEntity
  8
3
  6
CONTINUOUS
 62
   214
100
AcDbLine
 10
224.891556
 20
85.101643
 30
0.0
 11
233.224889
 21
83.2023
 31
0.0
  0
ARC
  5
139
100
AcDbEntity
  8
3
  6
CONTINUOUS
 62
   214
100
AcDbCircle
 10
233.891556
 20
86.127288
 30
0.0
 40
2.0
100
AcDbArc
 50
-102.839588
 51
102.839588
  0
LINE
  5
13A
100
AcDbEntity
  8
3
  6
CONTINUOUS
 62
   214
100
AcDbLine
 10
224.891556
 20
86.127288
 30
0.0
 11
233.447111
 21
88.07728
 31
0.0
  0
LINE
  5
13B
100
AcDbEntity
  8
3
  6
CONTINUOUS
 62
   214
100
AcDbLine
 10
224.891556
 20
86.127288
 30
0.0
 11
233.447111
 21
84.177296
 31
0.0
  0
LINE
  5
13C
100
AcDbEntity
  8
3
  6
CONTINUOUS
 62
   214
100
AcDbLine
 10
224.891556
 20
89.627288
 30
0.0
 11
214.891556
 21
89.627288
 31
0.0
  0
LINE
  5
13D
100
AcDbEntity
  8
3
  6
CONTINUOUS
 62
   214
100
AcDbLine
 10
224.891556
 20
82.627288
 30
0.0
 11
224.891556
 21
89.627288
 31
0.0
  0
LINE
  5
13E
100
AcDbEntity
  8
3
  6
CONTINUOUS
 62
   214
100
AcDbLine
 10
214.891556
 20
82.627288
 30
0.0
 11
224.891556
 21
82.627288
 31
0.0
  0
LINE
  5
13F
100
AcDbEntity
  8
3
  6
CONTINUOUS
 62
   214
100
AcDbLine
 10
214.891556
 20
89.627288
 30
0.0
 11
214.891556
 21
82.627288
 31
0.0
  0
LINE
  5
140
100
AcDbEntity
  8
3
  6
CENTER
 62
   214
100
AcDbLine
 10
318.591556
 20
118.127288
 30
0.0
 11
278.591556
 21
118.127288
 31
0.0
  0
ARC
  5
141
100
AcDbEntity
  8
3
  6
CENTER
 62
   214
100
AcDbCircle
 10
147.891556
 20
118.127288
 30
0.0
 40
13.0
100
AcDbArc
 50
69.66872
 51
110.559055
  0
LINE
  5
142
100
AcDbEntity
  8
3
  6
CONTINUOUS
 62
   214
100
AcDbLine
 10
283.591556
 20
142.106446
 30
0.0
 11
285.891556
 21
142.106446
 31
0.0
  0
LINE
  5
143
100
AcDbEntity
  8
3
  6
CONTINUOUS
 62
   214
100
AcDbLine
 10
282.591556
 20
112.127288
 30
0.0
 11
283.591556
 21
112.127288
 31
0.0
  0
LINE
  5
144
100
AcDbEntity
  8
3
  6
CONTINUOUS
 62
   214
100
AcDbLine
 10
282.591556
 20
124.127288
 30
0.0
 11
282.591556
 21
112.127288
 31
0.0
  0
LINE
  5
145
100
AcDbEntity
  8
3
  6
CONTINUOUS
 62
   214
100
AcDbLine
 10
283.591556
 20
124.127288
 30
0.0
 11
282.591556
 21
124.127288
 31
0.0
  0
LINE
  5
146
100
AcDbEntity
  8
3
  6
CONTINUOUS
 62
   214
100
AcDbLine
 10
281.591556
 20
113.127288
 30
0.0
 11
282.591556
 21
113.127288
 31
0.0
  0
LINE
  5
147
100
AcDbEntity
  8
3
  6
CONTINUOUS
 62
   214
100
AcDbLine
 10
281.591556
 20
122.127288
 30
0.0
 11
281.591556
 21
113.127288
 31
0.0
  0
LINE
  5
148
100
AcDbEntity
  8
3
  6
CONTINUOUS
 62
   214
100
AcDbLine
 10
282.591556
 20
122.127288
 30
0.0
 11
281.591556
 21
122.127288
 31
0.0
  0
ARC
  5
149
100
AcDbEntity
  8
3
  6
CONTINUOUS
 62
   214
100
AcDbCircle
 10
147.891556
 20
118.127288
 30
0.0
 40
5.0
100
AcDbArc
 50
-78.463041
 51
53.130102
  0
ARC
  5
14A
100
AcDbEntity
  8
3
  6
CONTINUOUS
 62
   214
100
AcDbCircle
 10
147.891556
 20
118.127288
 30
0.0
 40
5.0
100
AcDbArc
 50
-95.73917
 51
-84.26083
  0
ARC
  5
14B
100
AcDbEntity
  8
3
  6
CONTINUOUS
 62
   214
100
AcDbCircle
 10
147.891556
 20
118.127288
 30
0.0
 40
5.0
100
AcDbArc
 50
126.869898
 51
-101.536959
  0
LINE
  5
14C
100
AcDbEntity
  8
3
  6
CONTINUOUS
 62
   214
100
AcDbLine
 10
148.391556
 20
110.142929
 30
0.0
 11
148.391556
 21
113.652686
 31
0.0
  0
LINE
  5
14D
100
AcDbEntity
  8
3
  6
CONTINUOUS
 62
   214
100
AcDbLine
 10
147.391556
 20
110.142929
 30
0.0
 11
147.391556
 21
113.655941
 31
0.0
  0
ARC
  5
14E
100
AcDbEntity
  8
3
  6
CONTINUOUS
 62
   214
100
AcDbCircle
 10
147.891556
 20
118.127288
 30
0.0
 40
4.5
100
AcDbArc
 50
-102.833715
 51
-77.166285
  0
LINE
  5
14F
100
AcDbEntity
  8
3
  6
CONTINUOUS
 62
   214
100
AcDbLine
 10
148.891556
 20
122.127288
 30
0.0
 11
148.891556
 21
113.228309
 31
0.0
  0
LINE
  5
150
100
AcDbEntity
  8
3
  6
CONTINUOUS
 62
   214
100
AcDbLine
 10
146.891556
 20
122.127288
 30
0.0
 11
146.891556
 21
113.228309
 31
0.0
  0
ARC
  5
151
100
AcDbEntity
  8
3
  6
CONTINUOUS
 62
   214
100
AcDbCircle
 10
147.891556
 20
118.127288
 30
0.0
 40
4.5
100
AcDbArc
 50
62.733956
 51
117.266044
  0
LINE
  5
152
100
AcDbEntity
  8
3
  6
CONTINUOUS
 62
   214
100
AcDbLine
 10
144.891556
 20
122.127288
 30
0.0
 11
150.891556
 21
122.127288
 31
0.0
  0
ARC
  5
153
100
AcDbEntity
  8
3
  6
CONTINUOUS
 62
   214
100
AcDbCircle
 10
147.891556
 20
118.127288
 30
0.0
 40
6.0
100
AcDbArc
 50
90.0
 51
-122.288213
  0
LINE
  5
154
100
AcDbEntity
  8
3
  6
CONTINUOUS
 62
   214
100
AcDbLine
 10
144.686485
 20
113.055058
 30
0.0
 11
144.891556
 21
110.711089
 31
0.0
  0
CIRCLE
  5
155
100
AcDbEntity
  8
3
  6
CONTINUOUS
 62
   214
100
AcDbCircle
 10
146.141556
 20
111.867296
 30
0.0
 40
0.5
  0
ARC
  5
156
100
AcDbEntity
  8
3
  6
CONTINUOUS
 62
   214
100
AcDbCircle
 10
147.891556
 20
118.127288
 30
0.0
 40
6.0
100
AcDbArc
 50
-57.711787
 51
90.0
  0
LINE
  5
157
100
AcDbEntity
  8
3
  6
CONTINUOUS
 62
   214
100
AcDbLine
 10
151.096627
 20
113.055058
 30
0.0
 11
150.891556
 21
110.711089
 31
0.0
  0
CIRCLE
  5
158
100
AcDbEntity
  8
3
  6
CONTINUOUS
 62
   214
100
AcDbCircle
 10
149.641556
 20
111.867296
 30
0.0
 40
0.5
  0
ARC
  5
159
100
AcDbEntity
  8
3
  6
CONTINUOUS
 62
   214
100
AcDbCircle
 10
147.891556
 20
118.127288
 30
0.0
 40
8.0
100
AcDbArc
 50
-112.024311
 51
-93.583322
  0
ARC
  5
15A
100
AcDbEntity
  8
3
  6
CONTINUOUS
 62
   214
100
AcDbCircle
 10
147.891556
 20
118.127288
 30
0.0
 40
8.0
100
AcDbArc
 50
-86.416678
 51
-67.975689
  0
LINE
  5
15B
100
AcDbEntity
  8
3
  6
CENTER
 62
   214
100
AcDbLine
 10
105.141556
 20
86.127288
 30
0.0
 11
115.141556
 21
86.127288
 31
0.0
  0
ARC
  5
15C
100
AcDbEntity
  8
3
  6
CONTINUOUS
 62
   214
100
AcDbCircle
 10
108.891556
 20
90.377288
 30
0.0
 40
1.0
100
AcDbArc
 50
90.0
 51
180.0
  0
LINE
  5
15D
100
AcDbEntity
  8
3
  6
CONTINUOUS
 62
   214
100
AcDbLine
 10
107.891556
 20
81.877288
 30
0.0
 11
107.891556
 21
90.377288
 31
0.0
  0
ARC
  5
15E
100
AcDbEntity
  8
3
  6
CONTINUOUS
 62
   214
100
AcDbCircle
 10
108.891556
 20
81.877288
 30
0.0
 40
1.0
100
AcDbArc
 50
180.0
 51
-90.0
  0
LINE
  5
15F
100
AcDbEntity
  8
3
  6
CENTER
 62
   214
100
AcDbLine
 10
105.141556
 20
150.127288
 30
0.0
 11
115.141556
 21
150.127288
 31
0.0
  0
ARC
  5
160
100
AcDbEntity
  8
3
  6
CONTINUOUS
 62
   214
100
AcDbCircle
 10
108.891556
 20
154.377288
 30
0.0
 40
1.0
100
AcDbArc
 50
90.0
 51
180.0
  0
LINE
  5
161
100
AcDbEntity
  8
3
  6
CONTINUOUS
 62
   214
100
AcDbLine
 10
107.891556
 20
145.877288
 30
0.0
 11
107.891556
 21
154.377288
 31
0.0
  0
ARC
  5
162
100
AcDbEntity
  8
3
  6
CONTINUOUS
 62
   214
100
AcDbCircle
 10
108.891556
 20
145.877288
 30
0.0
 40
1.0
100
AcDbArc
 50
180.0
 51
-90.0
  0
LINE
  5
163
100
AcDbEntity
  8
3
  6
CENTER
 62
   214
100
AcDbLine
 10
190.641556
 20
150.127288
 30
0.0
 11
180.641556
 21
150.127288
 31
0.0
  0
ARC
  5
164
100
AcDbEntity
  8
3
  6
CONTINUOUS
 62
   214
100
AcDbCircle
 10
186.891556
 20
145.877288
 30
0.0
 40
1.0
100
AcDbArc
 50
-90.0
 51
0.0
  0
LINE
  5
165
100
AcDbEntity
  8
3
  6
CONTINUOUS
 62
   214
100
AcDbLine
 10
187.891556
 20
154.377288
 30
0.0
 11
187.891556
 21
145.877288
 31
0.0
  0
ARC
  5
166
100
AcDbEntity
  8
3
  6
CONTINUOUS
 62
   214
100
AcDbCircle
 10
186.891556
 20
154.377288
 30
0.0
 40
1.0
100
AcDbArc
 50
0.0
 51
90.0
  0
LINE
  5
167
100
AcDbEntity
  8
3
  6
CENTER
 62
   214
100
AcDbLine
 10
190.641556
 20
86.127288
 30
0.0
 11
180.641556
 21
86.127288
 31
0.0
  0
ARC
  5
168
100
AcDbEntity
  8
3
  6
CONTINUOUS
 62
   214
100
AcDbCircle
 10
186.891556
 20
81.877288
 30
0.0
 40
1.0
100
AcDbArc
 50
-90.0
 51
0.0
  0
LINE
  5
169
100
AcDbEntity
  8
3
  6
CONTINUOUS
 62
   214
100
AcDbLine
 10
187.891556
 20
90.377288
 30
0.0
 11
187.891556
 21
81.877288
 31
0.0
  0
ARC
  5
16A
100
AcDbEntity
  8
3
  6
CONTINUOUS
 62
   214
100
AcDbCircle
 10
186.891556
 20
90.377288
 30
0.0
 40
1.0
100
AcDbArc
 50
0.0
 51
90.0
  0
LINE
  5
16B
100
AcDbEntity
  8
3
  6
CENTER
 62
   214
100
AcDbLine
 10
292.741556
 20
150.127288
 30
0.0
 11
308.991556
 21
150.127288
 31
0.0
  0
LINE
  5
16C
100
AcDbEntity
  8
3
  6
CENTER
 62
   214
100
AcDbLine
 10
300.741556
 20
158.377288
 30
0.0
 11
300.741556
 21
141.877288
 31
0.0
  0
CIRCLE
  5
16D
100
AcDbEntity
  8
3
  6
CONTINUOUS
 62
   214
100
AcDbCircle
 10
300.741556
 20
150.127288
 30
0.0
 40
5.25
  0
CIRCLE
  5
16E
100
AcDbEntity
  8
3
  6
CONTINUOUS
 62
   214
100
AcDbCircle
 10
300.741556
 20
150.127288
 30
0.0
 40
2.5
  0
LINE
  5
16F
100
AcDbEntity
  8
3
  6
CENTER
 62
   214
100
AcDbLine
 10
292.741556
 20
86.127288
 30
0.0
 11
308.991556
 21
86.127288
 31
0.0
  0
LINE
  5
170
100
AcDbEntity
  8
3
  6
CENTER
 62
   214
100
AcDbLine
 10
300.741556
 20
77.877288
 30
0.0
 11
300.741556
 21
94.377288
 31
0.0
  0
CIRCLE
  5
171
100
AcDbEntity
  8
3
  6
CONTINUOUS
 62
   214
100
AcDbCircle
 10
300.741556
 20
86.127288
 30
0.0
 40
5.25
  0
CIRCLE
  5
172
100
AcDbEntity
  8
3
  6
CONTINUOUS
 62
   214
100
AcDbCircle
 10
300.741556
 20
86.127288
 30
0.0
 40
2.5
  0
LINE
  5
173
100
AcDbEntity
  8
3
  6
CENTER
 62
   214
100
AcDbLine
 10
311.391556
 20
95.127288
 30
0.0
 11
318.591556
 21
95.127288
 31
0.0
  0
LINE
  5
174
100
AcDbEntity
  8
3
  6
CENTER
 62
   214
100
AcDbLine
 10
311.391556
 20
141.127288
 30
0.0
 11
318.591556
 21
141.127288
 31
0.0
  0
LINE
  5
175
100
AcDbEntity
  8
3
  6
CENTER
 62
   214
100
AcDbLine
 10
191.891556
 20
90.127288
 30
0.0
 11
191.891556
 21
100.127288
 31
0.0
  0
LINE
  5
176
100
AcDbEntity
  8
3
  6
CENTER
 62
   214
100
AcDbLine
 10
196.891556
 20
95.127288
 30
0.0
 11
186.891556
 21
95.127288
 31
0.0
  0
LINE
  5
177
100
AcDbEntity
  8
3
  6
CENTER
 62
   214
100
AcDbLine
 10
191.891556
 20
136.127288
 30
0.0
 11
191.891556
 21
146.127288
 31
0.0
  0
LINE
  5
178
100
AcDbEntity
  8
3
  6
CENTER
 62
   214
100
AcDbLine
 10
196.891556
 20
141.127288
 30
0.0
 11
186.891556
 21
141.127288
 31
0.0
  0
CIRCLE
  5
179
100
AcDbEntity
  8
3
  6
CONTINUOUS
 62
   214
100
AcDbCircle
 10
191.891556
 20
95.127288
 30
0.0
 40
2.25
  0
CIRCLE
  5
17A
100
AcDbEntity
  8
3
  6
CONTINUOUS
 62
   214
100
AcDbCircle
 10
191.891556
 20
141.127288
 30
0.0
 40
2.25
  0
LINE
  5
17B
100
AcDbEntity
  8
3
  6
CENTER
 62
   214
100
AcDbLine
 10
103.891556
 20
90.127288
 30
0.0
 11
103.891556
 21
100.127288
 31
0.0
  0
LINE
  5
17C
100
AcDbEntity
  8
3
  6
CENTER
 62
   214
100
AcDbLine
 10
98.891556
 20
95.127288
 30
0.0
 11
108.891556
 21
95.127288
 31
0.0
  0
LINE
  5
17D
100
AcDbEntity
  8
3
  6
CENTER
 62
   214
100
AcDbLine
 10
103.891556
 20
136.127288
 30
0.0
 11
103.891556
 21
146.127288
 31
0.0
  0
LINE
  5
17E
100
AcDbEntity
  8
3
  6
CENTER
 62
   214
100
AcDbLine
 10
98.891556
 20
141.127288
 30
0.0
 11
108.891556
 21
141.127288
 31
0.0
  0
CIRCLE
  5
17F
100
AcDbEntity
  8
3
  6
CONTINUOUS
 62
   214
100
AcDbCircle
 10
103.891556
 20
95.127288
 30
0.0
 40
2.25
  0
CIRCLE
  5
180
100
AcDbEntity
  8
3
  6
CONTINUOUS
 62
   214
100
AcDbCircle
 10
103.891556
 20
141.127288
 30
0.0
 40
2.25
  0
LINE
  5
181
100
AcDbEntity
  8
3
  6
CENTER
 62
   214
100
AcDbLine
 10
191.891556
 20
160.127288
 30
0.0
 11
191.891556
 21
152.927288
 31
0.0
  0
LINE
  5
182
100
AcDbEntity
  8
3
  6
CENTER
 62
   214
100
AcDbLine
 10
103.891556
 20
160.127288
 30
0.0
 11
103.891556
 21
152.927288
 31
0.0
  0
LINE
  5
183
100
AcDbEntity
  8
3
  6
CONTINUOUS
 62
   214
100
AcDbLine
 10
99.891556
 20
155.927288
 30
0.0
 11
99.891556
 21
157.127288
 31
0.0
  0
LINE
  5
184
100
AcDbEntity
  8
3
  6
CONTINUOUS
 62
   214
100
AcDbLine
 10
195.891556
 20
155.927288
 30
0.0
 11
195.891556
 21
157.127288
 31
0.0
  0
LINE
  5
185
100
AcDbEntity
  8
3
  6
CONTINUOUS
 62
   214
100
AcDbLine
 10
196.891556
 20
157.127288
 30
0.0
 11
196.891556
 21
155.927288
 31
0.0
  0
LINE
  5
186
100
AcDbEntity
  8
3
  6
CONTINUOUS
 62
   214
100
AcDbLine
 10
98.891556
 20
157.127288
 30
0.0
 11
98.891556
 21
155.927288
 31
0.0
  0
LINE
  5
187
100
AcDbEntity
  8
3
  6
CONTINUOUS
 62
   214
100
AcDbLine
 10
98.891556
 20
157.127288
 30
0.0
 11
196.891556
 21
157.127288
 31
0.0
  0
LINE
  5
188
100
AcDbEntity
  8
3
  6
CONTINUOUS
 62
   214
100
AcDbLine
 10
186.891556
 20
155.927288
 30
0.0
 11
196.891556
 21
155.927288
 31
0.0
  0
LINE
  5
189
100
AcDbEntity
  8
3
  6
CONTINUOUS
 62
   214
100
AcDbLine
 10
98.891556
 20
155.927288
 30
0.0
 11
108.891556
 21
155.927288
 31
0.0
  0
LINE
  5
18A
100
AcDbEntity
  8
3
  6
CONTINUOUS
 62
   214
100
AcDbLine
 10
98.891556
 20
154.927288
 30
0.0
 11
98.891556
 21
80.127288
 31
0.0
  0
LINE
  5
18B
100
AcDbEntity
  8
3
  6
CONTINUOUS
 62
   214
100
AcDbLine
 10
98.891556
 20
154.927288
 30
0.0
 11
99.891556
 21
155.927288
 31
0.0
  0
LINE
  5
18C
100
AcDbEntity
  8
3
  6
CONTINUOUS
 62
   214
100
AcDbLine
 10
195.891556
 20
155.927288
 30
0.0
 11
196.891556
 21
154.927288
 31
0.0
  0
LINE
  5
18D
100
AcDbEntity
  8
3
  6
CONTINUOUS
 62
   214
100
AcDbLine
 10
98.891556
 20
80.127288
 30
0.0
 11
99.891556
 21
79.127288
 31
0.0
  0
LINE
  5
18E
100
AcDbEntity
  8
3
  6
CONTINUOUS
 62
   214
100
AcDbLine
 10
195.891556
 20
79.127288
 30
0.0
 11
99.891556
 21
79.127288
 31
0.0
  0
LINE
  5
18F
100
AcDbEntity
  8
3
  6
CONTINUOUS
 62
   214
100
AcDbLine
 10
195.891556
 20
79.127288
 30
0.0
 11
196.891556
 21
80.127288
 31
0.0
  0
LINE
  5
190
100
AcDbEntity
  8
3
  6
CENTER
 62
   214
100
AcDbLine
 10
309.741556
 20
160.127288
 30
0.0
 11
309.741556
 21
152.927288
 31
0.0
  0
LINE
  5
191
100
AcDbEntity
  8
3
  6
CENTER
 62
   214
100
AcDbLine
 10
291.741556
 20
160.127288
 30
0.0
 11
291.741556
 21
152.927288
 31
0.0
  0
LINE
  5
192
100
AcDbEntity
  8
3
  6
CONTINUOUS
 62
   214
100
AcDbLine
 10
315.591556
 20
80.127288
 30
0.0
 11
314.391556
 21
80.127288
 31
0.0
  0
LINE
  5
193
100
AcDbEntity
  8
3
  6
CONTINUOUS
 62
   214
100
AcDbLine
 10
314.391556
 20
154.927288
 30
0.0
 11
315.591556
 21
154.927288
 31
0.0
  0
LINE
  5
194
100
AcDbEntity
  8
3
  6
CONTINUOUS
 62
   214
100
AcDbLine
 10
314.591556
 20
157.127288
 30
0.0
 11
314.591556
 21
155.927288
 31
0.0
  0
LINE
  5
195
100
AcDbEntity
  8
3
  6
CONTINUOUS
 62
   214
100
AcDbLine
 10
314.391556
 20
155.927288
 30
0.0
 11
314.391556
 21
79.127288
 31
0.0
  0
LINE
  5
196
100
AcDbEntity
  8
3
  6
CONTINUOUS
 62
   214
100
AcDbLine
 10
285.891556
 20
155.927288
 30
0.0
 11
315.591556
 21
155.927288
 31
0.0
  0
LINE
  5
197
100
AcDbEntity
  8
3
  6
CONTINUOUS
 62
   214
100
AcDbLine
 10
315.591556
 20
157.127288
 30
0.0
 11
285.891556
 21
157.127288
 31
0.0
  0
LINE
  5
198
100
AcDbEntity
  8
3
  6
CONTINUOUS
 62
   214
100
AcDbLine
 10
315.591556
 20
79.127288
 30
0.0
 11
315.591556
 21
157.127288
 31
0.0
  0
LINE
  5
199
100
AcDbEntity
  8
3
  6
CONTINUOUS
 62
   214
100
AcDbLine
 10
285.891556
 20
79.127288
 30
0.0
 11
315.591556
 21
79.127288
 31
0.0
  0
LINE
  5
19A
100
AcDbEntity
  8
3
  6
CONTINUOUS
 62
   214
100
AcDbLine
 10
285.891556
 20
157.127288
 30
0.0
 11
285.891556
 21
79.127288
 31
0.0
  0
LINE
  5
19B
100
AcDbEntity
  8
3
  6
CENTER
 62
   214
100
AcDbLine
 10
147.891556
 20
76.127288
 30
0.0
 11
147.891556
 21
160.127288
 31
0.0
  0
LINE
  5
19C
100
AcDbEntity
  8
3
  6
CENTER
 62
   214
100
AcDbLine
 10
95.891556
 20
118.127288
 30
0.0
 11
199.891556
 21
118.127288
 31
0.0
  0
DIMENSION
  5
1A8
100
AcDbEntity
  8
2
  6
CONTINUOUS
 62
   134
100
AcDbDimension
  2
*D2
 10
86.891556
 20
79.127288
 30
0.0
 11
86.891556
 21
118.127288
 31
0.0
  1
78
100
AcDbAlignedDimension
 13
100.455805
 23
79.127288
 33
0.0
 14
98.391556
 24
157.127288
 34
0.0
 50
90.0
100
AcDbRotatedDimension
  0
DIMENSION
  5
1B4
100
AcDbEntity
  8
2
  6
CONTINUOUS
 62
   134
100
AcDbDimension
  2
*D3
 10
98.891556
 20
169.127288
 30
0.0
 11
147.891556
 21
169.127288
 31
0.0
  1
98
100
AcDbAlignedDimension
 13
98.891556
 23
157.627288
 33
0.0
 14
196.891556
 24
157.627288
 34
0.0
100
AcDbRotatedDimension
  0
DIMENSION
  5
1C0
100
AcDbEntity
  8
2
  6
CONTINUOUS
 62
   134
100
AcDbDimension
  2
*D4
 10
315.591556
 20
169.127288
 30
0.0
 11
300.741556
 21
169.127288
 31
0.0
  1
29.7
100
AcDbAlignedDimension
 13
315.591556
 23
157.627288
 33
0.0
 14
285.891556
 24
157.627288
 34
0.0
100
AcDbRotatedDimension
  0
ENDSEC
  0
SECTION
  2
OBJECTS
  0
DICTIONARY
  5
19
100
AcDbDictionary
  3
ACAD_GROUP
350
1A
  3
ACAD_MLINESTYLE
350
1B
  0
DICTIONARY
  5
1A
102
{ACAD_REACTORS
330
19
102
}
100
AcDbDictionary
  0
DICTIONARY
  5
1B
102
{ACAD_REACTORS
330
19
102
}
100
AcDbDictionary
  3
STANDARD
350
1C
  0
MLINESTYLE
  5
1C
102
{ACAD_REACTORS
330
1B
102
}
100
AcDbMlineStyle
  2
STANDARD
 70
     0
  3

 62
     0
 51
90.0
 52
90.0
 71
     2
 49
0.5
 62
   256
  6
BYLAYER
 49
-0.5
 62
   256
  6
BYLAYER
  0
ENDSEC
  0
EOF
