  0
SECTION
  2
HEADER
  9
$ACADVER
  1
AC1014
  9
$ACADMAINTVER
 70
     0
  9
$DWGCODEPAGE
  3
DOS932
  9
$INSBASE
 10
0.0
 20
0.0
 30
0.0
  9
$EXTMIN
 10
0.0
 20
0.0
 30
0.0
  9
$EXTMAX
 10
297.0
 20
420.0
 30
0.0
  9
$LIMMIN
 10
0.0
 20
0.0
  9
$LIMMAX
 10
297.0
 20
420.0
  9
$ORTHOMODE
 70
     0
  9
$REGENMODE
 70
     1
  9
$FILLMODE
 70
     1
  9
$QTEXTMODE
 70
     0
  9
$MIRRTEXT
 70
     1
  9
$DRAGMODE
 70
     2
  9
$LTSCALE
 40
0.25
  9
$OSMODE
 70
     0
  9
$ATTMODE
 70
     1
  9
$TEXTSIZE
 40
4.0
  9
$TRACEWID
 40
0.05
  9
$TEXTSTYLE
  7
STANDARD
  9
$CLAYER
  8
0
  9
$CELTYPE
  6
CONTINUOUS
  9
$CECOLOR
 62
   256
  9
$CELTSCALE
 40
1.0
  9
$DELOBJ
 70
     1
  9
$DISPSILH
 70
     0
  9
$DIMSCALE
 40
1.0
  9
$DIMASZ
 40
4.0
  9
$DIMEXO
 40
0.5
  9
$DIMDLI
 40
10.0
  9
$DIMRND
 40
0.0
  9
$DIMDLE
 40
0.0
  9
$DIMEXE
 40
2.0
  9
$DIMTP
 40
0.0
  9
$DIMTM
 40
0.0
  9
$DIMTXT
 40
4.0
  9
$DIMCEN
 40
0.09
  9
$DIMTSZ
 40
0.0
  9
$DIMTOL
 70
     0
  9
$DIMLIM
 70
     0
  9
$DIMTIH
 70
     0
  9
$DIMTOH
 70
     0
  9
$DIMSE1
 70
     0
  9
$DIMSE2
 70
     0
  9
$DIMTAD
 70
     3
  9
$DIMZIN
 70
     0
  9
$DIMBLK
  1

  9
$DIMASO
 70
     1
  9
$DIMSHO
 70
     1
  9
$DIMPOST
  1

  9
$DIMAPOST
  1

  9
$DIMALT
 70
     0
  9
$DIMALTD
 70
     2
  9
$DIMALTF
 40
25.4
  9
$DIMLFAC
 40
1.0
  9
$DIMTOFL
 70
     1
  9
$DIMTVP
 40
0.7
  9
$DIMTIX
 70
     0
  9
$DIMSOXD
 70
     0
  9
$DIMSAH
 70
     0
  9
$DIMBLK1
  1

  9
$DIMBLK2
  1

  9
$DIMSTYLE
  2
STANDARD
  9
$DIMCLRD
 70
     0
  9
$DIMCLRE
 70
     0
  9
$DIMCLRT
 70
     0
  9
$DIMTFAC
 40
0.5
  9
$DIMGAP
 40
0.0
  9
$DIMJUST
 70
     0
  9
$DIMSD1
 70
     0
  9
$DIMSD2
 70
     0
  9
$DIMTOLJ
 70
     1
  9
$DIMTZIN
 70
     0
  9
$DIMALTZ
 70
     0
  9
$DIMALTTZ
 70
     0
  9
$DIMFIT
 70
     3
  9
$DIMUPT
 70
     0
  9
$DIMUNIT
 70
     2
  9
$DIMDEC
 70
     2
  9
$DIMTDEC
 70
     4
  9
$DIMALTU
 70
     2
  9
$DIMALTTD
 70
     2
  9
$DIMTXSTY
  7
STANDARD
  9
$DIMAUNIT
 70
     0
  9
$LUNITS
 70
     2
  9
$LUPREC
 70
     4
  9
$SKETCHINC
 40
0.1
  9
$FILLETRAD
 40
0.0
  9
$AUNITS
 70
     0
  9
$AUPREC
 70
     0
  9
$MENU
  1
acad
  9
$ELEVATION
 40
0.0
  9
$PELEVATION
 40
0.0
  9
$THICKNESS
 40
0.0
  9
$LIMCHECK
 70
     0
  9
$BLIPMODE
 70
     1
  9
$CHAMFERA
 40
0.0
  9
$CHAMFERB
 40
0.0
  9
$CHAMFERC
 40
0.0
  9
$CHAMFERD
 40
0.0
  9
$SKPOLY
 70
     0
  9
$TDCREATE
 40
2453683.380254630
  9
$TDUPDATE
 40
2453683.380254630
  9
$TDINDWG
 40
0.0000000000
  9
$TDUSRTIMER
 40
0.0000000000
  9
$USRTIMER
 70
     1
  9
$ANGBASE
 50
0.0
  9
$ANGDIR
 70
     0
  9
$PDMODE
 70
     0
  9
$PDSIZE
 40
0.0
  9
$PLINEWID
 40
0.0
  9
$COORDS
 70
     0
  9
$SPLFRAME
 70
     0
  9
$SPLINETYPE
 70
     6
  9
$SPLINESEGS
 70
     8
  9
$ATTDIA
 70
     0
  9
$ATTREQ
 70
     1
  9
$HANDLING
 70
     1
  9
$HANDSEED
  5
230
  9
$SURFTAB1
 70
     6
  9
$SURFTAB2
 70
     6
  9
$SURFTYPE
 70
     6
  9
$SURFU
 70
     6
  9
$SURFV
 70
     6
  9
$UCSNAME
  2

  9
$UCSORG
 10
0.0
 20
0.0
 30
0.0
  9
$UCSXDIR
 10
1.0
 20
0.0
 30
0.0
  9
$UCSYDIR
 10
0.0
 20
1.0
 30
0.0
  9
$PUCSNAME
  2

  9
$PUCSORG
 10
0.0
 20
0.0
 30
0.0
  9
$PUCSXDIR
 10
1.0
 20
0.0
 30
0.0
  9
$PUCSYDIR
 10
0.0
 20
1.0
 30
0.0
  9
$USERI1
 70
     0
  9
$USERI2
 70
     0
  9
$USERI3
 70
     0
  9
$USERI4
 70
     0
  9
$USERI5
 70
     0
  9
$USERR1
 40
0.0
  9
$USERR2
 40
0.0
  9
$USERR3
 40
0.0
  9
$USERR4
 40
0.0
  9
$USERR5
 40
0.0
  9
$WORLDVIEW
 70
     1
  9
$SHADEDGE
 70
     3
  9
$SHADEDIF
 70
    70
  9
$TILEMODE
 70
     1
  9
$MAXACTVP
 70
    16
  9
$PINSBASE
 10
0.0
 20
0.0
 30
0.0
  9
$PLIMCHECK
 70
     0
  9
$PEXTMIN
 10
0.0
 20
0.0
 30
0.0
  9
$PEXTMAX
 10
297.0
 20
420.0
 30
0.0
  9
$PLIMMIN
 10
0.0
 20
0.0
  9
$PLIMMAX
 10
297.0
 20
420.0
  9
$UNITMODE
 70
     0
  9
$VISRETAIN
 70
     0
  9
$PLINEGEN
 70
     1
  9
$PSLTSCALE
 70
     0
  9
$TREEDEPTH
 70
  3020
  9
$PICKSTYLE
 70
     1
  9
$CMLSTYLE
  2
STANDARD
  9
$CMLJUST
 70
     0
  9
$CMLSCALE
 40
1.0
  9
$PROXYGRAPHICS
 70
     0
  9
$MEASUREMENT
 70
     0
  0
ENDSEC
  0
SECTION
  2
CLASSES
  0
CLASS
  1
LWPOLYLINE
  2
AcDbPolyline
  3
"AutoCAD"
 90
        0
280
     0
281
     1
  0
CLASS
  1
IMAGE
  2
AcDbRasterImage
  3
ISM
 90
      127
280
     0
281
     1
  0
CLASS
  1
OLE2FRAME
  2
AcDbOle2Frame
  3
""
 90
        0
280
     0
281
     1
  0
CLASS
  1
HATCH
  2
AcDbHatch
  3
"ACAD_SEDONA"
 90
        0
280
     0
281
     1
  0
CLASS
  1
DICTIONARYVAR
  2
AcDbDictionaryVar
  3
"AutoCAD"
 90
        0
280
     0
281
     0
  0
CLASS
  1
RASTERVARIABLES
  2
AcDbRasterVariables
  3
ISM
 90
        0
280
     0
281
     0
  0
CLASS
  1
IMAGEDEF
  2
AcDbRasterImageDef
  3
ISM
 90
        0
280
     0
281
     0
  0
CLASS
  1
IMAGEDEF_REACTOR
  2
AcDbRasterImageDefReactor
  3
ISM
 90
        1
280
     0
281
     0
  0
CLASS
  1
IDBUFFER
  2
AcDbIdBuffer
  3
"Acad"
 90
        0
280
     0
281
     0
  0
CLASS
  1
SPATIAL_FILTER
  2
AcDbSpatialFilter
  3
"Acad"
 90
        0
280
     0
281
     0
  0
CLASS
  1
XRECORD
  2
AcDbXrecord
  3
"<Built In>"
 90
        0
280
     0
281
     0
  0
CLASS
  1
SORTENTSTABLE
  2
AcDbSortentsTable
  3
"AutoCAD"
 90
        0
280
     0
281
     0
  0
CLASS
  1
LAYER_INDEX
  2
AcDbLayerIndex
  3
"Acad"
 90
        0
280
     0
281
     0
  0
CLASS
  1
SPATIAL_INDEX
  2
AcDbSpatialIndex
  3
"Acad"
 90
        0
280
     0
281
     0
  0
CLASS
  1
OBJECT_PTR
  2
CAseDLPNTableRecord
  3
"ASE-LPNTableRecord"
 90
        1
280
     0
281
     0
  0
CLASS
  1
LAYOUT
  2
AcDbLayout
  3
"AutoCAD 2000"
 90
        1
280
     0
281
     0
  0
CLASS
  1
PLOTSETTINGS
  2
AcDbPlotSettings
  3
"AutoCAD 2000"
 90
        1
280
     0
281
     0
  0
CLASS
  1
ACDBDICTIONARYWDFLT
  2
AcDbDictionaryWithDefault
  3
"AutoCAD 2000"
 90
        1
280
     0
281
     0
  0
CLASS
  1
ACDBPLACEHOLDER
  2
AcDbPlaceHolder
  3
"AutoCAD 2000"
 90
        1
280
     0
281
     0
  0
CLASS
  1
VBA_PROJECT
  2
AcDbVbaProject
  3
"acadvba"
 90
        1
280
     0
281
     0
  0
CLASS
  1
WIPEOUT
  2
AcDbWipeout
  3
WipeOut|AutoCAD Express Tool|expresstools@autodesk.com
 90
      127
280
     0
281
     1
  0
CLASS
  1
WIPEOUTVARIABLES
  2
AcDbWipeoutVariables
  3
WipeOut|AutoCAD Express Tool|expresstools@autodesk.com
 90
        0
280
     0
281
     0
  0
CLASS
  1
RTEXT
  2
RText
  3
RText|AutoCAD Express Tool|expresstools@autodesk.com
 90
        0
280
     0
281
     1
  0
CLASS
  1
ARCALIGNEDTEXT
  2
AcDbArcAlignedText
  3
ATEXT|AutoCAD Express Tool|expresstools@autodesk.com
 90
        0
280
     0
281
     1
  0
ENDSEC
  0
SECTION
  2
TABLES
  0
TABLE
  2
VPORT
  5
7
100
AcDbSymbolTable
 70
     1
  0
VPORT
  5
15
100
AcDbSymbolTableRecord
100
AcDbViewportTableRecord
  2
*ACTIVE
 70
     0
 10
0.0
 20
0.0
 11
1.0
 21
1.0
 12
6.591288
 22
4.579184
 13
0.0
 23
0.0
 14
1.0
 24
1.0
 15
0.0
 25
0.0
 16
0.0
 26
0.0
 36
1.0
 17
0.0
 27
0.0
 37
0.0
 40
9.158369
 41
0.688564
 42
50.0
 43
0.0
 44
0.0
 50
0.0
 51
0.0
 71
     0
 72
   100
 73
     1
 74
     1
 75
     0
 76
     0
 77
     0
 78
     0
  0
ENDTAB
  0
TABLE
  2
LTYPE
  5
4
100
AcDbSymbolTable
 70
     9
  0
LTYPE
  5
11
100
AcDbSymbolTableRecord
100
AcDbLinetypeTableRecord
  2
BYBLOCK
 70
    64
  3

 72
    65
 73
     0
 40
0.0
  0
LTYPE
  5
12
100
AcDbSymbolTableRecord
100
AcDbLinetypeTableRecord
  2
BYLAYER
 70
    64
  3

 72
    65
 73
     0
 40
0.0
  0
LTYPE
  5
13
100
AcDbSymbolTableRecord
100
AcDbLinetypeTableRecord
  2
CONTINUOUS
 70
    64
  3
Solid line
 72
    65
 73
     0
 40
0.0
  0
LTYPE
  5
1E
100
AcDbSymbolTableRecord
100
AcDbLinetypeTableRecord
  2
HIDDEN
 70
    64
  3
- - - - - - - - 
 72
    65
 73
     2
 40
12.6
 49
8.4
 74
     0
 49
-4.2
 74
     0
  0
LTYPE
  5
1F
100
AcDbSymbolTableRecord
100
AcDbLinetypeTableRecord
  2
DOT
 70
    64
  3
･ ･ ･ ･ ･ ･ ･ ･ 
 72
    65
 73
     2
 40
8.0
 49
6.0
 74
     0
 49
-2.0
 74
     0
  0
LTYPE
  5
20
100
AcDbSymbolTableRecord
100
AcDbLinetypeTableRecord
  2
CENTER
 70
    64
  3
- ･ - ･ - ･ - ･ 
 72
    65
 73
     4
 40
50.5
 49
30.0
 74
     0
 49
-9.0
 74
     0
 49
2.5
 74
     0
 49
-9.0
 74
     0
  0
LTYPE
  5
21
100
AcDbSymbolTableRecord
100
AcDbLinetypeTableRecord
  2
PHANTOM
 70
    64
  3
- ･･ - ･･ - ･･ - ･･ 
 72
    65
 73
     6
 40
58.0
 49
30.0
 74
     0
 49
-9.0
 74
     0
 49
2.5
 74
     0
 49
-5.0
 74
     0
 49
2.5
 74
     0
 49
-9.0
 74
     0
  0
LTYPE
  5
22
100
AcDbSymbolTableRecord
100
AcDbLinetypeTableRecord
  2
ACAD_ISO06W100
 70
    64
  3
____ ... ____ ... ____
 72
    65
 73
     8
 40
37.5
 49
24.0
 74
     0
 49
-3.0
 74
     0
 49
0.5
 74
     0
 49
-3.0
 74
     0
 49
0.5
 74
     0
 49
-3.0
 74
     0
 49
0.5
 74
     0
 49
-3.0
 74
     0
  0
LTYPE
  5
23
100
AcDbSymbolTableRecord
100
AcDbLinetypeTableRecord
  2
ACAD_ISO14W100
 70
    64
  3
__ . . . __ . . . __ . . . 
 72
    65
 73
     8
 40
25.5
 49
12.0
 74
     0
 49
-3.0
 74
     0
 49
0.5
 74
     0
 49
-3.0
 74
     0
 49
0.5
 74
     0
 49
-3.0
 74
     0
 49
0.5
 74
     0
 49
-3.0
 74
     0
  0
ENDTAB
  0
TABLE
  2
LAYER
  5
2
100
AcDbSymbolTable
 70
    22
  0
LAYER
  5
14
100
AcDbSymbolTableRecord
100
AcDbLayerTableRecord
  2
0
 70
     0
 62
     7
  6
CONTINUOUS
  0
LAYER
  5
24
100
AcDbSymbolTableRecord
100
AcDbLayerTableRecord
  2
1
 70
     0
 62
     3
  6
CONTINUOUS
  0
LAYER
  5
25
100
AcDbSymbolTableRecord
100
AcDbLayerTableRecord
  2
2
 70
     0
 62
   134
  6
CONTINUOUS
  0
LAYER
  5
26
100
AcDbSymbolTableRecord
100
AcDbLayerTableRecord
  2
3
 70
     0
 62
   214
  6
CONTINUOUS
  0
LAYER
  5
27
100
AcDbSymbolTableRecord
100
AcDbLayerTableRecord
  2
4
 70
     0
 62
    54
  6
CONTINUOUS
  0
LAYER
  5
28
100
AcDbSymbolTableRecord
100
AcDbLayerTableRecord
  2
5
 70
     0
 62
    94
  6
CONTINUOUS
  0
LAYER
  5
29
100
AcDbSymbolTableRecord
100
AcDbLayerTableRecord
  2
6
 70
     0
 62
    14
  6
CONTINUOUS
  0
LAYER
  5
2A
100
AcDbSymbolTableRecord
100
AcDbLayerTableRecord
  2
7
 70
     0
 62
     4
  6
CONTINUOUS
  0
LAYER
  5
2B
100
AcDbSymbolTableRecord
100
AcDbLayerTableRecord
  2
8
 70
     0
 62
     6
  6
CONTINUOUS
  0
LAYER
  5
2C
100
AcDbSymbolTableRecord
100
AcDbLayerTableRecord
  2
9
 70
     0
 62
     2
  6
CONTINUOUS
  0
LAYER
  5
2D
100
AcDbSymbolTableRecord
100
AcDbLayerTableRecord
  2
10
 70
     0
 62
     7
  6
CONTINUOUS
  0
LAYER
  5
2E
100
AcDbSymbolTableRecord
100
AcDbLayerTableRecord
  2
11
 70
     0
 62
   251
  6
CONTINUOUS
  0
LAYER
  5
2F
100
AcDbSymbolTableRecord
100
AcDbLayerTableRecord
  2
12
 70
     0
 62
   136
  6
CONTINUOUS
  0
LAYER
  5
30
100
AcDbSymbolTableRecord
100
AcDbLayerTableRecord
  2
13
 70
     0
 62
   216
  6
CONTINUOUS
  0
LAYER
  5
31
100
AcDbSymbolTableRecord
100
AcDbLayerTableRecord
  2
14
 70
     0
 62
    56
  6
CONTINUOUS
  0
LAYER
  5
32
100
AcDbSymbolTableRecord
100
AcDbLayerTableRecord
  2
15
 70
     0
 62
    96
  6
CONTINUOUS
  0
LAYER
  5
33
100
AcDbSymbolTableRecord
100
AcDbLayerTableRecord
  2
16
 70
     0
 62
    16
  6
CONTINUOUS
  0
LAYER
  5
34
100
AcDbSymbolTableRecord
100
AcDbLayerTableRecord
  2
17
 70
     0
 62
   132
  6
CONTINUOUS
  0
LAYER
  5
35
100
AcDbSymbolTableRecord
100
AcDbLayerTableRecord
  2
18
 70
     0
 62
   212
  6
CONTINUOUS
  0
LAYER
  5
36
100
AcDbSymbolTableRecord
100
AcDbLayerTableRecord
  2
19
 70
     0
 62
    52
  6
CONTINUOUS
  0
LAYER
  5
37
100
AcDbSymbolTableRecord
100
AcDbLayerTableRecord
  2
20
 70
     0
 62
   250
  6
CONTINUOUS
  0
LAYER
  5
38
100
AcDbSymbolTableRecord
100
AcDbLayerTableRecord
  2
128
 70
     0
 62
     7
  6
CONTINUOUS
  0
ENDTAB
  0
TABLE
  2
STYLE
  5
3
100
AcDbSymbolTable
 70
     2
  0
STYLE
  5
17
100
AcDbSymbolTableRecord
100
AcDbTextStyleTableRecord
  2
STANDARD
 70
     0
 40
0.0
 41
1.0
 50
0.0
 71
     0
 42
0.0
  3
txt
  4
bigfont
  0
STYLE
  5
1D
100
AcDbSymbolTableRecord
100
AcDbTextStyleTableRecord
  2
T_STANDARD
 70
    68
 40
10.0
 41
1.0
 50
0.0
 71
     0
 42
10.0
  3
txt
  4
bigfont
  0
ENDTAB
  0
TABLE
  2
VIEW
  5
5
100
AcDbSymbolTable
 70
     0
  0
ENDTAB
  0
TABLE
  2
UCS
  5
6
100
AcDbSymbolTable
 70
     0
  0
ENDTAB
  0
TABLE
  2
APPID
  5
8
100
AcDbSymbolTable
 70
     1
  0
APPID
  5
16
100
AcDbSymbolTableRecord
100
AcDbRegAppTableRecord
  2
ACAD
 70
     0
  0
ENDTAB
  0
TABLE
  2
DIMSTYLE
  5
9
100
AcDbSymbolTable
 70
     1
  0
DIMSTYLE
105
18
100
AcDbSymbolTableRecord
100
AcDbDimStyleTableRecord
  2
STANDARD
 70
     0
  3

  4

  5

  6

  7

 40
1.0
 41
0.18
 42
0.0625
 43
0.38
 44
0.18
 45
0.0
 46
0.0
 47
0.0
 48
0.0
 71
     0
 72
     0
 73
     1
 74
     1
 75
     0
 76
     0
 77
     0
 78
     0
140
0.18
141
0.09
142
0.0
143
25.4
144
1.0
145
0.0
146
1.0
147
0.09
170
     0
171
     2
172
     0
173
     0
174
     0
175
     0
176
     0
177
     0
178
     0
270
     2
271
     4
272
     4
273
     2
274
     2
275
     0
280
     0
281
     0
282
     0
283
     1
284
     0
285
     0
286
     0
287
     0
288
     0
340
17
  0
ENDTAB
  0
TABLE
  2
BLOCK_RECORD
  5
1
100
AcDbSymbolTable
 70
     4
  0
BLOCK_RECORD
  5
A
100
AcDbSymbolTableRecord
100
AcDbBlockTableRecord
  2
*MODEL_SPACE
  0
BLOCK_RECORD
  5
B
100
AcDbSymbolTableRecord
100
AcDbBlockTableRecord
  2
*PAPER_SPACE
  0
BLOCK_RECORD
  5
39
100
AcDbSymbolTableRecord
100
AcDbBlockTableRecord
  2
*G0
  0
BLOCK_RECORD
  5
20C
100
AcDbSymbolTableRecord
100
AcDbBlockTableRecord
  2
*D1
  0
BLOCK_RECORD
  5
218
100
AcDbSymbolTableRecord
100
AcDbBlockTableRecord
  2
*D2
  0
BLOCK_RECORD
  5
224
100
AcDbSymbolTableRecord
100
AcDbBlockTableRecord
  2
*D3
  0
ENDTAB
  0
ENDSEC
  0
SECTION
  2
BLOCKS
  0
BLOCK
  5
D
100
AcDbEntity
  8
0
100
AcDbBlockBegin
  2
*MODEL_SPACE
 70
     0
 10
0.0
 20
0.0
 30
0.0
  3
*MODEL_SPACE
  1

  0
ENDBLK
  5
E
100
AcDbEntity
  8
0
100
AcDbBlockEnd
  0
BLOCK
  5
F
100
AcDbEntity
 67
     1
  8
0
100
AcDbBlockBegin
  2
*PAPER_SPACE
 70
     0
 10
0.0
 20
0.0
 30
0.0
  3
*PAPER_SPACE
  1

  0
ENDBLK
  5
10
100
AcDbEntity
 67
     1
  8
0
100
AcDbBlockEnd
  0
BLOCK
  5
3A
100
AcDbEntity
  8
0
  6
CONTINUOUS
 62
     7
100
AcDbBlockBegin
  2
*G0
 70
     0
 10
0.0
 20
0.0
 30
0.0
  3
*G0
  1

  0
ENDBLK
  5
3B
100
AcDbEntity
  8
0
100
AcDbBlockEnd
  0
BLOCK
  5
20D
100
AcDbEntity
  8
2
  6
CONTINUOUS
 62
   134
100
AcDbBlockBegin
  2
*D1
 70
     0
 10
0.0
 20
0.0
 30
0.0
  3
*D1
  1

  0
LINE
  5
20E
100
AcDbEntity
  8
2
  6
CONTINUOUS
 62
   134
100
AcDbLine
 10
204.31006
 20
272.20235
 30
0.0
 11
204.31006
 21
180.20235
 31
0.0
  0
LINE
  5
20F
100
AcDbEntity
  8
2
  6
CONTINUOUS
 62
   134
100
AcDbLine
 10
206.31006
 20
272.20235
 30
0.0
 11
164.36006
 21
272.20235
 31
0.0
  0
LINE
  5
210
100
AcDbEntity
  8
2
  6
CONTINUOUS
 62
   134
100
AcDbLine
 10
206.31006
 20
180.20235
 30
0.0
 11
151.16006
 21
180.20235
 31
0.0
  0
LINE
  5
211
100
AcDbEntity
  8
2
  6
CONTINUOUS
 62
   134
100
AcDbLine
 10
204.31006
 20
272.20235
 30
0.0
 11
205.345336
 21
268.338647
 31
0.0
  0
LINE
  5
212
100
AcDbEntity
  8
2
  6
CONTINUOUS
 62
   134
100
AcDbLine
 10
204.31006
 20
272.20235
 30
0.0
 11
203.274784
 21
268.338647
 31
0.0
  0
LINE
  5
213
100
AcDbEntity
  8
2
  6
CONTINUOUS
 62
   134
100
AcDbLine
 10
204.31006
 20
180.20235
 30
0.0
 11
203.274784
 21
184.066054
 31
0.0
  0
LINE
  5
214
100
AcDbEntity
  8
2
  6
CONTINUOUS
 62
   134
100
AcDbLine
 10
204.31006
 20
180.20235
 30
0.0
 11
205.345336
 21
184.066054
 31
0.0
  0
TEXT
  5
215
100
AcDbEntity
  8
2
  6
CONTINUOUS
 62
   134
100
AcDbText
 10
204.31006
 20
224.20235
 30
0.0
 40
4.0
  1
92
 50
90.0
 41
0.5
 11
204.31006
 21
224.20235
 31
0.0
100
AcDbText
 73
     1
  0
ENDBLK
  5
216
100
AcDbEntity
  8
2
  6
CONTINUOUS
 62
   134
100
AcDbBlockEnd
  0
BLOCK
  5
219
100
AcDbEntity
  8
2
  6
CONTINUOUS
 62
   134
100
AcDbBlockBegin
  2
*D2
 70
     0
 10
0.0
 20
0.0
 30
0.0
  3
*D2
  1

  0
LINE
  5
21A
100
AcDbEntity
  8
2
  6
CONTINUOUS
 62
   134
100
AcDbLine
 10
163.86006
 20
284.20235
 30
0.0
 11
47.86006
 21
284.20235
 31
0.0
  0
LINE
  5
21B
100
AcDbEntity
  8
2
  6
CONTINUOUS
 62
   134
100
AcDbLine
 10
163.86006
 20
286.20235
 30
0.0
 11
163.86006
 21
272.70235
 31
0.0
  0
LINE
  5
21C
100
AcDbEntity
  8
2
  6
CONTINUOUS
 62
   134
100
AcDbLine
 10
47.86006
 20
286.20235
 30
0.0
 11
47.86006
 21
272.70235
 31
0.0
  0
LINE
  5
21D
100
AcDbEntity
  8
2
  6
CONTINUOUS
 62
   134
100
AcDbLine
 10
163.86006
 20
284.20235
 30
0.0
 11
159.996357
 21
283.167074
 31
0.0
  0
LINE
  5
21E
100
AcDbEntity
  8
2
  6
CONTINUOUS
 62
   134
100
AcDbLine
 10
163.86006
 20
284.20235
 30
0.0
 11
159.996357
 21
285.237627
 31
0.0
  0
LINE
  5
21F
100
AcDbEntity
  8
2
  6
CONTINUOUS
 62
   134
100
AcDbLine
 10
47.86006
 20
284.20235
 30
0.0
 11
51.723763
 21
285.237627
 31
0.0
  0
LINE
  5
220
100
AcDbEntity
  8
2
  6
CONTINUOUS
 62
   134
100
AcDbLine
 10
47.86006
 20
284.20235
 30
0.0
 11
51.723763
 21
283.167074
 31
0.0
  0
TEXT
  5
221
100
AcDbEntity
  8
2
  6
CONTINUOUS
 62
   134
100
AcDbText
 10
102.86006
 20
284.20235
 30
0.0
 40
4.0
  1
116
 41
0.5
 11
102.86006
 21
284.20235
 31
0.0
100
AcDbText
 73
     1
  0
ENDBLK
  5
222
100
AcDbEntity
  8
2
  6
CONTINUOUS
 62
   134
100
AcDbBlockEnd
  0
BLOCK
  5
225
100
AcDbEntity
  8
2
  6
CONTINUOUS
 62
   134
100
AcDbBlockBegin
  2
*D3
 70
     0
 10
0.0
 20
0.0
 30
0.0
  3
*D3
  1

  0
LINE
  5
226
100
AcDbEntity
  8
2
  6
CONTINUOUS
 62
   134
100
AcDbLine
 10
222.86006
 20
284.20235
 30
0.0
 11
257.26006
 21
284.20235
 31
0.0
  0
LINE
  5
227
100
AcDbEntity
  8
2
  6
CONTINUOUS
 62
   134
100
AcDbLine
 10
222.86006
 20
286.20235
 30
0.0
 11
222.86006
 21
271.50235
 31
0.0
  0
LINE
  5
228
100
AcDbEntity
  8
2
  6
CONTINUOUS
 62
   134
100
AcDbLine
 10
257.26006
 20
286.20235
 30
0.0
 11
257.26006
 21
271.50235
 31
0.0
  0
LINE
  5
229
100
AcDbEntity
  8
2
  6
CONTINUOUS
 62
   134
100
AcDbLine
 10
222.86006
 20
284.20235
 30
0.0
 11
226.723763
 21
285.237627
 31
0.0
  0
LINE
  5
22A
100
AcDbEntity
  8
2
  6
CONTINUOUS
 62
   134
100
AcDbLine
 10
222.86006
 20
284.20235
 30
0.0
 11
226.723763
 21
283.167074
 31
0.0
  0
LINE
  5
22B
100
AcDbEntity
  8
2
  6
CONTINUOUS
 62
   134
100
AcDbLine
 10
257.26006
 20
284.20235
 30
0.0
 11
253.396357
 21
283.167074
 31
0.0
  0
LINE
  5
22C
100
AcDbEntity
  8
2
  6
CONTINUOUS
 62
   134
100
AcDbLine
 10
257.26006
 20
284.20235
 30
0.0
 11
253.396357
 21
285.237627
 31
0.0
  0
TEXT
  5
22D
100
AcDbEntity
  8
2
  6
CONTINUOUS
 62
   134
100
AcDbText
 10
236.06006
 20
284.20235
 30
0.0
 40
4.0
  1
34.4
 41
0.555556
 11
236.06006
 21
284.20235
 31
0.0
100
AcDbText
 73
     1
  0
ENDBLK
  5
22E
100
AcDbEntity
  8
2
  6
CONTINUOUS
 62
   134
100
AcDbBlockEnd
  0
ENDSEC
  0
SECTION
  2
ENTITIES
  0
INSERT
  5
3C
100
AcDbEntity
  8
0
  6
CONTINUOUS
 62
     7
100
AcDbBlockReference
  2
*G0
 10
0.0
 20
0.0
 30
0.0
  0
TEXT
  5
3D
100
AcDbEntity
  8
1
  6
CONTINUOUS
 62
     3
100
AcDbText
 10
108.605637
 20
29.293388
 30
0.0
 40
10.0
  1
MSW-A-*.*-****-E1
 41
0.512048
 11
108.605637
 21
29.293388
 31
0.0
100
AcDbText
 73
     1
  0
LINE
  5
3E
100
AcDbEntity
  8
3
  6
CONTINUOUS
 62
   214
100
AcDbLine
 10
117.446512
 20
224.9191
 30
0.0
 11
117.97242
 21
221.481042
 31
0.0
  0
LINE
  5
3F
100
AcDbEntity
  8
3
  6
CONTINUOUS
 62
   214
100
AcDbLine
 10
117.97242
 20
221.481042
 30
0.0
 11
120.684727
 21
224.560454
 31
0.0
  0
ARC
  5
40
100
AcDbEntity
  8
3
  6
CONTINUOUS
 62
   214
100
AcDbCircle
 10
105.860061
 20
226.20235
 30
0.0
 40
12.599999
100
AcDbArc
 50
-6.32
 51
18.680001
  0
ARC
  5
41
100
AcDbEntity
  8
3
  6
CONTINUOUS
 62
   214
100
AcDbCircle
 10
105.860054
 20
226.202351
 30
0.0
 40
13.400006
100
AcDbArc
 50
-6.32
 51
18.679989
  0
LINE
  5
42
100
AcDbEntity
  8
3
  6
CONTINUOUS
 62
   214
100
AcDbLine
 10
117.796319
 20
230.237908
 30
0.0
 11
118.554177
 21
230.494134
 31
0.0
  0
LINE
  5
43
100
AcDbEntity
  8
3
  6
CONTINUOUS
 62
   214
100
AcDbLine
 10
117.446512
 20
224.9191
 30
0.0
 11
118.383485
 21
224.815327
 31
0.0
  0
LINE
  5
44
100
AcDbEntity
  8
3
  6
CONTINUOUS
 62
   214
100
AcDbLine
 10
119.178623
 20
224.727262
 30
0.0
 11
120.684698
 21
224.560421
 31
0.0
  0
TEXT
  5
45
100
AcDbEntity
  8
3
  6
CONTINUOUS
 62
   214
100
AcDbText
 10
113.538414
 20
218.075662
 30
0.0
 40
4.0
  1
強
 50
-36.32
 41
0.833333
 11
113.538414
 21
218.075662
 31
0.0
100
AcDbText
 73
     1
  0
LINE
  5
46
100
AcDbEntity
  8
3
  6
CENTER
 62
   214
100
AcDbLine
 10
106.206232
 20
114.60235
 30
0.0
 11
106.206232
 21
104.60235
 31
0.0
  0
LINE
  5
47
100
AcDbEntity
  8
3
  6
CENTER
 62
   214
100
AcDbLine
 10
106.206232
 20
322.20235
 30
0.0
 11
106.206232
 21
332.20235
 31
0.0
  0
ARC
  5
48
100
AcDbEntity
  8
3
  6
CONTINUOUS
 62
   214
100
AcDbCircle
 10
107.006232
 20
111.193717
 30
0.0
 40
2.0
100
AcDbArc
 50
58.684336
 51
74.53399
  0
ARC
  5
49
100
AcDbEntity
  8
3
  6
CONTINUOUS
 62
   214
100
AcDbCircle
 10
105.406232
 20
111.193717
 30
0.0
 40
2.0
100
AcDbArc
 50
105.46601
 51
121.315664
  0
ARC
  5
4A
100
AcDbEntity
  8
3
  6
CONTINUOUS
 62
   214
100
AcDbCircle
 10
106.206232
 20
108.30235
 30
0.0
 40
5.0
100
AcDbArc
 50
74.53399
 51
85.411434
  0
ARC
  5
4B
100
AcDbEntity
  8
3
  6
CONTINUOUS
 62
   214
100
AcDbCircle
 10
106.206232
 20
108.30235
 30
0.0
 40
5.0
100
AcDbArc
 50
94.588566
 51
105.46601
  0
LINE
  5
4C
100
AcDbEntity
  8
3
  6
CONTINUOUS
 62
   214
100
AcDbLine
 10
106.606232
 20
113.10235
 30
0.0
 11
106.206232
 21
113.10235
 31
0.0
  0
LINE
  5
4D
100
AcDbEntity
  8
3
  6
CONTINUOUS
 62
   214
100
AcDbLine
 10
106.606232
 20
113.286325
 30
0.0
 11
106.606232
 21
113.10235
 31
0.0
  0
LINE
  5
4E
100
AcDbEntity
  8
3
  6
CONTINUOUS
 62
   214
100
AcDbLine
 10
105.806232
 20
113.10235
 30
0.0
 11
106.206232
 21
113.10235
 31
0.0
  0
LINE
  5
4F
100
AcDbEntity
  8
3
  6
CONTINUOUS
 62
   214
100
AcDbLine
 10
105.806232
 20
113.286325
 30
0.0
 11
105.806232
 21
113.10235
 31
0.0
  0
LINE
  5
50
100
AcDbEntity
  8
3
  6
CONTINUOUS
 62
   214
100
AcDbLine
 10
93.410429
 20
110.90235
 30
0.0
 11
93.410429
 21
108.60235
 31
0.0
  0
LINE
  5
51
100
AcDbEntity
  8
3
  6
CONTINUOUS
 62
   214
100
AcDbLine
 10
91.278095
 20
110.90235
 30
0.0
 11
91.278095
 21
108.60235
 31
0.0
  0
LINE
  5
52
100
AcDbEntity
  8
3
  6
CONTINUOUS
 62
   214
100
AcDbLine
 10
102.416437
 20
110.90235
 30
0.0
 11
82.060755
 21
110.90235
 31
0.0
  0
LINE
  5
53
100
AcDbEntity
  8
3
  6
CONTINUOUS
 62
   214
100
AcDbLine
 10
82.060755
 20
110.90235
 30
0.0
 11
82.060755
 21
108.60235
 31
0.0
  0
LINE
  5
54
100
AcDbEntity
  8
3
  6
CONTINUOUS
 62
   214
100
AcDbLine
 10
82.060755
 20
325.90235
 30
0.0
 11
114.817582
 21
325.90235
 31
0.0
  0
LINE
  5
55
100
AcDbEntity
  8
3
  6
CONTINUOUS
 62
   214
100
AcDbLine
 10
82.060755
 20
328.20235
 30
0.0
 11
82.060755
 21
325.90235
 31
0.0
  0
LINE
  5
56
100
AcDbEntity
  8
3
  6
CONTINUOUS
 62
   214
100
AcDbLine
 10
96.647929
 20
328.20235
 30
0.0
 11
96.647929
 21
325.90235
 31
0.0
  0
LINE
  5
57
100
AcDbEntity
  8
3
  6
CENTER
 62
   214
100
AcDbLine
 10
144.75544
 20
203.20235
 30
0.0
 11
144.9648
 21
203.20235
 31
0.0
  0
LINE
  5
58
100
AcDbEntity
  8
3
  6
CENTER
 62
   214
100
AcDbLine
 10
144.86012
 20
203.307031
 30
0.0
 11
144.86012
 21
203.09767
 31
0.0
  0
LINE
  5
59
100
AcDbEntity
  8
3
  6
CONTINUOUS
 62
   214
100
AcDbLine
 10
104.272553
 20
243.22342
 30
0.0
 11
108.139912
 21
239.173291
 31
0.0
  0
LINE
  5
5A
100
AcDbEntity
  8
3
  6
CONTINUOUS
 62
   214
100
AcDbLine
 10
98.86006
 20
324.90235
 30
0.0
 11
103.535981
 21
324.90235
 31
0.0
  0
LINE
  5
5B
100
AcDbEntity
  8
3
  6
CONTINUOUS
 62
   214
100
AcDbLine
 10
99.86006
 20
323.90235
 30
0.0
 11
104.366727
 21
323.90235
 31
0.0
  0
LINE
  5
5C
100
AcDbEntity
  8
3
  6
CONTINUOUS
 62
   214
100
AcDbLine
 10
108.876483
 20
324.90235
 30
0.0
 11
112.86006
 21
324.90235
 31
0.0
  0
LINE
  5
5D
100
AcDbEntity
  8
3
  6
CONTINUOUS
 62
   214
100
AcDbLine
 10
108.045738
 20
323.90235
 30
0.0
 11
111.86006
 21
323.90235
 31
0.0
  0
ARC
  5
5E
100
AcDbEntity
  8
3
  6
CONTINUOUS
 62
   214
100
AcDbCircle
 10
106.206232
 20
328.50235
 30
0.0
 40
5.0
100
AcDbArc
 50
-105.46601
 51
-94.588566
  0
ARC
  5
5F
100
AcDbEntity
  8
3
  6
CONTINUOUS
 62
   214
100
AcDbCircle
 10
106.206232
 20
328.50235
 30
0.0
 40
5.0
100
AcDbArc
 50
-85.411434
 51
-74.53399
  0
LINE
  5
60
100
AcDbEntity
  8
3
  6
CONTINUOUS
 62
   214
100
AcDbLine
 10
105.806232
 20
323.70235
 30
0.0
 11
106.206232
 21
323.70235
 31
0.0
  0
LINE
  5
61
100
AcDbEntity
  8
3
  6
CONTINUOUS
 62
   214
100
AcDbLine
 10
105.806232
 20
323.518376
 30
0.0
 11
105.806232
 21
323.70235
 31
0.0
  0
LINE
  5
62
100
AcDbEntity
  8
3
  6
CONTINUOUS
 62
   214
100
AcDbLine
 10
106.606232
 20
323.70235
 30
0.0
 11
106.206232
 21
323.70235
 31
0.0
  0
LINE
  5
63
100
AcDbEntity
  8
3
  6
CONTINUOUS
 62
   214
100
AcDbLine
 10
106.606232
 20
323.518376
 30
0.0
 11
106.606232
 21
323.70235
 31
0.0
  0
ARC
  5
64
100
AcDbEntity
  8
3
  6
CONTINUOUS
 62
   214
100
AcDbCircle
 10
105.406232
 20
325.610984
 30
0.0
 40
2.0
100
AcDbArc
 50
-180.0
 51
-105.46601
  0
LINE
  5
65
100
AcDbEntity
  8
3
  6
CONTINUOUS
 62
   214
100
AcDbLine
 10
103.406232
 20
325.610984
 30
0.0
 11
103.406232
 21
325.90235
 31
0.0
  0
ARC
  5
66
100
AcDbEntity
  8
3
  6
CONTINUOUS
 62
   214
100
AcDbCircle
 10
107.006232
 20
325.610984
 30
0.0
 40
2.0
100
AcDbArc
 50
-74.53399
 51
0.0
  0
LINE
  5
67
100
AcDbEntity
  8
3
  6
CONTINUOUS
 62
   214
100
AcDbLine
 10
109.006232
 20
325.610984
 30
0.0
 11
109.006232
 21
325.90235
 31
0.0
  0
LINE
  5
68
100
AcDbEntity
  8
3
  6
CONTINUOUS
 62
   214
100
AcDbLine
 10
102.213785
 20
110.90235
 30
0.0
 11
150.360157
 21
110.90235
 31
0.0
  0
LINE
  5
69
100
AcDbEntity
  8
3
  6
CONTINUOUS
 62
   214
100
AcDbLine
 10
102.213785
 20
108.60235
 30
0.0
 11
102.213785
 21
110.90235
 31
0.0
  0
LINE
  5
6A
100
AcDbEntity
  8
3
  6
CONTINUOUS
 62
   214
100
AcDbLine
 10
114.817582
 20
325.90235
 30
0.0
 11
143.346786
 21
325.90235
 31
0.0
  0
LINE
  5
6B
100
AcDbEntity
  8
3
  6
CONTINUOUS
 62
   214
100
AcDbLine
 10
114.817582
 20
328.20235
 30
0.0
 11
114.817582
 21
325.90235
 31
0.0
  0
LINE
  5
6C
100
AcDbEntity
  8
3
  6
CENTER
 62
   214
100
AcDbLine
 10
216.240736
 20
241.198355
 30
0.0
 11
227.26006
 21
241.198355
 31
0.0
  0
ARC
  5
6D
100
AcDbEntity
  8
3
  6
CONTINUOUS
 62
   214
100
AcDbCircle
 10
223.16006
 20
241.198355
 30
0.0
 40
5.0
100
AcDbArc
 50
164.53399
 51
175.411434
  0
ARC
  5
6E
100
AcDbEntity
  8
3
  6
CONTINUOUS
 62
   214
100
AcDbCircle
 10
223.16006
 20
241.198355
 30
0.0
 40
5.0
100
AcDbArc
 50
-175.411434
 51
-164.53399
  0
LINE
  5
6F
100
AcDbEntity
  8
3
  6
CONTINUOUS
 62
   214
100
AcDbLine
 10
218.36006
 20
241.598355
 30
0.0
 11
218.36006
 21
241.198355
 31
0.0
  0
LINE
  5
70
100
AcDbEntity
  8
3
  6
CONTINUOUS
 62
   214
100
AcDbLine
 10
218.176086
 20
241.598355
 30
0.0
 11
218.36006
 21
241.598355
 31
0.0
  0
LINE
  5
71
100
AcDbEntity
  8
3
  6
CONTINUOUS
 62
   214
100
AcDbLine
 10
218.36006
 20
240.798355
 30
0.0
 11
218.36006
 21
241.198355
 31
0.0
  0
LINE
  5
72
100
AcDbEntity
  8
3
  6
CONTINUOUS
 62
   214
100
AcDbLine
 10
218.176086
 20
240.798355
 30
0.0
 11
218.36006
 21
240.798355
 31
0.0
  0
ARC
  5
73
100
AcDbEntity
  8
3
  6
CONTINUOUS
 62
   214
100
AcDbCircle
 10
220.268694
 20
241.998355
 30
0.0
 40
2.0
100
AcDbArc
 50
90.0
 51
164.53399
  0
LINE
  5
74
100
AcDbEntity
  8
3
  6
CONTINUOUS
 62
   214
100
AcDbLine
 10
220.268694
 20
243.998355
 30
0.0
 11
220.56006
 21
243.998355
 31
0.0
  0
ARC
  5
75
100
AcDbEntity
  8
3
  6
CONTINUOUS
 62
   214
100
AcDbCircle
 10
220.268694
 20
240.398355
 30
0.0
 40
2.0
100
AcDbArc
 50
-164.53399
 51
-90.0
  0
LINE
  5
76
100
AcDbEntity
  8
3
  6
CONTINUOUS
 62
   214
100
AcDbLine
 10
220.268694
 20
238.398355
 30
0.0
 11
220.56006
 21
238.398355
 31
0.0
  0
LINE
  5
77
100
AcDbEntity
  8
3
  6
CONTINUOUS
 62
   214
100
AcDbLine
 10
220.56006
 20
254.230737
 30
0.0
 11
220.56006
 21
250.715625
 31
0.0
  0
LINE
  5
78
100
AcDbEntity
  8
3
  6
CONTINUOUS
 62
   214
100
AcDbLine
 10
222.86006
 20
254.230737
 30
0.0
 11
220.56006
 21
254.230737
 31
0.0
  0
LINE
  5
79
100
AcDbEntity
  8
3
  6
CONTINUOUS
 62
   214
100
AcDbLine
 10
220.56006
 20
247.689076
 30
0.0
 11
220.56006
 21
190.313419
 31
0.0
  0
LINE
  5
7A
100
AcDbEntity
  8
3
  6
CONTINUOUS
 62
   214
100
AcDbLine
 10
220.56006
 20
190.313419
 30
0.0
 11
222.86006
 21
190.313419
 31
0.0
  0
LINE
  5
7B
100
AcDbEntity
  8
3
  6
CENTER
 62
   214
100
AcDbLine
 10
106.302429
 20
245.365563
 30
0.0
 11
106.110557
 21
237.053727
 31
0.0
  0
LINE
  5
7C
100
AcDbEntity
  8
3
  6
CONTINUOUS
 62
   214
100
AcDbLine
 10
104.759758
 20
239.817156
 30
0.0
 11
107.652707
 21
242.579555
 31
0.0
  0
ARC
  5
7D
100
AcDbEntity
  8
3
  6
CONTINUOUS
 62
   214
100
AcDbCircle
 10
105.86006
 20
226.20235
 30
0.0
 40
24.0
100
AcDbArc
 50
165.365621
 51
172.58514
  0
ARC
  5
7E
100
AcDbEntity
  8
3
  6
CONTINUOUS
 62
   214
100
AcDbCircle
 10
104.74786
 20
220.596163
 30
0.0
 40
25.0
100
AcDbArc
 50
104.389981
 51
152.173776
  0
CIRCLE
  5
7F
100
AcDbEntity
  8
3
  6
CONTINUOUS
 62
   214
100
AcDbCircle
 10
106.206232
 20
241.198355
 30
0.0
 40
2.8
  0
LINE
  5
80
100
AcDbEntity
  8
3
  6
CONTINUOUS
 62
   214
100
AcDbLine
 10
96.647929
 20
248.363953
 30
0.0
 11
98.534846
 21
244.811829
 31
0.0
  0
ARC
  5
81
100
AcDbEntity
  8
3
  6
CONTINUOUS
 62
   214
100
AcDbCircle
 10
105.86006
 20
226.20235
 30
0.0
 40
24.0
100
AcDbArc
 50
45.365617
 51
52.58514
  0
LINE
  5
82
100
AcDbEntity
  8
3
  6
CONTINUOUS
 62
   214
100
AcDbLine
 10
129.659365
 20
223.105083
 30
0.0
 11
125.640502
 21
223.246999
 31
0.0
  0
LINE
  5
83
100
AcDbEntity
  8
3
  6
CONTINUOUS
 62
   214
100
AcDbLine
 10
120.442024
 20
245.264521
 30
0.0
 11
118.309691
 21
241.85504
 31
0.0
  0
ARC
  5
84
100
AcDbEntity
  8
3
  6
CONTINUOUS
 62
   214
100
AcDbCircle
 10
101.561059
 20
229.968638
 30
0.0
 40
25.0
100
AcDbArc
 50
-15.596775
 51
32.173772
  0
ARC
  5
85
100
AcDbEntity
  8
3
  6
CONTINUOUS
 62
   214
100
AcDbCircle
 10
105.86006
 20
226.20235
 30
0.0
 40
24.0
100
AcDbArc
 50
-14.634383
 51
-7.41486
  0
ARC
  5
86
100
AcDbEntity
  8
3
  6
CONTINUOUS
 62
   214
100
AcDbCircle
 10
105.86006
 20
226.20235
 30
0.0
 40
24.0
100
AcDbArc
 50
105.365617
 51
112.57167
  0
LINE
  5
87
100
AcDbEntity
  8
3
  6
CONTINUOUS
 62
   214
100
AcDbLine
 10
82.060754
 20
229.299618
 30
0.0
 11
86.079618
 21
229.157703
 31
0.0
  0
ARC
  5
88
100
AcDbEntity
  8
3
  6
CONTINUOUS
 62
   214
100
AcDbCircle
 10
105.86006
 20
226.20235
 30
0.0
 40
24.0
100
AcDbArc
 50
-74.634383
 51
-67.41486
  0
LINE
  5
89
100
AcDbEntity
  8
3
  6
CONTINUOUS
 62
   214
100
AcDbLine
 10
115.077401
 20
204.042914
 30
0.0
 11
113.190871
 21
207.594309
 31
0.0
  0
LINE
  5
8A
100
AcDbEntity
  8
3
  6
CONTINUOUS
 62
   214
100
AcDbLine
 10
91.278096
 20
207.140181
 30
0.0
 11
93.410429
 21
210.549662
 31
0.0
  0
ARC
  5
8B
100
AcDbEntity
  8
3
  6
CONTINUOUS
 62
   214
100
AcDbCircle
 10
105.86006
 20
226.20235
 30
0.0
 40
24.0
100
AcDbArc
 50
-134.634383
 51
-127.41486
  0
ARC
  5
8C
100
AcDbEntity
  8
3
  6
CONTINUOUS
 62
   214
100
AcDbCircle
 10
111.271261
 20
228.04225
 30
0.0
 40
25.0
100
AcDbArc
 50
-135.596775
 51
-87.826228
  0
ARC
  5
8D
100
AcDbEntity
  8
3
  6
CONTINUOUS
 62
   214
100
AcDbCircle
 10
110.159061
 20
222.436063
 30
0.0
 40
25.0
100
AcDbArc
 50
164.403225
 51
-147.826228
  0
ARC
  5
8E
100
AcDbEntity
  8
3
  6
CONTINUOUS
 62
   214
100
AcDbCircle
 10
100.448859
 20
224.362451
 30
0.0
 40
25.0
100
AcDbArc
 50
44.403225
 51
92.173772
  0
ARC
  5
8F
100
AcDbEntity
  8
3
  6
CONTINUOUS
 62
   214
100
AcDbCircle
 10
106.972261
 20
231.808538
 30
0.0
 40
25.0
100
AcDbArc
 50
-75.596775
 51
-27.826228
  0
ARC
  5
90
100
AcDbEntity
  8
3
  6
CONTINUOUS
 62
   214
100
AcDbCircle
 10
105.860126
 20
226.202336
 30
0.0
 40
25.5
100
AcDbArc
 50
0.0
 51
52.906182
  0
ARC
  5
91
100
AcDbEntity
  8
3
  6
CONTINUOUS
 62
   214
100
AcDbCircle
 10
121.186116
 20
250.230737
 30
0.0
 40
4.0
100
AcDbArc
 50
57.469124
 51
148.0
  0
ARC
  5
92
100
AcDbEntity
  8
3
  6
CONTINUOUS
 62
   214
100
AcDbCircle
 10
105.860126
 20
226.202336
 30
0.0
 40
32.5
100
AcDbArc
 50
22.862781
 51
57.469124
  0
LINE
  5
93
100
AcDbEntity
  8
3
  6
CONTINUOUS
 62
   214
100
AcDbLine
 10
121.239735
 20
246.542385
 30
0.0
 11
118.310419
 21
241.854499
 31
0.0
  0
LINE
  5
94
100
AcDbEntity
  8
3
  6
CONTINUOUS
 62
   214
100
AcDbLine
 10
117.793923
 20
252.350414
 30
0.0
 11
115.121486
 21
248.073619
 31
0.0
  0
LINE
  5
95
100
AcDbEntity
  8
3
  6
CONTINUOUS
 62
   214
100
AcDbLine
 10
115.241561
 20
245.782458
 30
0.0
 11
118.310419
 21
241.854499
 31
0.0
  0
ARC
  5
96
100
AcDbEntity
  8
3
  6
CONTINUOUS
 62
   214
100
AcDbCircle
 10
116.817582
 20
247.013781
 30
0.0
 40
2.0
100
AcDbArc
 50
148.0
 51
-141.999999
  0
LINE
  5
97
100
AcDbEntity
  8
3
  6
CONTINUOUS
 62
   214
100
AcDbLine
 10
107.817633
 20
198.963577
 30
0.0
 11
102.213785
 21
200.257327
 31
0.0
  0
ARC
  5
98
100
AcDbEntity
  8
3
  6
CONTINUOUS
 62
   214
100
AcDbCircle
 10
98.36012
 20
226.202338
 30
0.0
 40
33.0
100
AcDbArc
 50
-44.530551
 51
0.0
  0
ARC
  5
99
100
AcDbEntity
  8
3
  6
CONTINUOUS
 62
   214
100
AcDbCircle
 10
111.191899
 20
213.579128
 30
0.0
 40
15.0
100
AcDbArc
 50
-103.000001
 51
-44.530551
  0
LINE
  5
9A
100
AcDbEntity
  8
3
  6
CONTINUOUS
 62
   214
100
AcDbLine
 10
132.461433
 20
209.823228
 30
0.0
 11
131.484605
 21
207.521966
 31
0.0
  0
LINE
  5
9B
100
AcDbEntity
  8
3
  6
CONTINUOUS
 62
   214
100
AcDbLine
 10
131.484605
 20
207.521966
 30
0.0
 11
138.848687
 21
204.396099
 31
0.0
  0
LINE
  5
9C
100
AcDbEntity
  8
3
  6
CONTINUOUS
 62
   214
100
AcDbLine
 10
138.848687
 20
204.396099
 30
0.0
 11
139.825514
 21
206.697361
 31
0.0
  0
LINE
  5
9D
100
AcDbEntity
  8
3
  6
CONTINUOUS
 62
   214
100
AcDbLine
 10
139.825514
 20
206.697361
 30
0.0
 11
132.461433
 21
209.823228
 31
0.0
  0
LINE
  5
9E
100
AcDbEntity
  8
3
  6
CONTINUOUS
 62
   214
100
AcDbLine
 10
135.806861
 20
238.829414
 30
0.0
 11
149.928035
 21
205.339238
 31
0.0
  0
ARC
  5
9F
100
AcDbEntity
  8
3
  6
CONTINUOUS
 62
   214
100
AcDbCircle
 10
144.860126
 20
203.202348
 30
0.0
 40
5.5
100
AcDbArc
 50
-78.999974
 51
22.862781
  0
LINE
  5
A0
100
AcDbEntity
  8
3
  6
CONTINUOUS
 62
   214
100
AcDbLine
 10
102.213785
 20
200.257327
 30
0.0
 11
103.003884
 21
193.822485
 31
0.0
  0
LINE
  5
A1
100
AcDbEntity
  8
3
  6
CONTINUOUS
 62
   214
100
AcDbLine
 10
145.909579
 20
197.803392
 30
0.0
 11
107.737304
 21
190.383454
 31
0.0
  0
ARC
  5
A2
100
AcDbEntity
  8
3
  6
CONTINUOUS
 62
   214
100
AcDbCircle
 10
106.974068
 20
194.309963
 30
0.0
 40
4.0
100
AcDbArc
 50
-173.0
 51
-79.0
  0
TEXT
  5
A3
100
AcDbEntity
  8
3
  6
CONTINUOUS
 62
   214
100
AcDbText
 10
135.184554
 20
198.924261
 30
0.0
 40
5.0
  1
弱
 50
67.0
 41
0.833333
 11
135.184554
 21
198.924261
 31
0.0
100
AcDbText
 73
     1
  0
ARC
  5
A4
100
AcDbEntity
  8
3
  6
CONTINUOUS
 62
   214
100
AcDbCircle
 10
140.86006
 20
191.20235
 30
0.0
 40
5.5
100
AcDbArc
 50
112.668895
 51
91.349846
  0
LINE
  5
A5
100
AcDbEntity
  8
3
  6
CONTINUOUS
 62
   214
100
AcDbLine
 10
150.360157
 20
110.90235
 30
0.0
 11
150.360157
 21
108.60235
 31
0.0
  0
LINE
  5
A6
100
AcDbEntity
  8
3
  6
CONTINUOUS
 62
   214
100
AcDbLine
 10
146.373335
 20
325.90235
 30
0.0
 11
150.360157
 21
325.90235
 31
0.0
  0
LINE
  5
A7
100
AcDbEntity
  8
3
  6
CONTINUOUS
 62
   214
100
AcDbLine
 10
150.360157
 20
325.90235
 30
0.0
 11
150.360157
 21
328.20235
 31
0.0
  0
LINE
  5
A8
100
AcDbEntity
  8
3
  6
CENTER
 62
   214
100
AcDbLine
 10
125.641033
 20
211.355175
 30
0.0
 11
149.467587
 21
201.247846
 31
0.0
  0
LINE
  5
A9
100
AcDbEntity
  8
3
  6
CONTINUOUS
 62
   214
100
AcDbLine
 10
188.86006
 20
93.40235
 30
0.0
 11
188.86006
 21
89.40235
 31
0.0
  0
LINE
  5
AA
100
AcDbEntity
  8
3
  6
CONTINUOUS
 62
   214
100
AcDbLine
 10
180.86006
 20
96.40235
 30
0.0
 11
180.86006
 21
86.40235
 31
0.0
  0
LINE
  5
AB
100
AcDbEntity
  8
3
  6
CONTINUOUS
 62
   214
100
AcDbLine
 10
176.86006
 20
96.40235
 30
0.0
 11
176.86006
 21
86.40235
 31
0.0
  0
LINE
  5
AC
100
AcDbEntity
  8
3
  6
CONTINUOUS
 62
   214
100
AcDbLine
 10
188.86006
 20
191.70235
 30
0.0
 11
188.86006
 21
184.70235
 31
0.0
  0
LINE
  5
AD
100
AcDbEntity
  8
3
  6
CONTINUOUS
 62
   214
100
AcDbLine
 10
180.86006
 20
193.20235
 30
0.0
 11
180.86006
 21
183.20235
 31
0.0
  0
LINE
  5
AE
100
AcDbEntity
  8
3
  6
CONTINUOUS
 62
   214
100
AcDbLine
 10
176.86006
 20
193.20235
 30
0.0
 11
176.86006
 21
183.20235
 31
0.0
  0
LINE
  5
AF
100
AcDbEntity
  8
3
  6
CONTINUOUS
 62
   214
100
AcDbLine
 10
188.86006
 20
191.70235
 30
0.0
 11
180.86006
 21
191.70235
 31
0.0
  0
LINE
  5
B0
100
AcDbEntity
  8
3
  6
CONTINUOUS
 62
   214
100
AcDbLine
 10
180.86006
 20
193.20235
 30
0.0
 11
176.86006
 21
193.20235
 31
0.0
  0
LINE
  5
B1
100
AcDbEntity
  8
3
  6
CONTINUOUS
 62
   214
100
AcDbLine
 10
188.86006
 20
184.70235
 30
0.0
 11
180.86006
 21
184.70235
 31
0.0
  0
LINE
  5
B2
100
AcDbEntity
  8
3
  6
CONTINUOUS
 62
   214
100
AcDbLine
 10
180.86006
 20
183.20235
 30
0.0
 11
176.86006
 21
183.20235
 31
0.0
  0
LINE
  5
B3
100
AcDbEntity
  8
3
  6
CONTINUOUS
 62
   214
100
AcDbLine
 10
180.86006
 20
86.40235
 30
0.0
 11
176.86006
 21
86.40235
 31
0.0
  0
LINE
  5
B4
100
AcDbEntity
  8
3
  6
CONTINUOUS
 62
   214
100
AcDbLine
 10
180.86006
 20
96.40235
 30
0.0
 11
176.86006
 21
96.40235
 31
0.0
  0
ARC
  5
B5
100
AcDbEntity
  8
3
  6
CONTINUOUS
 62
   214
100
AcDbCircle
 10
182.86006
 20
95.40235
 30
0.0
 40
2.0
100
AcDbArc
 50
180.0
 51
-90.0
  0
LINE
  5
B6
100
AcDbEntity
  8
3
  6
CONTINUOUS
 62
   214
100
AcDbLine
 10
188.86006
 20
93.40235
 30
0.0
 11
182.86006
 21
93.40235
 31
0.0
  0
ARC
  5
B7
100
AcDbEntity
  8
3
  6
CONTINUOUS
 62
   214
100
AcDbCircle
 10
182.86006
 20
87.40235
 30
0.0
 40
2.0
100
AcDbArc
 50
90.0
 51
180.0
  0
LINE
  5
B8
100
AcDbEntity
  8
3
  6
CONTINUOUS
 62
   214
100
AcDbLine
 10
188.86006
 20
89.40235
 30
0.0
 11
182.86006
 21
89.40235
 31
0.0
  0
LINE
  5
B9
100
AcDbEntity
  8
3
  6
CONTINUOUS
 62
   214
100
AcDbLine
 10
47.86006
 20
359.60235
 30
0.0
 11
47.86006
 21
331.20235
 31
0.0
  0
LINE
  5
BA
100
AcDbEntity
  8
3
  6
CONTINUOUS
 62
   214
100
AcDbLine
 10
222.86006
 20
180.20235
 30
0.0
 11
257.26006
 21
180.20235
 31
0.0
  0
LINE
  5
BB
100
AcDbEntity
  8
3
  6
CONTINUOUS
 62
   214
100
AcDbLine
 10
150.66006
 20
108.60235
 30
0.0
 11
150.66006
 21
74.20235
 31
0.0
  0
LINE
  5
BC
100
AcDbEntity
  8
3
  6
CONTINUOUS
 62
   214
100
AcDbLine
 10
61.06006
 20
108.60235
 30
0.0
 11
61.06006
 21
74.20235
 31
0.0
  0
LINE
  5
BD
100
AcDbEntity
  8
3
  6
CONTINUOUS
 62
   214
100
AcDbLine
 10
163.86006
 20
105.60235
 30
0.0
 11
163.86006
 21
91.90235
 31
0.0
  0
LINE
  5
BE
100
AcDbEntity
  8
3
  6
CONTINUOUS
 62
   214
100
AcDbLine
 10
146.373335
 20
325.90235
 30
0.0
 11
149.56006
 21
325.90235
 31
0.0
  0
LINE
  5
BF
100
AcDbEntity
  8
3
  6
CONTINUOUS
 62
   214
100
AcDbLine
 10
140.16006
 20
325.90235
 30
0.0
 11
143.346786
 21
325.90235
 31
0.0
  0
LINE
  5
C0
100
AcDbEntity
  8
3
  6
CONTINUOUS
 62
   214
100
AcDbLine
 10
148.36006
 20
328.20235
 30
0.0
 11
141.36006
 21
328.20235
 31
0.0
  0
LINE
  5
C1
100
AcDbEntity
  8
3
  6
CONTINUOUS
 62
   214
100
AcDbLine
 10
141.36006
 20
327.971797
 30
0.0
 11
141.36006
 21
328.20235
 31
0.0
  0
ARC
  5
C2
100
AcDbEntity
  8
3
  6
CONTINUOUS
 62
   214
100
AcDbCircle
 10
144.86006
 20
329.569017
 30
0.0
 40
3.966667
100
AcDbArc
 50
-147.425982
 51
-95.787563
  0
ARC
  5
C3
100
AcDbEntity
  8
3
  6
CONTINUOUS
 62
   214
100
AcDbCircle
 10
142.36006
 20
327.971797
 30
0.0
 40
1.0
100
AcDbArc
 50
-180.0
 51
-147.425982
  0
ARC
  5
C4
100
AcDbEntity
  8
3
  6
CONTINUOUS
 62
   214
100
AcDbCircle
 10
144.86006
 20
329.569017
 30
0.0
 40
3.966667
100
AcDbArc
 50
-84.212437
 51
-32.574018
  0
LINE
  5
C5
100
AcDbEntity
  8
3
  6
CONTINUOUS
 62
   214
100
AcDbLine
 10
148.36006
 20
327.971797
 30
0.0
 11
148.36006
 21
328.20235
 31
0.0
  0
ARC
  5
C6
100
AcDbEntity
  8
3
  6
CONTINUOUS
 62
   214
100
AcDbCircle
 10
147.36006
 20
327.971797
 30
0.0
 40
1.0
100
AcDbArc
 50
-32.574018
 51
0.0
  0
LINE
  5
C7
100
AcDbEntity
  8
3
  6
CONTINUOUS
 62
   214
100
AcDbLine
 10
144.46006
 20
325.90235
 30
0.0
 11
144.86006
 21
325.90235
 31
0.0
  0
LINE
  5
C8
100
AcDbEntity
  8
3
  6
CONTINUOUS
 62
   214
100
AcDbLine
 10
145.26006
 20
325.90235
 30
0.0
 11
144.86006
 21
325.90235
 31
0.0
  0
LINE
  5
C9
100
AcDbEntity
  8
3
  6
CONTINUOUS
 62
   214
100
AcDbLine
 10
145.26006
 20
325.62257
 30
0.0
 11
145.26006
 21
325.90235
 31
0.0
  0
LINE
  5
CA
100
AcDbEntity
  8
3
  6
CONTINUOUS
 62
   214
100
AcDbLine
 10
144.46006
 20
325.62257
 30
0.0
 11
144.46006
 21
325.90235
 31
0.0
  0
LINE
  5
CB
100
AcDbEntity
  8
3
  6
CENTER
 62
   214
100
AcDbLine
 10
155.86006
 20
188.20235
 30
0.0
 11
141.86006
 21
188.20235
 31
0.0
  0
LINE
  5
CC
100
AcDbEntity
  8
3
  6
CENTER
 62
   214
100
AcDbLine
 10
143.86006
 20
275.507914
 30
0.0
 11
143.86006
 21
262.20235
 31
0.0
  0
LINE
  5
CD
100
AcDbEntity
  8
3
  6
CENTER
 62
   214
100
AcDbLine
 10
67.86006
 20
276.20235
 30
0.0
 11
67.86006
 21
262.20235
 31
0.0
  0
LINE
  5
CE
100
AcDbEntity
  8
3
  6
PHANTOM
 62
   214
100
AcDbLine
 10
59.86006
 20
330.20235
 30
0.0
 11
59.86006
 21
328.20235
 31
0.0
  0
LINE
  5
CF
100
AcDbEntity
  8
3
  6
PHANTOM
 62
   214
100
AcDbLine
 10
59.86006
 20
362.60235
 30
0.0
 11
59.86006
 21
360.60235
 31
0.0
  0
LINE
  5
D0
100
AcDbEntity
  8
3
  6
PHANTOM
 62
   214
100
AcDbLine
 10
59.86006
 20
328.20235
 30
0.0
 11
61.06006
 21
328.20235
 31
0.0
  0
LINE
  5
D1
100
AcDbEntity
  8
3
  6
PHANTOM
 62
   214
100
AcDbLine
 10
61.06006
 20
362.60235
 30
0.0
 11
59.86006
 21
362.60235
 31
0.0
  0
LINE
  5
D2
100
AcDbEntity
  8
3
  6
PHANTOM
 62
   214
100
AcDbLine
 10
59.86006
 20
74.20235
 30
0.0
 11
61.06006
 21
74.20235
 31
0.0
  0
LINE
  5
D3
100
AcDbEntity
  8
3
  6
PHANTOM
 62
   214
100
AcDbLine
 10
59.86006
 20
108.60235
 30
0.0
 11
59.86006
 21
74.20235
 31
0.0
  0
LINE
  5
D4
100
AcDbEntity
  8
3
  6
PHANTOM
 62
   214
100
AcDbLine
 10
61.06006
 20
108.60235
 30
0.0
 11
59.86006
 21
108.60235
 31
0.0
  0
LINE
  5
D5
100
AcDbEntity
  8
3
  6
CONTINUOUS
 62
   214
100
AcDbLine
 10
163.86006
 20
90.90235
 30
0.0
 11
163.86006
 21
77.20235
 31
0.0
  0
LINE
  5
D6
100
AcDbEntity
  8
3
  6
CENTER
 62
   214
100
AcDbLine
 10
144.86006
 20
115.621849
 30
0.0
 11
144.86006
 21
103.60235
 31
0.0
  0
LINE
  5
D7
100
AcDbEntity
  8
3
  6
CONTINUOUS
 62
   214
100
AcDbLine
 10
149.56006
 20
110.90235
 30
0.0
 11
140.16006
 21
110.90235
 31
0.0
  0
LINE
  5
D8
100
AcDbEntity
  8
3
  6
CONTINUOUS
 62
   214
100
AcDbLine
 10
149.56006
 20
111.190794
 30
0.0
 11
140.16006
 21
111.190794
 31
0.0
  0
LINE
  5
D9
100
AcDbEntity
  8
3
  6
CONTINUOUS
 62
   214
100
AcDbLine
 10
140.16006
 20
111.190794
 30
0.0
 11
140.16006
 21
110.90235
 31
0.0
  0
LINE
  5
DA
100
AcDbEntity
  8
3
  6
CONTINUOUS
 62
   214
100
AcDbLine
 10
149.56006
 20
111.190794
 30
0.0
 11
149.56006
 21
110.90235
 31
0.0
  0
ARC
  5
DB
100
AcDbEntity
  8
3
  6
CONTINUOUS
 62
   214
100
AcDbCircle
 10
144.86006
 20
107.30235
 30
0.0
 40
6.1
100
AcDbArc
 50
39.601927
 51
90.0
  0
ARC
  5
DC
100
AcDbEntity
  8
3
  6
CONTINUOUS
 62
   214
100
AcDbCircle
 10
144.86006
 20
107.30235
 30
0.0
 40
6.1
100
AcDbArc
 50
90.0
 51
140.398073
  0
LINE
  5
DD
100
AcDbEntity
  8
3
  6
CONTINUOUS
 62
   214
100
AcDbLine
 10
106.86006
 20
112.90235
 30
0.0
 11
106.86006
 21
111.90235
 31
0.0
  0
LINE
  5
DE
100
AcDbEntity
  8
3
  6
CONTINUOUS
 62
   214
100
AcDbLine
 10
104.86006
 20
112.90235
 30
0.0
 11
104.86006
 21
111.90235
 31
0.0
  0
LINE
  5
DF
100
AcDbEntity
  8
3
  6
CONTINUOUS
 62
   214
100
AcDbLine
 10
104.86006
 20
112.90235
 30
0.0
 11
99.86006
 21
112.90235
 31
0.0
  0
LINE
  5
E0
100
AcDbEntity
  8
3
  6
CONTINUOUS
 62
   214
100
AcDbLine
 10
111.86006
 20
112.90235
 30
0.0
 11
106.86006
 21
112.90235
 31
0.0
  0
LINE
  5
E1
100
AcDbEntity
  8
3
  6
CONTINUOUS
 62
   214
100
AcDbLine
 10
111.86006
 20
111.90235
 30
0.0
 11
111.86006
 21
112.90235
 31
0.0
  0
LINE
  5
E2
100
AcDbEntity
  8
3
  6
CONTINUOUS
 62
   214
100
AcDbLine
 10
112.86006
 20
110.90235
 30
0.0
 11
112.86006
 21
111.90235
 31
0.0
  0
LINE
  5
E3
100
AcDbEntity
  8
3
  6
CONTINUOUS
 62
   214
100
AcDbLine
 10
98.86006
 20
111.90235
 30
0.0
 11
98.86006
 21
110.90235
 31
0.0
  0
LINE
  5
E4
100
AcDbEntity
  8
3
  6
CONTINUOUS
 62
   214
100
AcDbLine
 10
99.86006
 20
112.90235
 30
0.0
 11
99.86006
 21
111.90235
 31
0.0
  0
LINE
  5
E5
100
AcDbEntity
  8
3
  6
CONTINUOUS
 62
   214
100
AcDbLine
 10
112.86006
 20
111.90235
 30
0.0
 11
98.86006
 21
111.90235
 31
0.0
  0
LINE
  5
E6
100
AcDbEntity
  8
3
  6
CONTINUOUS
 62
   214
100
AcDbLine
 10
151.86006
 20
106.60235
 30
0.0
 11
162.86006
 21
106.60235
 31
0.0
  0
LINE
  5
E7
100
AcDbEntity
  8
3
  6
CONTINUOUS
 62
   214
100
AcDbLine
 10
151.86006
 20
76.20235
 30
0.0
 11
162.86006
 21
76.20235
 31
0.0
  0
LINE
  5
E8
100
AcDbEntity
  8
3
  6
CONTINUOUS
 62
   214
100
AcDbLine
 10
150.66006
 20
108.60235
 30
0.0
 11
151.86006
 21
108.60235
 31
0.0
  0
LINE
  5
E9
100
AcDbEntity
  8
3
  6
CONTINUOUS
 62
   214
100
AcDbLine
 10
151.86006
 20
108.60235
 30
0.0
 11
151.86006
 21
74.20235
 31
0.0
  0
LINE
  5
EA
100
AcDbEntity
  8
3
  6
CONTINUOUS
 62
   214
100
AcDbLine
 10
151.86006
 20
74.20235
 30
0.0
 11
150.66006
 21
74.20235
 31
0.0
  0
ARC
  5
EB
100
AcDbEntity
  8
3
  6
CONTINUOUS
 62
   214
100
AcDbCircle
 10
151.86006
 20
99.80235
 30
0.0
 40
1.0
100
AcDbArc
 50
0.0
 51
90.0
  0
ARC
  5
EC
100
AcDbEntity
  8
3
  6
CONTINUOUS
 62
   214
100
AcDbCircle
 10
151.86006
 20
83.00235
 30
0.0
 40
1.0
100
AcDbArc
 50
-90.0
 51
0.0
  0
LINE
  5
ED
100
AcDbEntity
  8
3
  6
CONTINUOUS
 62
   214
100
AcDbLine
 10
152.86006
 20
83.00235
 30
0.0
 11
152.86006
 21
99.80235
 31
0.0
  0
LINE
  5
EE
100
AcDbEntity
  8
3
  6
CONTINUOUS
 62
   214
100
AcDbLine
 10
176.86006
 20
90.90235
 30
0.0
 11
152.86006
 21
90.90235
 31
0.0
  0
LINE
  5
EF
100
AcDbEntity
  8
3
  6
CONTINUOUS
 62
   214
100
AcDbLine
 10
176.86006
 20
91.90235
 30
0.0
 11
152.86006
 21
91.90235
 31
0.0
  0
LINE
  5
F0
100
AcDbEntity
  8
3
  6
CENTER
 62
   214
100
AcDbLine
 10
197.86006
 20
93.90235
 30
0.0
 11
197.86006
 21
88.90235
 31
0.0
  0
LINE
  5
F1
100
AcDbEntity
  8
3
  6
CONTINUOUS
 62
   214
100
AcDbLine
 10
200.36006
 20
90.90235
 30
0.0
 11
188.86006
 21
90.90235
 31
0.0
  0
LINE
  5
F2
100
AcDbEntity
  8
3
  6
CONTINUOUS
 62
   214
100
AcDbLine
 10
200.36006
 20
91.90235
 30
0.0
 11
188.86006
 21
91.90235
 31
0.0
  0
ARC
  5
F3
100
AcDbEntity
  8
3
  6
CONTINUOUS
 62
   214
100
AcDbCircle
 10
200.36006
 20
91.40235
 30
0.0
 40
0.5
100
AcDbArc
 50
-90.0
 51
90.0
  0
LINE
  5
F4
100
AcDbEntity
  8
3
  6
CONTINUOUS
 62
   214
100
AcDbLine
 10
149.86006
 20
94.80235
 30
0.0
 11
149.86006
 21
88.00235
 31
0.0
  0
LINE
  5
F5
100
AcDbEntity
  8
3
  6
CONTINUOUS
 62
   214
100
AcDbLine
 10
137.86006
 20
94.80235
 30
0.0
 11
137.86006
 21
88.00235
 31
0.0
  0
ARC
  5
F6
100
AcDbEntity
  8
3
  6
CONTINUOUS
 62
   214
100
AcDbCircle
 10
143.86006
 20
88.00235
 30
0.0
 40
6.0
100
AcDbArc
 50
180.0
 51
0.0
  0
ARC
  5
F7
100
AcDbEntity
  8
3
  6
CONTINUOUS
 62
   214
100
AcDbCircle
 10
143.86006
 20
94.80235
 30
0.0
 40
6.0
100
AcDbArc
 50
0.0
 51
180.0
  0
LINE
  5
F8
100
AcDbEntity
  8
3
  6
CONTINUOUS
 62
   214
100
AcDbLine
 10
146.46006
 20
94.80235
 30
0.0
 11
146.46006
 21
88.00235
 31
0.0
  0
LINE
  5
F9
100
AcDbEntity
  8
3
  6
CONTINUOUS
 62
   214
100
AcDbLine
 10
141.26006
 20
94.80235
 30
0.0
 11
141.26006
 21
88.00235
 31
0.0
  0
ARC
  5
FA
100
AcDbEntity
  8
3
  6
CONTINUOUS
 62
   214
100
AcDbCircle
 10
143.86006
 20
88.00235
 30
0.0
 40
2.6
100
AcDbArc
 50
180.0
 51
0.0
  0
ARC
  5
FB
100
AcDbEntity
  8
3
  6
CONTINUOUS
 62
   214
100
AcDbCircle
 10
143.86006
 20
94.80235
 30
0.0
 40
2.6
100
AcDbArc
 50
0.0
 51
180.0
  0
LINE
  5
FC
100
AcDbEntity
  8
3
  6
CENTER
 62
   214
100
AcDbLine
 10
70.86006
 20
111.212649
 30
0.0
 11
70.86006
 21
104.20235
 31
0.0
  0
LINE
  5
FD
100
AcDbEntity
  8
3
  6
CENTER
 62
   214
100
AcDbLine
 10
70.86006
 20
111.212649
 30
0.0
 11
70.86006
 21
104.20235
 31
0.0
  0
LINE
  5
FE
100
AcDbEntity
  8
3
  6
CENTER
 62
   214
100
AcDbLine
 10
140.86006
 20
111.212649
 30
0.0
 11
140.86006
 21
104.20235
 31
0.0
  0
LINE
  5
FF
100
AcDbEntity
  8
3
  6
CENTER
 62
   214
100
AcDbLine
 10
140.86006
 20
111.212649
 30
0.0
 11
140.86006
 21
104.20235
 31
0.0
  0
LINE
  5
100
100
AcDbEntity
  8
3
  6
CONTINUOUS
 62
   214
100
AcDbLine
 10
61.06006
 20
74.20235
 30
0.0
 11
150.66006
 21
74.20235
 31
0.0
  0
LINE
  5
101
100
AcDbEntity
  8
3
  6
CONTINUOUS
 62
   214
100
AcDbLine
 10
61.06006
 20
108.60235
 30
0.0
 11
150.66006
 21
108.60235
 31
0.0
  0
LINE
  5
102
100
AcDbEntity
  8
3
  6
CENTER
 62
   214
100
AcDbLine
 10
140.86006
 20
71.592052
 30
0.0
 11
140.86006
 21
78.60235
 31
0.0
  0
LINE
  5
103
100
AcDbEntity
  8
3
  6
CENTER
 62
   214
100
AcDbLine
 10
140.86006
 20
71.592052
 30
0.0
 11
140.86006
 21
78.60235
 31
0.0
  0
LINE
  5
104
100
AcDbEntity
  8
3
  6
CENTER
 62
   214
100
AcDbLine
 10
70.86006
 20
71.592052
 30
0.0
 11
70.86006
 21
78.60235
 31
0.0
  0
LINE
  5
105
100
AcDbEntity
  8
3
  6
CENTER
 62
   214
100
AcDbLine
 10
70.86006
 20
71.592052
 30
0.0
 11
70.86006
 21
78.60235
 31
0.0
  0
LINE
  5
106
100
AcDbEntity
  8
3
  6
CENTER
 62
   214
100
AcDbLine
 10
66.86006
 20
111.212649
 30
0.0
 11
66.86006
 21
104.20235
 31
0.0
  0
LINE
  5
107
100
AcDbEntity
  8
3
  6
CONTINUOUS
 62
   214
100
AcDbLine
 10
61.06006
 20
76.20235
 30
0.0
 11
48.86006
 21
76.20235
 31
0.0
  0
LINE
  5
108
100
AcDbEntity
  8
3
  6
CONTINUOUS
 62
   214
100
AcDbLine
 10
61.06006
 20
106.60235
 30
0.0
 11
48.86006
 21
106.60235
 31
0.0
  0
LINE
  5
109
100
AcDbEntity
  8
3
  6
CONTINUOUS
 62
   214
100
AcDbLine
 10
47.86006
 20
105.60235
 30
0.0
 11
47.86006
 21
77.20235
 31
0.0
  0
LINE
  5
10A
100
AcDbEntity
  8
3
  6
CONTINUOUS
 62
   214
100
AcDbLine
 10
47.86006
 20
105.60235
 30
0.0
 11
48.46006
 21
106.20235
 31
0.0
  0
ARC
  5
10B
100
AcDbEntity
  8
3
  6
CONTINUOUS
 62
   214
100
AcDbCircle
 10
53.86006
 20
82.40235
 30
0.0
 40
2.75
100
AcDbArc
 50
35.578526
 51
144.421474
  0
ARC
  5
10C
100
AcDbEntity
  8
3
  6
CONTINUOUS
 62
   214
100
AcDbCircle
 10
53.86006
 20
100.40235
 30
0.0
 40
2.75
100
AcDbArc
 50
-25.872096
 51
-38.183482
  0
ARC
  5
10D
100
AcDbEntity
  8
3
  6
CONTINUOUS
 62
   214
100
AcDbCircle
 10
53.86006
 20
82.40235
 30
0.0
 40
2.75
100
AcDbArc
 50
144.421474
 51
35.578526
  0
ARC
  5
10E
100
AcDbEntity
  8
3
  6
CONTINUOUS
 62
   214
100
AcDbCircle
 10
53.86006
 20
100.40235
 30
0.0
 40
2.75
100
AcDbArc
 50
-38.183482
 51
-25.872096
  0
LINE
  5
10F
100
AcDbEntity
  8
3
  6
CONTINUOUS
 62
   214
100
AcDbLine
 10
48.46006
 20
106.20235
 30
0.0
 11
48.86006
 21
106.60235
 31
0.0
  0
LINE
  5
110
100
AcDbEntity
  8
3
  6
CONTINUOUS
 62
   214
100
AcDbLine
 10
73.86006
 20
94.80235
 30
0.0
 11
73.86006
 21
88.00235
 31
0.0
  0
LINE
  5
111
100
AcDbEntity
  8
3
  6
CONTINUOUS
 62
   214
100
AcDbLine
 10
61.86006
 20
94.80235
 30
0.0
 11
61.86006
 21
88.00235
 31
0.0
  0
ARC
  5
112
100
AcDbEntity
  8
3
  6
CONTINUOUS
 62
   214
100
AcDbCircle
 10
67.86006
 20
88.00235
 30
0.0
 40
6.0
100
AcDbArc
 50
180.0
 51
0.0
  0
ARC
  5
113
100
AcDbEntity
  8
3
  6
CONTINUOUS
 62
   214
100
AcDbCircle
 10
67.86006
 20
94.80235
 30
0.0
 40
6.0
100
AcDbArc
 50
0.0
 51
180.0
  0
LINE
  5
114
100
AcDbEntity
  8
3
  6
CONTINUOUS
 62
   214
100
AcDbLine
 10
70.46006
 20
94.80235
 30
0.0
 11
70.46006
 21
88.00235
 31
0.0
  0
LINE
  5
115
100
AcDbEntity
  8
3
  6
CONTINUOUS
 62
   214
100
AcDbLine
 10
65.26006
 20
94.80235
 30
0.0
 11
65.26006
 21
88.00235
 31
0.0
  0
ARC
  5
116
100
AcDbEntity
  8
3
  6
CONTINUOUS
 62
   214
100
AcDbCircle
 10
67.86006
 20
88.00235
 30
0.0
 40
2.6
100
AcDbArc
 50
180.0
 51
0.0
  0
ARC
  5
117
100
AcDbEntity
  8
3
  6
CONTINUOUS
 62
   214
100
AcDbCircle
 10
67.86006
 20
94.80235
 30
0.0
 40
2.6
100
AcDbArc
 50
0.0
 51
180.0
  0
CIRCLE
  5
118
100
AcDbEntity
  8
3
  6
CONTINUOUS
 62
   214
100
AcDbCircle
 10
157.86006
 20
82.40235
 30
0.0
 40
2.75
  0
CIRCLE
  5
119
100
AcDbEntity
  8
3
  6
CONTINUOUS
 62
   214
100
AcDbCircle
 10
157.86006
 20
100.40235
 30
0.0
 40
2.75
  0
LINE
  5
11A
100
AcDbEntity
  8
3
  6
CONTINUOUS
 62
   214
100
AcDbLine
 10
163.86006
 20
77.20235
 30
0.0
 11
162.86006
 21
76.20235
 31
0.0
  0
LINE
  5
11B
100
AcDbEntity
  8
3
  6
CONTINUOUS
 62
   214
100
AcDbLine
 10
163.86006
 20
105.60235
 30
0.0
 11
162.86006
 21
106.60235
 31
0.0
  0
LINE
  5
11C
100
AcDbEntity
  8
3
  6
CONTINUOUS
 62
   214
100
AcDbLine
 10
47.86006
 20
77.20235
 30
0.0
 11
48.86006
 21
76.20235
 31
0.0
  0
LINE
  5
11D
100
AcDbEntity
  8
3
  6
CENTER
 62
   214
100
AcDbLine
 10
105.86006
 20
71.20235
 30
0.0
 11
105.86006
 21
112.867343
 31
0.0
  0
LINE
  5
11E
100
AcDbEntity
  8
3
  6
CENTER
 62
   214
100
AcDbLine
 10
59.36006
 20
88.00235
 30
0.0
 11
76.86006
 21
88.00235
 31
0.0
  0
LINE
  5
11F
100
AcDbEntity
  8
3
  6
CENTER
 62
   214
100
AcDbLine
 10
59.36006
 20
94.80235
 30
0.0
 11
76.86006
 21
94.80235
 31
0.0
  0
LINE
  5
120
100
AcDbEntity
  8
3
  6
CENTER
 62
   214
100
AcDbLine
 10
152.36006
 20
88.00235
 30
0.0
 11
134.86006
 21
88.00235
 31
0.0
  0
LINE
  5
121
100
AcDbEntity
  8
3
  6
CENTER
 62
   214
100
AcDbLine
 10
152.36006
 20
94.80235
 30
0.0
 11
134.86006
 21
94.80235
 31
0.0
  0
LINE
  5
122
100
AcDbEntity
  8
3
  6
CENTER
 62
   214
100
AcDbLine
 10
143.86006
 20
103.802094
 30
0.0
 11
143.86006
 21
79.00235
 31
0.0
  0
LINE
  5
123
100
AcDbEntity
  8
3
  6
CENTER
 62
   214
100
AcDbLine
 10
67.86006
 20
103.802094
 30
0.0
 11
67.86006
 21
79.00235
 31
0.0
  0
LINE
  5
124
100
AcDbEntity
  8
3
  6
CENTER
 62
   214
100
AcDbLine
 10
66.86006
 20
113.20235
 30
0.0
 11
66.86006
 21
104.20235
 31
0.0
  0
LINE
  5
125
100
AcDbEntity
  8
3
  6
CENTER
 62
   214
100
AcDbLine
 10
162.86006
 20
82.40235
 30
0.0
 11
152.86006
 21
82.40235
 31
0.0
  0
LINE
  5
126
100
AcDbEntity
  8
3
  6
CENTER
 62
   214
100
AcDbLine
 10
157.86006
 20
87.40235
 30
0.0
 11
157.86006
 21
77.40235
 31
0.0
  0
LINE
  5
127
100
AcDbEntity
  8
3
  6
CENTER
 62
   214
100
AcDbLine
 10
162.86006
 20
100.40235
 30
0.0
 11
152.86006
 21
100.40235
 31
0.0
  0
LINE
  5
128
100
AcDbEntity
  8
3
  6
CENTER
 62
   214
100
AcDbLine
 10
157.86006
 20
95.40235
 30
0.0
 11
157.86006
 21
105.40235
 31
0.0
  0
LINE
  5
129
100
AcDbEntity
  8
3
  6
CENTER
 62
   214
100
AcDbLine
 10
48.86006
 20
82.40235
 30
0.0
 11
58.86006
 21
82.40235
 31
0.0
  0
LINE
  5
12A
100
AcDbEntity
  8
3
  6
CENTER
 62
   214
100
AcDbLine
 10
53.86006
 20
87.40235
 30
0.0
 11
53.86006
 21
77.40235
 31
0.0
  0
LINE
  5
12B
100
AcDbEntity
  8
3
  6
CENTER
 62
   214
100
AcDbLine
 10
48.86006
 20
100.40235
 30
0.0
 11
58.86006
 21
100.40235
 31
0.0
  0
LINE
  5
12C
100
AcDbEntity
  8
3
  6
CENTER
 62
   214
100
AcDbLine
 10
53.86006
 20
95.40235
 30
0.0
 11
53.86006
 21
105.40235
 31
0.0
  0
LINE
  5
12D
100
AcDbEntity
  8
3
  6
CONTINUOUS
 62
   214
100
AcDbLine
 10
140.16006
 20
325.613906
 30
0.0
 11
149.56006
 21
325.613906
 31
0.0
  0
LINE
  5
12E
100
AcDbEntity
  8
3
  6
CONTINUOUS
 62
   214
100
AcDbLine
 10
149.56006
 20
325.613906
 30
0.0
 11
149.56006
 21
325.90235
 31
0.0
  0
LINE
  5
12F
100
AcDbEntity
  8
3
  6
CONTINUOUS
 62
   214
100
AcDbLine
 10
140.16006
 20
325.613906
 30
0.0
 11
140.16006
 21
325.90235
 31
0.0
  0
ARC
  5
130
100
AcDbEntity
  8
3
  6
CONTINUOUS
 62
   214
100
AcDbCircle
 10
144.86006
 20
329.50235
 30
0.0
 40
6.1
100
AcDbArc
 50
-140.398073
 51
-90.0
  0
ARC
  5
131
100
AcDbEntity
  8
3
  6
CONTINUOUS
 62
   214
100
AcDbCircle
 10
144.86006
 20
329.50235
 30
0.0
 40
6.1
100
AcDbArc
 50
-90.0
 51
-39.601927
  0
LINE
  5
132
100
AcDbEntity
  8
3
  6
CENTER
 62
   214
100
AcDbLine
 10
144.86006
 20
320.155111
 30
0.0
 11
144.86006
 21
333.20235
 31
0.0
  0
LINE
  5
133
100
AcDbEntity
  8
3
  6
CONTINUOUS
 62
   214
100
AcDbLine
 10
109.828687
 20
324.90235
 30
0.0
 11
109.828687
 21
323.90235
 31
0.0
  0
LINE
  5
134
100
AcDbEntity
  8
3
  6
CONTINUOUS
 62
   214
100
AcDbLine
 10
101.891433
 20
324.90235
 30
0.0
 11
101.891433
 21
323.90235
 31
0.0
  0
LINE
  5
135
100
AcDbEntity
  8
3
  6
CONTINUOUS
 62
   214
100
AcDbLine
 10
99.86006
 20
324.90235
 30
0.0
 11
99.86006
 21
323.90235
 31
0.0
  0
LINE
  5
136
100
AcDbEntity
  8
3
  6
CONTINUOUS
 62
   214
100
AcDbLine
 10
98.86006
 20
325.90235
 30
0.0
 11
98.86006
 21
324.90235
 31
0.0
  0
LINE
  5
137
100
AcDbEntity
  8
3
  6
CONTINUOUS
 62
   214
100
AcDbLine
 10
112.86006
 20
324.90235
 30
0.0
 11
112.86006
 21
325.90235
 31
0.0
  0
LINE
  5
138
100
AcDbEntity
  8
3
  6
CONTINUOUS
 62
   214
100
AcDbLine
 10
111.86006
 20
323.90235
 30
0.0
 11
111.86006
 21
324.90235
 31
0.0
  0
LINE
  5
139
100
AcDbEntity
  8
3
  6
CONTINUOUS
 62
   214
100
AcDbLine
 10
151.86006
 20
328.20235
 30
0.0
 11
151.86006
 21
330.20235
 31
0.0
  0
LINE
  5
13A
100
AcDbEntity
  8
3
  6
CONTINUOUS
 62
   214
100
AcDbLine
 10
150.66006
 20
328.20235
 30
0.0
 11
151.86006
 21
328.20235
 31
0.0
  0
LINE
  5
13B
100
AcDbEntity
  8
3
  6
CONTINUOUS
 62
   214
100
AcDbLine
 10
151.86006
 20
362.60235
 30
0.0
 11
151.86006
 21
360.60235
 31
0.0
  0
LINE
  5
13C
100
AcDbEntity
  8
3
  6
CONTINUOUS
 62
   214
100
AcDbLine
 10
150.66006
 20
362.60235
 30
0.0
 11
151.86006
 21
362.60235
 31
0.0
  0
LINE
  5
13D
100
AcDbEntity
  8
3
  6
PHANTOM
 62
   214
100
AcDbLine
 10
59.86006
 20
181.40235
 30
0.0
 11
61.06006
 21
181.40235
 31
0.0
  0
LINE
  5
13E
100
AcDbEntity
  8
3
  6
PHANTOM
 62
   214
100
AcDbLine
 10
59.86006
 20
271.00235
 30
0.0
 11
59.86006
 21
181.40235
 31
0.0
  0
LINE
  5
13F
100
AcDbEntity
  8
3
  6
CONTINUOUS
 62
   214
100
AcDbLine
 10
143.339785
 20
201.682067
 30
0.0
 11
146.380344
 21
204.722626
 31
0.0
  0
LINE
  5
140
100
AcDbEntity
  8
3
  6
CONTINUOUS
 62
   214
100
AcDbLine
 10
143.339781
 20
204.72263
 30
0.0
 11
146.38034
 21
201.682071
 31
0.0
  0
CIRCLE
  5
141
100
AcDbEntity
  8
3
  6
CONTINUOUS
 62
   214
100
AcDbCircle
 10
144.86006
 20
203.20235
 30
0.0
 40
4.7
  0
ARC
  5
142
100
AcDbEntity
  8
3
  6
CENTER
 62
   214
100
AcDbCircle
 10
105.86006
 20
226.20235
 30
0.0
 40
15.0
100
AcDbArc
 50
68.942032
 51
111.057968
  0
LINE
  5
143
100
AcDbEntity
  8
3
  6
CONTINUOUS
 62
   214
100
AcDbLine
 10
109.828687
 20
230.70235
 30
0.0
 11
101.891433
 21
230.70235
 31
0.0
  0
LINE
  5
144
100
AcDbEntity
  8
3
  6
CONTINUOUS
 62
   214
100
AcDbLine
 10
106.86006
 20
230.70235
 30
0.0
 11
106.86006
 21
220.286271
 31
0.0
  0
LINE
  5
145
100
AcDbEntity
  8
3
  6
CONTINUOUS
 62
   214
100
AcDbLine
 10
104.86006
 20
230.70235
 30
0.0
 11
104.86006
 21
220.286271
 31
0.0
  0
ARC
  5
146
100
AcDbEntity
  8
3
  6
CONTINUOUS
 62
   214
100
AcDbCircle
 10
105.86006
 20
226.20235
 30
0.0
 40
5.55
100
AcDbArc
 50
54.175226
 51
125.824774
  0
ARC
  5
147
100
AcDbEntity
  8
3
  6
CONTINUOUS
 62
   214
100
AcDbCircle
 10
105.86006
 20
226.20235
 30
0.0
 40
5.55
100
AcDbArc
 50
-81.712278
 51
-79.619745
  0
ARC
  5
148
100
AcDbEntity
  8
3
  6
CONTINUOUS
 62
   214
100
AcDbCircle
 10
105.86006
 20
226.20235
 30
0.0
 40
5.55
100
AcDbArc
 50
-100.380255
 51
-98.287722
  0
ARC
  5
149
100
AcDbEntity
  8
3
  6
CONTINUOUS
 62
   214
100
AcDbCircle
 10
105.86006
 20
226.20235
 30
0.0
 40
6.0
100
AcDbArc
 50
-80.405932
 51
48.590378
  0
ARC
  5
14A
100
AcDbEntity
  8
3
  6
CONTINUOUS
 62
   214
100
AcDbCircle
 10
105.86006
 20
226.20235
 30
0.0
 40
6.0
100
AcDbArc
 50
131.409622
 51
-99.594068
  0
LINE
  5
14B
100
AcDbEntity
  8
3
  6
CONTINUOUS
 62
   214
100
AcDbLine
 10
106.66006
 20
220.710311
 30
0.0
 11
106.66006
 21
217.237977
 31
0.0
  0
LINE
  5
14C
100
AcDbEntity
  8
3
  6
CONTINUOUS
 62
   214
100
AcDbLine
 10
105.06006
 20
220.710311
 30
0.0
 11
105.06006
 21
217.237977
 31
0.0
  0
CIRCLE
  5
14D
100
AcDbEntity
  8
3
  6
CONTINUOUS
 62
   214
100
AcDbCircle
 10
108.26006
 20
219.20235
 30
0.0
 40
0.8
  0
CIRCLE
  5
14E
100
AcDbEntity
  8
3
  6
CONTINUOUS
 62
   214
100
AcDbCircle
 10
103.46006
 20
219.20235
 30
0.0
 40
0.8
  0
ARC
  5
14F
100
AcDbEntity
  8
3
  6
CONTINUOUS
 62
   214
100
AcDbCircle
 10
105.86006
 20
226.20235
 30
0.0
 40
9.0
100
AcDbArc
 50
-84.900311
 51
-69.472963
  0
ARC
  5
150
100
AcDbEntity
  8
3
  6
CONTINUOUS
 62
   214
100
AcDbCircle
 10
108.56006
 20
218.991248
 30
0.0
 40
1.3
100
AcDbArc
 50
-69.472963
 51
0.0
  0
ARC
  5
151
100
AcDbEntity
  8
3
  6
CONTINUOUS
 62
   214
100
AcDbCircle
 10
105.86006
 20
226.20235
 30
0.0
 40
9.0
100
AcDbArc
 50
-110.527037
 51
-95.099689
  0
ARC
  5
152
100
AcDbEntity
  8
3
  6
CONTINUOUS
 62
   214
100
AcDbCircle
 10
103.16006
 20
218.991248
 30
0.0
 40
1.3
100
AcDbArc
 50
180.0
 51
-110.527037
  0
LINE
  5
153
100
AcDbEntity
  8
3
  6
CONTINUOUS
 62
   214
100
AcDbLine
 10
109.86006
 20
218.991248
 30
0.0
 11
109.86006
 21
220.152557
 31
0.0
  0
ARC
  5
154
100
AcDbEntity
  8
3
  6
CONTINUOUS
 62
   214
100
AcDbCircle
 10
110.46006
 20
220.152557
 30
0.0
 40
0.6
100
AcDbArc
 50
127.247781
 51
180.0
  0
ARC
  5
155
100
AcDbEntity
  8
3
  6
CONTINUOUS
 62
   214
100
AcDbCircle
 10
105.86006
 20
226.20235
 30
0.0
 40
7.0
100
AcDbArc
 50
-52.752219
 51
-127.247781
  0
LINE
  5
156
100
AcDbEntity
  8
3
  6
CONTINUOUS
 62
   214
100
AcDbLine
 10
101.86006
 20
218.991248
 30
0.0
 11
101.86006
 21
220.152557
 31
0.0
  0
ARC
  5
157
100
AcDbEntity
  8
3
  6
CONTINUOUS
 62
   214
100
AcDbCircle
 10
101.26006
 20
220.152557
 30
0.0
 40
0.6
100
AcDbArc
 50
0.0
 51
52.752219
  0
ARC
  5
158
100
AcDbEntity
  8
3
  6
CONTINUOUS
 62
   214
100
AcDbCircle
 10
105.86006
 20
226.20235
 30
0.0
 40
6.0
100
AcDbArc
 50
-97.682076
 51
-82.352332
  0
ARC
  5
159
100
AcDbEntity
  8
3
  6
CONTINUOUS
 62
   214
100
AcDbCircle
 10
151.86006
 20
193.20235
 30
0.0
 40
1.0
100
AcDbArc
 50
0.0
 51
90.0
  0
LINE
  5
15A
100
AcDbEntity
  8
3
  6
CONTINUOUS
 62
   214
100
AcDbLine
 10
152.86006
 20
183.20235
 30
0.0
 11
152.86006
 21
193.20235
 31
0.0
  0
ARC
  5
15B
100
AcDbEntity
  8
3
  6
CONTINUOUS
 62
   214
100
AcDbCircle
 10
151.86006
 20
183.20235
 30
0.0
 40
1.0
100
AcDbArc
 50
-90.0
 51
0.0
  0
LINE
  5
15C
100
AcDbEntity
  8
3
  6
CONTINUOUS
 62
   214
100
AcDbLine
 10
151.86006
 20
181.40235
 30
0.0
 11
150.66006
 21
181.40235
 31
0.0
  0
LINE
  5
15D
100
AcDbEntity
  8
3
  6
CONTINUOUS
 62
   214
100
AcDbLine
 10
151.86006
 20
271.00235
 30
0.0
 11
151.86006
 21
181.40235
 31
0.0
  0
LINE
  5
15E
100
AcDbEntity
  8
3
  6
CENTER
 62
   214
100
AcDbLine
 10
202.336835
 20
188.20235
 30
0.0
 11
194.919139
 21
188.20235
 31
0.0
  0
LINE
  5
15F
100
AcDbEntity
  8
3
  6
CENTER
 62
   214
100
AcDbLine
 10
197.86006
 20
193.20235
 30
0.0
 11
197.86006
 21
183.20235
 31
0.0
  0
ARC
  5
160
100
AcDbEntity
  8
3
  6
CENTER
 62
   214
100
AcDbCircle
 10
197.86006
 20
188.20235
 30
0.0
 40
2.0
100
AcDbArc
 50
134.999999
 51
-135.000001
  0
LINE
  5
161
100
AcDbEntity
  8
3
  6
CONTINUOUS
 62
   214
100
AcDbLine
 10
176.86006
 20
187.70235
 30
0.0
 11
152.86006
 21
187.70235
 31
0.0
  0
LINE
  5
162
100
AcDbEntity
  8
3
  6
CONTINUOUS
 62
   214
100
AcDbLine
 10
176.86006
 20
188.70235
 30
0.0
 11
152.86006
 21
188.70235
 31
0.0
  0
ARC
  5
163
100
AcDbEntity
  8
3
  6
CONTINUOUS
 62
   214
100
AcDbCircle
 10
197.86006
 20
188.20235
 30
0.0
 40
3.0
100
AcDbArc
 50
-102.839588
 51
102.839588
  0
ARC
  5
164
100
AcDbEntity
  8
3
  6
CONTINUOUS
 62
   214
100
AcDbCircle
 10
197.86006
 20
188.20235
 30
0.0
 40
2.0
100
AcDbArc
 50
-102.839588
 51
102.839588
  0
LINE
  5
165
100
AcDbEntity
  8
3
  6
CONTINUOUS
 62
   214
100
AcDbLine
 10
188.86006
 20
187.176705
 30
0.0
 11
197.193394
 21
185.277362
 31
0.0
  0
LINE
  5
166
100
AcDbEntity
  8
3
  6
CONTINUOUS
 62
   214
100
AcDbLine
 10
188.86006
 20
188.20235
 30
0.0
 11
197.415616
 21
186.252358
 31
0.0
  0
LINE
  5
167
100
AcDbEntity
  8
3
  6
CONTINUOUS
 62
   214
100
AcDbLine
 10
188.86006
 20
189.227996
 30
0.0
 11
197.193394
 21
191.127339
 31
0.0
  0
LINE
  5
168
100
AcDbEntity
  8
3
  6
CONTINUOUS
 62
   214
100
AcDbLine
 10
188.86006
 20
188.20235
 30
0.0
 11
197.415616
 21
190.152343
 31
0.0
  0
CIRCLE
  5
169
100
AcDbEntity
  8
3
  6
CONTINUOUS
 62
   214
100
AcDbCircle
 10
144.86006
 20
249.20235
 30
0.0
 40
3.5
  0
LINE
  5
16A
100
AcDbEntity
  8
3
  6
CONTINUOUS
 62
   214
100
AcDbLine
 10
142.915544
 20
251.146867
 30
0.0
 11
146.80458
 21
247.257831
 31
0.0
  0
LINE
  5
16B
100
AcDbEntity
  8
3
  6
CONTINUOUS
 62
   214
100
AcDbLine
 10
142.915537
 20
247.257827
 30
0.0
 11
146.804032
 21
251.146322
 31
0.0
  0
LINE
  5
16C
100
AcDbEntity
  8
3
  6
CENTER
 62
   214
100
AcDbLine
 10
139.86006
 20
203.20235
 30
0.0
 11
149.86006
 21
203.20235
 31
0.0
  0
LINE
  5
16D
100
AcDbEntity
  8
3
  6
CENTER
 62
   214
100
AcDbLine
 10
144.86006
 20
208.20235
 30
0.0
 11
144.86006
 21
198.20235
 31
0.0
  0
LINE
  5
16E
100
AcDbEntity
  8
3
  6
CENTER
 62
   214
100
AcDbLine
 10
139.86006
 20
249.20235
 30
0.0
 11
149.86006
 21
249.20235
 31
0.0
  0
LINE
  5
16F
100
AcDbEntity
  8
3
  6
CENTER
 62
   214
100
AcDbLine
 10
144.86006
 20
244.20235
 30
0.0
 11
144.86006
 21
254.20235
 31
0.0
  0
LINE
  5
170
100
AcDbEntity
  8
3
  6
CENTER
 62
   214
100
AcDbLine
 10
155.86006
 20
264.20235
 30
0.0
 11
141.86006
 21
264.20235
 31
0.0
  0
LINE
  5
171
100
AcDbEntity
  8
3
  6
CENTER
 62
   214
100
AcDbLine
 10
140.86006
 20
325.592052
 30
0.0
 11
140.86006
 21
332.60235
 31
0.0
  0
LINE
  5
172
100
AcDbEntity
  8
3
  6
CENTER
 62
   214
100
AcDbLine
 10
140.86006
 20
325.592052
 30
0.0
 11
140.86006
 21
332.60235
 31
0.0
  0
LINE
  5
173
100
AcDbEntity
  8
3
  6
CENTER
 62
   214
100
AcDbLine
 10
70.86006
 20
325.592052
 30
0.0
 11
70.86006
 21
332.60235
 31
0.0
  0
LINE
  5
174
100
AcDbEntity
  8
3
  6
CENTER
 62
   214
100
AcDbLine
 10
70.86006
 20
325.592052
 30
0.0
 11
70.86006
 21
332.60235
 31
0.0
  0
LINE
  5
175
100
AcDbEntity
  8
3
  6
CENTER
 62
   214
100
AcDbLine
 10
70.86006
 20
365.212649
 30
0.0
 11
70.86006
 21
358.20235
 31
0.0
  0
LINE
  5
176
100
AcDbEntity
  8
3
  6
CENTER
 62
   214
100
AcDbLine
 10
70.86006
 20
365.212649
 30
0.0
 11
70.86006
 21
358.20235
 31
0.0
  0
LINE
  5
177
100
AcDbEntity
  8
3
  6
CENTER
 62
   214
100
AcDbLine
 10
140.86006
 20
365.212649
 30
0.0
 11
140.86006
 21
358.20235
 31
0.0
  0
LINE
  5
178
100
AcDbEntity
  8
3
  6
CENTER
 62
   214
100
AcDbLine
 10
140.86006
 20
365.212649
 30
0.0
 11
140.86006
 21
358.20235
 31
0.0
  0
LINE
  5
179
100
AcDbEntity
  8
3
  6
CONTINUOUS
 62
   214
100
AcDbLine
 10
61.06006
 20
362.60235
 30
0.0
 11
150.66006
 21
362.60235
 31
0.0
  0
LINE
  5
17A
100
AcDbEntity
  8
3
  6
CONTINUOUS
 62
   214
100
AcDbLine
 10
61.06006
 20
328.20235
 30
0.0
 11
150.66006
 21
328.20235
 31
0.0
  0
LINE
  5
17B
100
AcDbEntity
  8
3
  6
CENTER
 62
   214
100
AcDbLine
 10
105.86006
 20
365.60235
 30
0.0
 11
105.86006
 21
323.314449
 31
0.0
  0
LINE
  5
17C
100
AcDbEntity
  8
3
  6
CONTINUOUS
 62
   214
100
AcDbLine
 10
140.66006
 20
348.80235
 30
0.0
 11
140.66006
 21
342.00235
 31
0.0
  0
LINE
  5
17D
100
AcDbEntity
  8
3
  6
CONTINUOUS
 62
   214
100
AcDbLine
 10
147.06006
 20
348.80235
 30
0.0
 11
147.06006
 21
342.00235
 31
0.0
  0
ARC
  5
17E
100
AcDbEntity
  8
3
  6
CONTINUOUS
 62
   214
100
AcDbCircle
 10
143.86006
 20
342.00235
 30
0.0
 40
3.2
100
AcDbArc
 50
180.0
 51
0.0
  0
ARC
  5
17F
100
AcDbEntity
  8
3
  6
CONTINUOUS
 62
   214
100
AcDbCircle
 10
143.86006
 20
348.80235
 30
0.0
 40
3.2
100
AcDbArc
 50
0.0
 51
180.0
  0
LINE
  5
180
100
AcDbEntity
  8
3
  6
CONTINUOUS
 62
   214
100
AcDbLine
 10
71.06006
 20
348.80235
 30
0.0
 11
71.06006
 21
342.00235
 31
0.0
  0
LINE
  5
181
100
AcDbEntity
  8
3
  6
CONTINUOUS
 62
   214
100
AcDbLine
 10
64.66006
 20
348.80235
 30
0.0
 11
64.66006
 21
342.00235
 31
0.0
  0
ARC
  5
182
100
AcDbEntity
  8
3
  6
CONTINUOUS
 62
   214
100
AcDbCircle
 10
67.86006
 20
342.00235
 30
0.0
 40
3.2
100
AcDbArc
 50
180.0
 51
0.0
  0
ARC
  5
183
100
AcDbEntity
  8
3
  6
CONTINUOUS
 62
   214
100
AcDbCircle
 10
67.86006
 20
348.80235
 30
0.0
 40
3.2
100
AcDbArc
 50
0.0
 51
180.0
  0
CIRCLE
  5
184
100
AcDbEntity
  8
3
  6
CONTINUOUS
 62
   214
100
AcDbCircle
 10
157.86006
 20
336.40235
 30
0.0
 40
2.75
  0
CIRCLE
  5
185
100
AcDbEntity
  8
3
  6
CONTINUOUS
 62
   214
100
AcDbCircle
 10
157.86006
 20
354.40235
 30
0.0
 40
2.75
  0
CIRCLE
  5
186
100
AcDbEntity
  8
3
  6
CONTINUOUS
 62
   214
100
AcDbCircle
 10
53.86006
 20
336.40235
 30
0.0
 40
2.75
  0
CIRCLE
  5
187
100
AcDbEntity
  8
3
  6
CONTINUOUS
 62
   214
100
AcDbCircle
 10
53.86006
 20
354.40235
 30
0.0
 40
2.75
  0
LINE
  5
188
100
AcDbEntity
  8
3
  6
CONTINUOUS
 62
   214
100
AcDbLine
 10
150.66006
 20
328.20235
 30
0.0
 11
150.66006
 21
330.20235
 31
0.0
  0
LINE
  5
189
100
AcDbEntity
  8
3
  6
CONTINUOUS
 62
   214
100
AcDbLine
 10
150.66006
 20
360.60235
 30
0.0
 11
150.66006
 21
362.60235
 31
0.0
  0
LINE
  5
18A
100
AcDbEntity
  8
3
  6
CONTINUOUS
 62
   214
100
AcDbLine
 10
150.66006
 20
330.20235
 30
0.0
 11
162.86006
 21
330.20235
 31
0.0
  0
LINE
  5
18B
100
AcDbEntity
  8
3
  6
CONTINUOUS
 62
   214
100
AcDbLine
 10
150.66006
 20
360.60235
 30
0.0
 11
162.86006
 21
360.60235
 31
0.0
  0
LINE
  5
18C
100
AcDbEntity
  8
3
  6
CONTINUOUS
 62
   214
100
AcDbLine
 10
163.86006
 20
359.60235
 30
0.0
 11
162.86006
 21
360.60235
 31
0.0
  0
LINE
  5
18D
100
AcDbEntity
  8
3
  6
CONTINUOUS
 62
   214
100
AcDbLine
 10
163.86006
 20
331.20235
 30
0.0
 11
162.86006
 21
330.20235
 31
0.0
  0
LINE
  5
18E
100
AcDbEntity
  8
3
  6
CONTINUOUS
 62
   214
100
AcDbLine
 10
61.06006
 20
328.20235
 30
0.0
 11
61.06006
 21
330.20235
 31
0.0
  0
LINE
  5
18F
100
AcDbEntity
  8
3
  6
CONTINUOUS
 62
   214
100
AcDbLine
 10
61.06006
 20
360.60235
 30
0.0
 11
61.06006
 21
362.60235
 31
0.0
  0
LINE
  5
190
100
AcDbEntity
  8
3
  6
CONTINUOUS
 62
   214
100
AcDbLine
 10
61.06006
 20
330.20235
 30
0.0
 11
48.86006
 21
330.20235
 31
0.0
  0
LINE
  5
191
100
AcDbEntity
  8
3
  6
CONTINUOUS
 62
   214
100
AcDbLine
 10
61.06006
 20
360.60235
 30
0.0
 11
48.86006
 21
360.60235
 31
0.0
  0
LINE
  5
192
100
AcDbEntity
  8
3
  6
CONTINUOUS
 62
   214
100
AcDbLine
 10
47.86006
 20
359.60235
 30
0.0
 11
48.86006
 21
360.60235
 31
0.0
  0
LINE
  5
193
100
AcDbEntity
  8
3
  6
CONTINUOUS
 62
   214
100
AcDbLine
 10
47.86006
 20
331.20235
 30
0.0
 11
48.86006
 21
330.20235
 31
0.0
  0
LINE
  5
194
100
AcDbEntity
  8
3
  6
CONTINUOUS
 62
   214
100
AcDbLine
 10
163.86006
 20
331.20235
 30
0.0
 11
163.86006
 21
359.60235
 31
0.0
  0
LINE
  5
195
100
AcDbEntity
  8
3
  6
CENTER
 62
   214
100
AcDbLine
 10
66.86006
 20
325.592052
 30
0.0
 11
66.86006
 21
332.60235
 31
0.0
  0
LINE
  5
196
100
AcDbEntity
  8
3
  6
CENTER
 62
   214
100
AcDbLine
 10
66.86006
 20
325.592052
 30
0.0
 11
66.86006
 21
332.60235
 31
0.0
  0
LINE
  5
197
100
AcDbEntity
  8
3
  6
CENTER
 62
   214
100
AcDbLine
 10
143.86006
 20
335.80235
 30
0.0
 11
143.86006
 21
355.00235
 31
0.0
  0
LINE
  5
198
100
AcDbEntity
  8
3
  6
CENTER
 62
   214
100
AcDbLine
 10
67.86006
 20
335.80235
 30
0.0
 11
67.86006
 21
355.00235
 31
0.0
  0
LINE
  5
199
100
AcDbEntity
  8
3
  6
CENTER
 62
   214
100
AcDbLine
 10
150.06006
 20
342.00235
 30
0.0
 11
137.66006
 21
342.00235
 31
0.0
  0
LINE
  5
19A
100
AcDbEntity
  8
3
  6
CENTER
 62
   214
100
AcDbLine
 10
150.06006
 20
348.80235
 30
0.0
 11
137.66006
 21
348.80235
 31
0.0
  0
LINE
  5
19B
100
AcDbEntity
  8
3
  6
CENTER
 62
   214
100
AcDbLine
 10
61.66006
 20
342.00235
 30
0.0
 11
74.06006
 21
342.00235
 31
0.0
  0
LINE
  5
19C
100
AcDbEntity
  8
3
  6
CENTER
 62
   214
100
AcDbLine
 10
61.66006
 20
348.80235
 30
0.0
 11
74.06006
 21
348.80235
 31
0.0
  0
LINE
  5
19D
100
AcDbEntity
  8
3
  6
CENTER
 62
   214
100
AcDbLine
 10
162.86006
 20
354.40235
 30
0.0
 11
152.86006
 21
354.40235
 31
0.0
  0
LINE
  5
19E
100
AcDbEntity
  8
3
  6
CENTER
 62
   214
100
AcDbLine
 10
157.86006
 20
349.40235
 30
0.0
 11
157.86006
 21
359.40235
 31
0.0
  0
LINE
  5
19F
100
AcDbEntity
  8
3
  6
CENTER
 62
   214
100
AcDbLine
 10
162.86006
 20
336.40235
 30
0.0
 11
152.86006
 21
336.40235
 31
0.0
  0
LINE
  5
1A0
100
AcDbEntity
  8
3
  6
CENTER
 62
   214
100
AcDbLine
 10
157.86006
 20
341.40235
 30
0.0
 11
157.86006
 21
331.40235
 31
0.0
  0
LINE
  5
1A1
100
AcDbEntity
  8
3
  6
CENTER
 62
   214
100
AcDbLine
 10
48.86006
 20
354.40235
 30
0.0
 11
58.86006
 21
354.40235
 31
0.0
  0
LINE
  5
1A2
100
AcDbEntity
  8
3
  6
CENTER
 62
   214
100
AcDbLine
 10
53.86006
 20
349.40235
 30
0.0
 11
53.86006
 21
359.40235
 31
0.0
  0
LINE
  5
1A3
100
AcDbEntity
  8
3
  6
CENTER
 62
   214
100
AcDbLine
 10
48.86006
 20
336.40235
 30
0.0
 11
58.86006
 21
336.40235
 31
0.0
  0
LINE
  5
1A4
100
AcDbEntity
  8
3
  6
CENTER
 62
   214
100
AcDbLine
 10
53.86006
 20
341.40235
 30
0.0
 11
53.86006
 21
331.40235
 31
0.0
  0
LINE
  5
1A5
100
AcDbEntity
  8
3
  6
CONTINUOUS
 62
   214
100
AcDbLine
 10
61.06006
 20
180.20235
 30
0.0
 11
150.66006
 21
180.20235
 31
0.0
  0
LINE
  5
1A6
100
AcDbEntity
  8
3
  6
CONTINUOUS
 62
   214
100
AcDbLine
 10
47.86006
 20
272.20235
 30
0.0
 11
163.86006
 21
272.20235
 31
0.0
  0
LINE
  5
1A7
100
AcDbEntity
  8
3
  6
CENTER
 62
   214
100
AcDbLine
 10
149.36006
 20
261.20235
 30
0.0
 11
132.36006
 21
261.20235
 31
0.0
  0
LINE
  5
1A8
100
AcDbEntity
  8
3
  6
CENTER
 62
   214
100
AcDbLine
 10
79.36006
 20
261.20235
 30
0.0
 11
62.36006
 21
261.20235
 31
0.0
  0
LINE
  5
1A9
100
AcDbEntity
  8
3
  6
CENTER
 62
   214
100
AcDbLine
 10
70.86006
 20
269.70235
 30
0.0
 11
70.86006
 21
252.70235
 31
0.0
  0
LINE
  5
1AA
100
AcDbEntity
  8
3
  6
CENTER
 62
   214
100
AcDbLine
 10
140.86006
 20
252.70235
 30
0.0
 11
140.86006
 21
269.70235
 31
0.0
  0
LINE
  5
1AB
100
AcDbEntity
  8
3
  6
CENTER
 62
   214
100
AcDbLine
 10
140.86006
 20
182.70235
 30
0.0
 11
140.86006
 21
199.70235
 31
0.0
  0
LINE
  5
1AC
100
AcDbEntity
  8
3
  6
CENTER
 62
   214
100
AcDbLine
 10
70.86006
 20
182.70235
 30
0.0
 11
70.86006
 21
199.70235
 31
0.0
  0
LINE
  5
1AD
100
AcDbEntity
  8
3
  6
CENTER
 62
   214
100
AcDbLine
 10
143.86006
 20
176.896787
 30
0.0
 11
143.86006
 21
190.20235
 31
0.0
  0
CIRCLE
  5
1AE
100
AcDbEntity
  8
3
  6
CONTINUOUS
 62
   214
100
AcDbCircle
 10
70.86006
 20
191.20235
 30
0.0
 40
5.5
  0
CIRCLE
  5
1AF
100
AcDbEntity
  8
3
  6
CONTINUOUS
 62
   214
100
AcDbCircle
 10
70.86006
 20
191.20235
 30
0.0
 40
2.75
  0
CIRCLE
  5
1B0
100
AcDbEntity
  8
3
  6
CONTINUOUS
 62
   214
100
AcDbCircle
 10
140.86006
 20
191.20235
 30
0.0
 40
2.75
  0
LINE
  5
1B1
100
AcDbEntity
  8
3
  6
CENTER
 62
   214
100
AcDbLine
 10
105.86006
 20
274.20235
 30
0.0
 11
105.86006
 21
177.20235
 31
0.0
  0
LINE
  5
1B2
100
AcDbEntity
  8
3
  6
CENTER
 62
   214
100
AcDbLine
 10
132.36006
 20
191.20235
 30
0.0
 11
149.36006
 21
191.20235
 31
0.0
  0
LINE
  5
1B3
100
AcDbEntity
  8
3
  6
CONTINUOUS
 62
   214
100
AcDbLine
 10
150.66006
 20
226.20235
 30
0.0
 11
150.66006
 21
180.20235
 31
0.0
  0
LINE
  5
1B4
100
AcDbEntity
  8
3
  6
CONTINUOUS
 62
   214
100
AcDbLine
 10
150.66006
 20
272.20235
 30
0.0
 11
150.66006
 21
226.20235
 31
0.0
  0
CIRCLE
  5
1B5
100
AcDbEntity
  8
3
  6
CONTINUOUS
 62
   214
100
AcDbCircle
 10
70.86006
 20
261.20235
 30
0.0
 40
5.5
  0
CIRCLE
  5
1B6
100
AcDbEntity
  8
3
  6
CONTINUOUS
 62
   214
100
AcDbCircle
 10
70.86006
 20
261.20235
 30
0.0
 40
2.75
  0
CIRCLE
  5
1B7
100
AcDbEntity
  8
3
  6
CONTINUOUS
 62
   214
100
AcDbCircle
 10
140.86006
 20
261.20235
 30
0.0
 40
5.5
  0
CIRCLE
  5
1B8
100
AcDbEntity
  8
3
  6
CONTINUOUS
 62
   214
100
AcDbCircle
 10
140.86006
 20
261.20235
 30
0.0
 40
2.75
  0
ARC
  5
1B9
100
AcDbEntity
  8
3
  6
CONTINUOUS
 62
   214
100
AcDbCircle
 10
72.86006
 20
180.20235
 30
0.0
 40
1.0
100
AcDbArc
 50
-90.0
 51
0.0
  0
LINE
  5
1BA
100
AcDbEntity
  8
3
  6
CONTINUOUS
 62
   214
100
AcDbLine
 10
62.86006
 20
179.20235
 30
0.0
 11
72.86006
 21
179.20235
 31
0.0
  0
ARC
  5
1BB
100
AcDbEntity
  8
3
  6
CONTINUOUS
 62
   214
100
AcDbCircle
 10
62.86006
 20
180.20235
 30
0.0
 40
1.0
100
AcDbArc
 50
180.0
 51
-90.0
  0
ARC
  5
1BC
100
AcDbEntity
  8
3
  6
CONTINUOUS
 62
   214
100
AcDbCircle
 10
138.86006
 20
180.20235
 30
0.0
 40
1.0
100
AcDbArc
 50
180.0
 51
-90.0
  0
LINE
  5
1BD
100
AcDbEntity
  8
3
  6
CONTINUOUS
 62
   214
100
AcDbLine
 10
148.86006
 20
179.20235
 30
0.0
 11
138.86006
 21
179.20235
 31
0.0
  0
ARC
  5
1BE
100
AcDbEntity
  8
3
  6
CONTINUOUS
 62
   214
100
AcDbCircle
 10
148.86006
 20
180.20235
 30
0.0
 40
1.0
100
AcDbArc
 50
-90.0
 51
0.0
  0
LINE
  5
1BF
100
AcDbEntity
  8
3
  6
CONTINUOUS
 62
   214
100
AcDbLine
 10
61.06006
 20
272.20235
 30
0.0
 11
61.06006
 21
180.20235
 31
0.0
  0
LINE
  5
1C0
100
AcDbEntity
  8
3
  6
CONTINUOUS
 62
   214
100
AcDbLine
 10
47.86006
 20
271.00235
 30
0.0
 11
61.06006
 21
271.00235
 31
0.0
  0
LINE
  5
1C1
100
AcDbEntity
  8
3
  6
CONTINUOUS
 62
   214
100
AcDbLine
 10
48.86006
 20
272.20235
 30
0.0
 11
48.86006
 21
271.00235
 31
0.0
  0
LINE
  5
1C2
100
AcDbEntity
  8
3
  6
CONTINUOUS
 62
   214
100
AcDbLine
 10
47.86006
 20
272.20235
 30
0.0
 11
47.86006
 21
271.00235
 31
0.0
  0
LINE
  5
1C3
100
AcDbEntity
  8
3
  6
CONTINUOUS
 62
   214
100
AcDbLine
 10
163.86006
 20
271.00235
 30
0.0
 11
150.66006
 21
271.00235
 31
0.0
  0
LINE
  5
1C4
100
AcDbEntity
  8
3
  6
CONTINUOUS
 62
   214
100
AcDbLine
 10
162.86006
 20
272.20235
 30
0.0
 11
162.86006
 21
271.00235
 31
0.0
  0
LINE
  5
1C5
100
AcDbEntity
  8
3
  6
CONTINUOUS
 62
   214
100
AcDbLine
 10
163.86006
 20
272.20235
 30
0.0
 11
163.86006
 21
271.00235
 31
0.0
  0
LINE
  5
1C6
100
AcDbEntity
  8
3
  6
CENTER
 62
   214
100
AcDbLine
 10
139.86006
 20
203.20235
 30
0.0
 11
149.86006
 21
203.20235
 31
0.0
  0
LINE
  5
1C7
100
AcDbEntity
  8
3
  6
CENTER
 62
   214
100
AcDbLine
 10
144.86006
 20
208.20235
 30
0.0
 11
144.86006
 21
198.20235
 31
0.0
  0
LINE
  5
1C8
100
AcDbEntity
  8
3
  6
CENTER
 62
   214
100
AcDbLine
 10
139.86006
 20
249.20235
 30
0.0
 11
149.86006
 21
249.20235
 31
0.0
  0
LINE
  5
1C9
100
AcDbEntity
  8
3
  6
CENTER
 62
   214
100
AcDbLine
 10
144.86006
 20
244.20235
 30
0.0
 11
144.86006
 21
254.20235
 31
0.0
  0
LINE
  5
1CA
100
AcDbEntity
  8
3
  6
CENTER
 62
   214
100
AcDbLine
 10
79.36006
 20
191.20235
 30
0.0
 11
62.36006
 21
191.20235
 31
0.0
  0
LINE
  5
1CB
100
AcDbEntity
  8
3
  6
CENTER
 62
   214
100
AcDbLine
 10
56.579867
 20
226.20235
 30
0.0
 11
154.86006
 21
226.20235
 31
0.0
  0
LINE
  5
1CC
100
AcDbEntity
  8
3
  6
CENTER
 62
   214
100
AcDbLine
 10
67.86006
 20
176.20235
 30
0.0
 11
67.86006
 21
190.20235
 31
0.0
  0
LINE
  5
1CD
100
AcDbEntity
  8
3
  6
CENTER
 62
   214
100
AcDbLine
 10
53.86006
 20
275.20235
 30
0.0
 11
53.86006
 21
268.00235
 31
0.0
  0
LINE
  5
1CE
100
AcDbEntity
  8
3
  6
CENTER
 62
   214
100
AcDbLine
 10
157.86006
 20
275.20235
 30
0.0
 11
157.86006
 21
268.00235
 31
0.0
  0
LINE
  5
1CF
100
AcDbEntity
  8
3
  6
CENTER
 62
   214
100
AcDbLine
 10
260.26006
 20
226.20235
 30
0.0
 11
214.171445
 21
226.20235
 31
0.0
  0
LINE
  5
1D0
100
AcDbEntity
  8
3
  6
CONTINUOUS
 62
   214
100
AcDbLine
 10
220.56006
 20
233.20235
 30
0.0
 11
219.56006
 21
233.20235
 31
0.0
  0
LINE
  5
1D1
100
AcDbEntity
  8
3
  6
CONTINUOUS
 62
   214
100
AcDbLine
 10
219.56006
 20
230.70235
 30
0.0
 11
218.56006
 21
230.70235
 31
0.0
  0
LINE
  5
1D2
100
AcDbEntity
  8
3
  6
CONTINUOUS
 62
   214
100
AcDbLine
 10
219.56006
 20
219.20235
 30
0.0
 11
220.56006
 21
219.20235
 31
0.0
  0
LINE
  5
1D3
100
AcDbEntity
  8
3
  6
CONTINUOUS
 62
   214
100
AcDbLine
 10
218.56006
 20
220.20235
 30
0.0
 11
219.56006
 21
220.20235
 31
0.0
  0
LINE
  5
1D4
100
AcDbEntity
  8
3
  6
CONTINUOUS
 62
   214
100
AcDbLine
 10
219.56006
 20
233.20235
 30
0.0
 11
219.56006
 21
219.20235
 31
0.0
  0
LINE
  5
1D5
100
AcDbEntity
  8
3
  6
CONTINUOUS
 62
   214
100
AcDbLine
 10
218.56006
 20
230.70235
 30
0.0
 11
218.56006
 21
220.20235
 31
0.0
  0
LINE
  5
1D6
100
AcDbEntity
  8
3
  6
CENTER
 62
   214
100
AcDbLine
 10
218.959535
 20
249.20235
 30
0.0
 11
227.26006
 21
249.20235
 31
0.0
  0
LINE
  5
1D7
100
AcDbEntity
  8
3
  6
CENTER
 62
   214
100
AcDbLine
 10
215.335608
 20
203.20235
 30
0.0
 11
227.26006
 21
203.20235
 31
0.0
  0
LINE
  5
1D8
100
AcDbEntity
  8
3
  6
CONTINUOUS
 62
   214
100
AcDbLine
 10
220.56006
 20
207.90235
 30
0.0
 11
220.56006
 21
198.50235
 31
0.0
  0
LINE
  5
1D9
100
AcDbEntity
  8
3
  6
CONTINUOUS
 62
   214
100
AcDbLine
 10
220.271616
 20
207.90235
 30
0.0
 11
220.271616
 21
198.50235
 31
0.0
  0
LINE
  5
1DA
100
AcDbEntity
  8
3
  6
CONTINUOUS
 62
   214
100
AcDbLine
 10
220.271616
 20
198.50235
 30
0.0
 11
220.56006
 21
198.50235
 31
0.0
  0
LINE
  5
1DB
100
AcDbEntity
  8
3
  6
CONTINUOUS
 62
   214
100
AcDbLine
 10
220.271616
 20
207.90235
 30
0.0
 11
220.56006
 21
207.90235
 31
0.0
  0
ARC
  5
1DC
100
AcDbEntity
  8
3
  6
CONTINUOUS
 62
   214
100
AcDbCircle
 10
224.16006
 20
203.20235
 30
0.0
 40
6.1
100
AcDbArc
 50
129.601927
 51
180.0
  0
ARC
  5
1DD
100
AcDbEntity
  8
3
  6
CONTINUOUS
 62
   214
100
AcDbCircle
 10
224.16006
 20
203.20235
 30
0.0
 40
6.1
100
AcDbArc
 50
180.0
 51
-129.601927
  0
LINE
  5
1DE
100
AcDbEntity
  8
3
  6
CONTINUOUS
 62
   214
100
AcDbLine
 10
222.86006
 20
245.70235
 30
0.0
 11
222.86006
 21
252.70235
 31
0.0
  0
LINE
  5
1DF
100
AcDbEntity
  8
3
  6
CONTINUOUS
 62
   214
100
AcDbLine
 10
222.629507
 20
252.70235
 30
0.0
 11
222.86006
 21
252.70235
 31
0.0
  0
ARC
  5
1E0
100
AcDbEntity
  8
3
  6
CONTINUOUS
 62
   214
100
AcDbCircle
 10
224.226727
 20
249.20235
 30
0.0
 40
3.966667
100
AcDbArc
 50
122.574018
 51
174.212437
  0
ARC
  5
1E1
100
AcDbEntity
  8
3
  6
CONTINUOUS
 62
   214
100
AcDbCircle
 10
222.629507
 20
251.70235
 30
0.0
 40
1.0
100
AcDbArc
 50
90.0
 51
122.574018
  0
ARC
  5
1E2
100
AcDbEntity
  8
3
  6
CONTINUOUS
 62
   214
100
AcDbCircle
 10
224.226727
 20
249.20235
 30
0.0
 40
3.966667
100
AcDbArc
 50
-174.212437
 51
-122.574018
  0
LINE
  5
1E3
100
AcDbEntity
  8
3
  6
CONTINUOUS
 62
   214
100
AcDbLine
 10
222.629507
 20
245.70235
 30
0.0
 11
222.86006
 21
245.70235
 31
0.0
  0
ARC
  5
1E4
100
AcDbEntity
  8
3
  6
CONTINUOUS
 62
   214
100
AcDbCircle
 10
222.629507
 20
246.70235
 30
0.0
 40
1.0
100
AcDbArc
 50
-122.574018
 51
-90.0
  0
LINE
  5
1E5
100
AcDbEntity
  8
3
  6
CONTINUOUS
 62
   214
100
AcDbLine
 10
220.56006
 20
249.60235
 30
0.0
 11
220.56006
 21
249.20235
 31
0.0
  0
LINE
  5
1E6
100
AcDbEntity
  8
3
  6
CONTINUOUS
 62
   214
100
AcDbLine
 10
220.56006
 20
248.80235
 30
0.0
 11
220.56006
 21
249.20235
 31
0.0
  0
LINE
  5
1E7
100
AcDbEntity
  8
3
  6
CONTINUOUS
 62
   214
100
AcDbLine
 10
220.28028
 20
248.80235
 30
0.0
 11
220.56006
 21
248.80235
 31
0.0
  0
LINE
  5
1E8
100
AcDbEntity
  8
3
  6
CONTINUOUS
 62
   214
100
AcDbLine
 10
220.28028
 20
249.60235
 30
0.0
 11
220.56006
 21
249.60235
 31
0.0
  0
LINE
  5
1E9
100
AcDbEntity
  8
3
  6
CONTINUOUS
 62
   214
100
AcDbLine
 10
257.26006
 20
271.00235
 30
0.0
 11
222.86006
 21
271.00235
 31
0.0
  0
LINE
  5
1EA
100
AcDbEntity
  8
3
  6
CONTINUOUS
 62
   214
100
AcDbLine
 10
225.86006
 20
272.20235
 30
0.0
 11
225.86006
 21
271.00235
 31
0.0
  0
LINE
  5
1EB
100
AcDbEntity
  8
3
  6
CONTINUOUS
 62
   214
100
AcDbLine
 10
224.86006
 20
272.20235
 30
0.0
 11
224.86006
 21
271.00235
 31
0.0
  0
LINE
  5
1EC
100
AcDbEntity
  8
3
  6
CONTINUOUS
 62
   214
100
AcDbLine
 10
254.26006
 20
272.20235
 30
0.0
 11
254.26006
 21
271.00235
 31
0.0
  0
LINE
  5
1ED
100
AcDbEntity
  8
3
  6
CONTINUOUS
 62
   214
100
AcDbLine
 10
255.26006
 20
272.20235
 30
0.0
 11
255.26006
 21
271.00235
 31
0.0
  0
ARC
  5
1EE
100
AcDbEntity
  8
3
  6
CONTINUOUS
 62
   214
100
AcDbCircle
 10
243.46006
 20
264.20235
 30
0.0
 40
2.6
100
AcDbArc
 50
-90.0
 51
90.0
  0
ARC
  5
1EF
100
AcDbEntity
  8
3
  6
CONTINUOUS
 62
   214
100
AcDbCircle
 10
236.66006
 20
264.20235
 30
0.0
 40
2.6
100
AcDbArc
 50
90.0
 51
-90.0
  0
LINE
  5
1F0
100
AcDbEntity
  8
3
  6
CONTINUOUS
 62
   214
100
AcDbLine
 10
243.46006
 20
266.80235
 30
0.0
 11
236.66006
 21
266.80235
 31
0.0
  0
LINE
  5
1F1
100
AcDbEntity
  8
3
  6
CONTINUOUS
 62
   214
100
AcDbLine
 10
243.46006
 20
261.60235
 30
0.0
 11
236.66006
 21
261.60235
 31
0.0
  0
ARC
  5
1F2
100
AcDbEntity
  8
3
  6
CONTINUOUS
 62
   214
100
AcDbCircle
 10
243.46006
 20
188.20235
 30
0.0
 40
3.2
100
AcDbArc
 50
-90.0
 51
90.0
  0
ARC
  5
1F3
100
AcDbEntity
  8
3
  6
CONTINUOUS
 62
   214
100
AcDbCircle
 10
236.66006
 20
188.20235
 30
0.0
 40
3.2
100
AcDbArc
 50
90.0
 51
-90.0
  0
LINE
  5
1F4
100
AcDbEntity
  8
3
  6
CONTINUOUS
 62
   214
100
AcDbLine
 10
243.46006
 20
191.40235
 30
0.0
 11
236.66006
 21
191.40235
 31
0.0
  0
LINE
  5
1F5
100
AcDbEntity
  8
3
  6
CONTINUOUS
 62
   214
100
AcDbLine
 10
243.46006
 20
185.00235
 30
0.0
 11
236.66006
 21
185.00235
 31
0.0
  0
ARC
  5
1F6
100
AcDbEntity
  8
3
  6
CONTINUOUS
 62
   214
100
AcDbCircle
 10
243.46006
 20
188.20235
 30
0.0
 40
6.0
100
AcDbArc
 50
-90.0
 51
90.0
  0
ARC
  5
1F7
100
AcDbEntity
  8
3
  6
CONTINUOUS
 62
   214
100
AcDbCircle
 10
236.66006
 20
188.20235
 30
0.0
 40
6.0
100
AcDbArc
 50
90.0
 51
-90.0
  0
LINE
  5
1F8
100
AcDbEntity
  8
3
  6
CONTINUOUS
 62
   214
100
AcDbLine
 10
243.46006
 20
182.20235
 30
0.0
 11
236.66006
 21
182.20235
 31
0.0
  0
LINE
  5
1F9
100
AcDbEntity
  8
3
  6
CONTINUOUS
 62
   214
100
AcDbLine
 10
243.46006
 20
194.20235
 30
0.0
 11
236.66006
 21
194.20235
 31
0.0
  0
LINE
  5
1FA
100
AcDbEntity
  8
3
  6
CENTER
 62
   214
100
AcDbLine
 10
236.66006
 20
273.20235
 30
0.0
 11
236.66006
 21
255.20235
 31
0.0
  0
LINE
  5
1FB
100
AcDbEntity
  8
3
  6
CENTER
 62
   214
100
AcDbLine
 10
243.46006
 20
273.20235
 30
0.0
 11
243.46006
 21
255.20235
 31
0.0
  0
LINE
  5
1FC
100
AcDbEntity
  8
3
  6
CENTER
 62
   214
100
AcDbLine
 10
252.459803
 20
264.20235
 30
0.0
 11
227.66006
 21
264.20235
 31
0.0
  0
LINE
  5
1FD
100
AcDbEntity
  8
3
  6
CENTER
 62
   214
100
AcDbLine
 10
252.459803
 20
188.20235
 30
0.0
 11
227.66006
 21
188.20235
 31
0.0
  0
LINE
  5
1FE
100
AcDbEntity
  8
3
  6
CENTER
 62
   214
100
AcDbLine
 10
243.46006
 20
175.70235
 30
0.0
 11
243.46006
 21
197.20235
 31
0.0
  0
LINE
  5
1FF
100
AcDbEntity
  8
3
  6
CENTER
 62
   214
100
AcDbLine
 10
236.66006
 20
175.70235
 30
0.0
 11
236.66006
 21
197.20235
 31
0.0
  0
LINE
  5
200
100
AcDbEntity
  8
3
  6
CONTINUOUS
 62
   214
100
AcDbLine
 10
231.66006
 20
179.20235
 30
0.0
 11
248.46006
 21
179.20235
 31
0.0
  0
ARC
  5
201
100
AcDbEntity
  8
3
  6
CONTINUOUS
 62
   214
100
AcDbCircle
 10
231.66006
 20
180.20235
 30
0.0
 40
1.0
100
AcDbArc
 50
-180.0
 51
-90.0
  0
ARC
  5
202
100
AcDbEntity
  8
3
  6
CONTINUOUS
 62
   214
100
AcDbCircle
 10
248.46006
 20
180.20235
 30
0.0
 40
1.0
100
AcDbArc
 50
-90.0
 51
0.0
  0
ARC
  5
203
100
AcDbEntity
  8
3
  6
CONTINUOUS
 62
   214
100
AcDbCircle
 10
256.06006
 20
271.00235
 30
0.0
 40
1.2
100
AcDbArc
 50
0.0
 51
90.0
  0
LINE
  5
204
100
AcDbEntity
  8
3
  6
CONTINUOUS
 62
   214
100
AcDbLine
 10
257.26006
 20
271.00235
 30
0.0
 11
257.26006
 21
180.20235
 31
0.0
  0
LINE
  5
205
100
AcDbEntity
  8
3
  6
CONTINUOUS
 62
   214
100
AcDbLine
 10
224.06006
 20
272.20235
 30
0.0
 11
256.06006
 21
272.20235
 31
0.0
  0
ARC
  5
206
100
AcDbEntity
  8
3
  6
CONTINUOUS
 62
   214
100
AcDbCircle
 10
224.06006
 20
271.00235
 30
0.0
 40
1.2
100
AcDbArc
 50
90.0
 51
180.0
  0
LINE
  5
207
100
AcDbEntity
  8
3
  6
CONTINUOUS
 62
   214
100
AcDbLine
 10
222.86006
 20
180.20235
 30
0.0
 11
222.86006
 21
271.00235
 31
0.0
  0
LINE
  5
208
100
AcDbEntity
  8
3
  6
CENTER
 62
   214
100
AcDbLine
 10
236.66006
 20
175.343534
 30
0.0
 11
236.66006
 21
185.00235
 31
0.0
  0
LINE
  5
209
100
AcDbEntity
  8
3
  6
CENTER
 62
   214
100
AcDbLine
 10
243.46006
 20
175.343534
 30
0.0
 11
243.46006
 21
185.00235
 31
0.0
  0
LINE
  5
20A
100
AcDbEntity
  8
3
  6
CENTER
 62
   214
100
AcDbLine
 10
231.06006
 20
275.20235
 30
0.0
 11
231.06006
 21
268.00235
 31
0.0
  0
LINE
  5
20B
100
AcDbEntity
  8
3
  6
CENTER
 62
   214
100
AcDbLine
 10
249.06006
 20
275.20235
 30
0.0
 11
249.06006
 21
268.00235
 31
0.0
  0
DIMENSION
  5
217
100
AcDbEntity
  8
2
  6
CONTINUOUS
 62
   134
100
AcDbDimension
  2
*D1
 10
204.31006
 20
272.20235
 30
0.0
 11
204.31006
 21
226.20235
 31
0.0
  1
92
100
AcDbAlignedDimension
 13
164.36006
 23
272.20235
 33
0.0
 14
151.16006
 24
180.20235
 34
0.0
 50
90.0
100
AcDbRotatedDimension
  0
DIMENSION
  5
223
100
AcDbEntity
  8
2
  6
CONTINUOUS
 62
   134
100
AcDbDimension
  2
*D2
 10
163.86006
 20
284.20235
 30
0.0
 11
105.86006
 21
284.20235
 31
0.0
  1
116
100
AcDbAlignedDimension
 13
163.86006
 23
272.70235
 33
0.0
 14
47.86006
 24
272.70235
 34
0.0
100
AcDbRotatedDimension
  0
DIMENSION
  5
22F
100
AcDbEntity
  8
2
  6
CONTINUOUS
 62
   134
100
AcDbDimension
  2
*D3
 10
222.86006
 20
284.20235
 30
0.0
 11
240.06006
 21
284.20235
 31
0.0
  1
34.4
100
AcDbAlignedDimension
 13
222.86006
 23
271.50235
 33
0.0
 14
257.26006
 24
271.50235
 34
0.0
100
AcDbRotatedDimension
  0
ENDSEC
  0
SECTION
  2
OBJECTS
  0
DICTIONARY
  5
19
100
AcDbDictionary
  3
ACAD_GROUP
350
1A
  3
ACAD_MLINESTYLE
350
1B
  0
DICTIONARY
  5
1A
102
{ACAD_REACTORS
330
19
102
}
100
AcDbDictionary
  0
DICTIONARY
  5
1B
102
{ACAD_REACTORS
330
19
102
}
100
AcDbDictionary
  3
STANDARD
350
1C
  0
MLINESTYLE
  5
1C
102
{ACAD_REACTORS
330
1B
102
}
100
AcDbMlineStyle
  2
STANDARD
 70
     0
  3

 62
     0
 51
90.0
 52
90.0
 71
     2
 49
0.5
 62
   256
  6
BYLAYER
 49
-0.5
 62
   256
  6
BYLAYER
  0
ENDSEC
  0
EOF
