  0
SECTION
  2
HEADER
  9
$ACADVER
  1
AC1014
  9
$ACADMAINTVER
 70
     0
  9
$DWGCODEPAGE
  3
DOS932
  9
$INSBASE
 10
0.0
 20
0.0
 30
0.0
  9
$EXTMIN
 10
0.0
 20
0.0
 30
0.0
  9
$EXTMAX
 10
841.0
 20
594.0
 30
0.0
  9
$LIMMIN
 10
0.0
 20
0.0
  9
$LIMMAX
 10
841.0
 20
594.0
  9
$ORTHOMODE
 70
     0
  9
$REGENMODE
 70
     1
  9
$FILLMODE
 70
     1
  9
$QTEXTMODE
 70
     0
  9
$MIRRTEXT
 70
     1
  9
$DRAGMODE
 70
     2
  9
$LTSCALE
 40
0.25
  9
$OSMODE
 70
     0
  9
$ATTMODE
 70
     1
  9
$TEXTSIZE
 40
4.0
  9
$TRACEWID
 40
0.05
  9
$TEXTSTYLE
  7
STANDARD
  9
$CLAYER
  8
0
  9
$CELTYPE
  6
CONTINUOUS
  9
$CECOLOR
 62
   256
  9
$CELTSCALE
 40
1.0
  9
$DELOBJ
 70
     1
  9
$DISPSILH
 70
     0
  9
$DIMSCALE
 40
1.0
  9
$DIMASZ
 40
4.0
  9
$DIMEXO
 40
0.5
  9
$DIMDLI
 40
10.0
  9
$DIMRND
 40
0.0
  9
$DIMDLE
 40
0.0
  9
$DIMEXE
 40
2.0
  9
$DIMTP
 40
0.0
  9
$DIMTM
 40
0.0
  9
$DIMTXT
 40
4.0
  9
$DIMCEN
 40
0.09
  9
$DIMTSZ
 40
0.0
  9
$DIMTOL
 70
     0
  9
$DIMLIM
 70
     0
  9
$DIMTIH
 70
     0
  9
$DIMTOH
 70
     0
  9
$DIMSE1
 70
     0
  9
$DIMSE2
 70
     0
  9
$DIMTAD
 70
     3
  9
$DIMZIN
 70
     0
  9
$DIMBLK
  1

  9
$DIMASO
 70
     1
  9
$DIMSHO
 70
     1
  9
$DIMPOST
  1

  9
$DIMAPOST
  1

  9
$DIMALT
 70
     0
  9
$DIMALTD
 70
     2
  9
$DIMALTF
 40
25.4
  9
$DIMLFAC
 40
1.0
  9
$DIMTOFL
 70
     1
  9
$DIMTVP
 40
0.7
  9
$DIMTIX
 70
     0
  9
$DIMSOXD
 70
     0
  9
$DIMSAH
 70
     0
  9
$DIMBLK1
  1

  9
$DIMBLK2
  1

  9
$DIMSTYLE
  2
STANDARD
  9
$DIMCLRD
 70
     0
  9
$DIMCLRE
 70
     0
  9
$DIMCLRT
 70
     0
  9
$DIMTFAC
 40
0.5
  9
$DIMGAP
 40
0.0
  9
$DIMJUST
 70
     0
  9
$DIMSD1
 70
     0
  9
$DIMSD2
 70
     0
  9
$DIMTOLJ
 70
     1
  9
$DIMTZIN
 70
     0
  9
$DIMALTZ
 70
     0
  9
$DIMALTTZ
 70
     0
  9
$DIMFIT
 70
     3
  9
$DIMUPT
 70
     0
  9
$DIMUNIT
 70
     2
  9
$DIMDEC
 70
     2
  9
$DIMTDEC
 70
     4
  9
$DIMALTU
 70
     2
  9
$DIMALTTD
 70
     2
  9
$DIMTXSTY
  7
STANDARD
  9
$DIMAUNIT
 70
     0
  9
$LUNITS
 70
     2
  9
$LUPREC
 70
     4
  9
$SKETCHINC
 40
0.1
  9
$FILLETRAD
 40
0.0
  9
$AUNITS
 70
     0
  9
$AUPREC
 70
     0
  9
$MENU
  1
acad
  9
$ELEVATION
 40
0.0
  9
$PELEVATION
 40
0.0
  9
$THICKNESS
 40
0.0
  9
$LIMCHECK
 70
     0
  9
$BLIPMODE
 70
     1
  9
$CHAMFERA
 40
0.0
  9
$CHAMFERB
 40
0.0
  9
$CHAMFERC
 40
0.0
  9
$CHAMFERD
 40
0.0
  9
$SKPOLY
 70
     0
  9
$TDCREATE
 40
2453433.598483796
  9
$TDUPDATE
 40
2453433.598483796
  9
$TDINDWG
 40
0.0000000000
  9
$TDUSRTIMER
 40
0.0000000000
  9
$USRTIMER
 70
     1
  9
$ANGBASE
 50
0.0
  9
$ANGDIR
 70
     0
  9
$PDMODE
 70
     0
  9
$PDSIZE
 40
0.0
  9
$PLINEWID
 40
0.0
  9
$COORDS
 70
     0
  9
$SPLFRAME
 70
     0
  9
$SPLINETYPE
 70
     6
  9
$SPLINESEGS
 70
     8
  9
$ATTDIA
 70
     0
  9
$ATTREQ
 70
     1
  9
$HANDLING
 70
     1
  9
$HANDSEED
  5
1E5
  9
$SURFTAB1
 70
     6
  9
$SURFTAB2
 70
     6
  9
$SURFTYPE
 70
     6
  9
$SURFU
 70
     6
  9
$SURFV
 70
     6
  9
$UCSNAME
  2

  9
$UCSORG
 10
0.0
 20
0.0
 30
0.0
  9
$UCSXDIR
 10
1.0
 20
0.0
 30
0.0
  9
$UCSYDIR
 10
0.0
 20
1.0
 30
0.0
  9
$PUCSNAME
  2

  9
$PUCSORG
 10
0.0
 20
0.0
 30
0.0
  9
$PUCSXDIR
 10
1.0
 20
0.0
 30
0.0
  9
$PUCSYDIR
 10
0.0
 20
1.0
 30
0.0
  9
$USERI1
 70
     0
  9
$USERI2
 70
     0
  9
$USERI3
 70
     0
  9
$USERI4
 70
     0
  9
$USERI5
 70
     0
  9
$USERR1
 40
0.0
  9
$USERR2
 40
0.0
  9
$USERR3
 40
0.0
  9
$USERR4
 40
0.0
  9
$USERR5
 40
0.0
  9
$WORLDVIEW
 70
     1
  9
$SHADEDGE
 70
     3
  9
$SHADEDIF
 70
    70
  9
$TILEMODE
 70
     1
  9
$MAXACTVP
 70
    16
  9
$PINSBASE
 10
0.0
 20
0.0
 30
0.0
  9
$PLIMCHECK
 70
     0
  9
$PEXTMIN
 10
0.0
 20
0.0
 30
0.0
  9
$PEXTMAX
 10
841.0
 20
594.0
 30
0.0
  9
$PLIMMIN
 10
0.0
 20
0.0
  9
$PLIMMAX
 10
841.0
 20
594.0
  9
$UNITMODE
 70
     0
  9
$VISRETAIN
 70
     0
  9
$PLINEGEN
 70
     1
  9
$PSLTSCALE
 70
     0
  9
$TREEDEPTH
 70
  3020
  9
$PICKSTYLE
 70
     1
  9
$CMLSTYLE
  2
STANDARD
  9
$CMLJUST
 70
     0
  9
$CMLSCALE
 40
1.0
  9
$PROXYGRAPHICS
 70
     0
  9
$MEASUREMENT
 70
     0
  0
ENDSEC
  0
SECTION
  2
CLASSES
  0
CLASS
  1
LWPOLYLINE
  2
AcDbPolyline
  3
"AutoCAD"
 90
        0
280
     0
281
     1
  0
CLASS
  1
IMAGE
  2
AcDbRasterImage
  3
ISM
 90
      127
280
     0
281
     1
  0
CLASS
  1
OLE2FRAME
  2
AcDbOle2Frame
  3
""
 90
        0
280
     0
281
     1
  0
CLASS
  1
HATCH
  2
AcDbHatch
  3
"ACAD_SEDONA"
 90
        0
280
     0
281
     1
  0
CLASS
  1
DICTIONARYVAR
  2
AcDbDictionaryVar
  3
"AutoCAD"
 90
        0
280
     0
281
     0
  0
CLASS
  1
RASTERVARIABLES
  2
AcDbRasterVariables
  3
ISM
 90
        0
280
     0
281
     0
  0
CLASS
  1
IMAGEDEF
  2
AcDbRasterImageDef
  3
ISM
 90
        0
280
     0
281
     0
  0
CLASS
  1
IMAGEDEF_REACTOR
  2
AcDbRasterImageDefReactor
  3
ISM
 90
        1
280
     0
281
     0
  0
CLASS
  1
IDBUFFER
  2
AcDbIdBuffer
  3
"Acad"
 90
        0
280
     0
281
     0
  0
CLASS
  1
SPATIAL_FILTER
  2
AcDbSpatialFilter
  3
"Acad"
 90
        0
280
     0
281
     0
  0
CLASS
  1
XRECORD
  2
AcDbXrecord
  3
"<Built In>"
 90
        0
280
     0
281
     0
  0
CLASS
  1
SORTENTSTABLE
  2
AcDbSortentsTable
  3
"AutoCAD"
 90
        0
280
     0
281
     0
  0
CLASS
  1
LAYER_INDEX
  2
AcDbLayerIndex
  3
"Acad"
 90
        0
280
     0
281
     0
  0
CLASS
  1
SPATIAL_INDEX
  2
AcDbSpatialIndex
  3
"Acad"
 90
        0
280
     0
281
     0
  0
CLASS
  1
OBJECT_PTR
  2
CAseDLPNTableRecord
  3
"ASE-LPNTableRecord"
 90
        1
280
     0
281
     0
  0
CLASS
  1
LAYOUT
  2
AcDbLayout
  3
"AutoCAD 2000"
 90
        1
280
     0
281
     0
  0
CLASS
  1
PLOTSETTINGS
  2
AcDbPlotSettings
  3
"AutoCAD 2000"
 90
        1
280
     0
281
     0
  0
CLASS
  1
ACDBDICTIONARYWDFLT
  2
AcDbDictionaryWithDefault
  3
"AutoCAD 2000"
 90
        1
280
     0
281
     0
  0
CLASS
  1
ACDBPLACEHOLDER
  2
AcDbPlaceHolder
  3
"AutoCAD 2000"
 90
        1
280
     0
281
     0
  0
CLASS
  1
VBA_PROJECT
  2
AcDbVbaProject
  3
"acadvba"
 90
        1
280
     0
281
     0
  0
CLASS
  1
WIPEOUT
  2
AcDbWipeout
  3
WipeOut|AutoCAD Express Tool|expresstools@autodesk.com
 90
      127
280
     0
281
     1
  0
CLASS
  1
WIPEOUTVARIABLES
  2
AcDbWipeoutVariables
  3
WipeOut|AutoCAD Express Tool|expresstools@autodesk.com
 90
        0
280
     0
281
     0
  0
CLASS
  1
RTEXT
  2
RText
  3
RText|AutoCAD Express Tool|expresstools@autodesk.com
 90
        0
280
     0
281
     1
  0
CLASS
  1
ARCALIGNEDTEXT
  2
AcDbArcAlignedText
  3
ATEXT|AutoCAD Express Tool|expresstools@autodesk.com
 90
        0
280
     0
281
     1
  0
ENDSEC
  0
SECTION
  2
TABLES
  0
TABLE
  2
VPORT
  5
7
100
AcDbSymbolTable
 70
     1
  0
VPORT
  5
15
100
AcDbSymbolTableRecord
100
AcDbViewportTableRecord
  2
*ACTIVE
 70
     0
 10
0.0
 20
0.0
 11
1.0
 21
1.0
 12
6.591288
 22
4.579184
 13
0.0
 23
0.0
 14
1.0
 24
1.0
 15
0.0
 25
0.0
 16
0.0
 26
0.0
 36
1.0
 17
0.0
 27
0.0
 37
0.0
 40
9.158369
 41
0.688564
 42
50.0
 43
0.0
 44
0.0
 50
0.0
 51
0.0
 71
     0
 72
   100
 73
     1
 74
     1
 75
     0
 76
     0
 77
     0
 78
     0
  0
ENDTAB
  0
TABLE
  2
LTYPE
  5
4
100
AcDbSymbolTable
 70
     9
  0
LTYPE
  5
11
100
AcDbSymbolTableRecord
100
AcDbLinetypeTableRecord
  2
BYBLOCK
 70
    64
  3

 72
    65
 73
     0
 40
0.0
  0
LTYPE
  5
12
100
AcDbSymbolTableRecord
100
AcDbLinetypeTableRecord
  2
BYLAYER
 70
    64
  3

 72
    65
 73
     0
 40
0.0
  0
LTYPE
  5
13
100
AcDbSymbolTableRecord
100
AcDbLinetypeTableRecord
  2
CONTINUOUS
 70
    64
  3
Solid line
 72
    65
 73
     0
 40
0.0
  0
LTYPE
  5
1E
100
AcDbSymbolTableRecord
100
AcDbLinetypeTableRecord
  2
HIDDEN
 70
    64
  3
- - - - - - - - 
 72
    65
 73
     2
 40
12.6
 49
8.4
 74
     0
 49
-4.2
 74
     0
  0
LTYPE
  5
1F
100
AcDbSymbolTableRecord
100
AcDbLinetypeTableRecord
  2
DOT
 70
    64
  3
･ ･ ･ ･ ･ ･ ･ ･ 
 72
    65
 73
     2
 40
8.0
 49
6.0
 74
     0
 49
-2.0
 74
     0
  0
LTYPE
  5
20
100
AcDbSymbolTableRecord
100
AcDbLinetypeTableRecord
  2
CENTER
 70
    64
  3
- ･ - ･ - ･ - ･ 
 72
    65
 73
     4
 40
50.5
 49
30.0
 74
     0
 49
-9.0
 74
     0
 49
2.5
 74
     0
 49
-9.0
 74
     0
  0
LTYPE
  5
21
100
AcDbSymbolTableRecord
100
AcDbLinetypeTableRecord
  2
PHANTOM
 70
    64
  3
- ･･ - ･･ - ･･ - ･･ 
 72
    65
 73
     6
 40
58.0
 49
30.0
 74
     0
 49
-9.0
 74
     0
 49
2.5
 74
     0
 49
-5.0
 74
     0
 49
2.5
 74
     0
 49
-9.0
 74
     0
  0
LTYPE
  5
22
100
AcDbSymbolTableRecord
100
AcDbLinetypeTableRecord
  2
ACAD_ISO06W100
 70
    64
  3
____ ... ____ ... ____
 72
    65
 73
     8
 40
37.5
 49
24.0
 74
     0
 49
-3.0
 74
     0
 49
0.5
 74
     0
 49
-3.0
 74
     0
 49
0.5
 74
     0
 49
-3.0
 74
     0
 49
0.5
 74
     0
 49
-3.0
 74
     0
  0
LTYPE
  5
23
100
AcDbSymbolTableRecord
100
AcDbLinetypeTableRecord
  2
ACAD_ISO14W100
 70
    64
  3
__ . . . __ . . . __ . . . 
 72
    65
 73
     8
 40
25.5
 49
12.0
 74
     0
 49
-3.0
 74
     0
 49
0.5
 74
     0
 49
-3.0
 74
     0
 49
0.5
 74
     0
 49
-3.0
 74
     0
 49
0.5
 74
     0
 49
-3.0
 74
     0
  0
ENDTAB
  0
TABLE
  2
LAYER
  5
2
100
AcDbSymbolTable
 70
    22
  0
LAYER
  5
14
100
AcDbSymbolTableRecord
100
AcDbLayerTableRecord
  2
0
 70
     0
 62
     7
  6
CONTINUOUS
  0
LAYER
  5
24
100
AcDbSymbolTableRecord
100
AcDbLayerTableRecord
  2
1
 70
     0
 62
     7
  6
CONTINUOUS
  0
LAYER
  5
25
100
AcDbSymbolTableRecord
100
AcDbLayerTableRecord
  2
2
 70
     0
 62
   134
  6
CONTINUOUS
  0
LAYER
  5
26
100
AcDbSymbolTableRecord
100
AcDbLayerTableRecord
  2
3
 70
     0
 62
   214
  6
CONTINUOUS
  0
LAYER
  5
27
100
AcDbSymbolTableRecord
100
AcDbLayerTableRecord
  2
4
 70
     0
 62
    54
  6
CONTINUOUS
  0
LAYER
  5
28
100
AcDbSymbolTableRecord
100
AcDbLayerTableRecord
  2
5
 70
     0
 62
    94
  6
CONTINUOUS
  0
LAYER
  5
29
100
AcDbSymbolTableRecord
100
AcDbLayerTableRecord
  2
6
 70
     0
 62
    14
  6
CONTINUOUS
  0
LAYER
  5
2A
100
AcDbSymbolTableRecord
100
AcDbLayerTableRecord
  2
7
 70
     0
 62
     4
  6
CONTINUOUS
  0
LAYER
  5
2B
100
AcDbSymbolTableRecord
100
AcDbLayerTableRecord
  2
8
 70
     0
 62
     6
  6
CONTINUOUS
  0
LAYER
  5
2C
100
AcDbSymbolTableRecord
100
AcDbLayerTableRecord
  2
9
 70
     0
 62
     2
  6
CONTINUOUS
  0
LAYER
  5
2D
100
AcDbSymbolTableRecord
100
AcDbLayerTableRecord
  2
10
 70
     0
 62
     3
  6
CONTINUOUS
  0
LAYER
  5
2E
100
AcDbSymbolTableRecord
100
AcDbLayerTableRecord
  2
11
 70
     0
 62
   251
  6
CONTINUOUS
  0
LAYER
  5
2F
100
AcDbSymbolTableRecord
100
AcDbLayerTableRecord
  2
12
 70
     0
 62
   136
  6
CONTINUOUS
  0
LAYER
  5
30
100
AcDbSymbolTableRecord
100
AcDbLayerTableRecord
  2
13
 70
     0
 62
   216
  6
CONTINUOUS
  0
LAYER
  5
31
100
AcDbSymbolTableRecord
100
AcDbLayerTableRecord
  2
14
 70
     0
 62
    56
  6
CONTINUOUS
  0
LAYER
  5
32
100
AcDbSymbolTableRecord
100
AcDbLayerTableRecord
  2
15
 70
     0
 62
    96
  6
CONTINUOUS
  0
LAYER
  5
33
100
AcDbSymbolTableRecord
100
AcDbLayerTableRecord
  2
16
 70
     0
 62
    16
  6
CONTINUOUS
  0
LAYER
  5
34
100
AcDbSymbolTableRecord
100
AcDbLayerTableRecord
  2
17
 70
     0
 62
   132
  6
CONTINUOUS
  0
LAYER
  5
35
100
AcDbSymbolTableRecord
100
AcDbLayerTableRecord
  2
18
 70
     0
 62
   212
  6
CONTINUOUS
  0
LAYER
  5
36
100
AcDbSymbolTableRecord
100
AcDbLayerTableRecord
  2
19
 70
     0
 62
    52
  6
CONTINUOUS
  0
LAYER
  5
37
100
AcDbSymbolTableRecord
100
AcDbLayerTableRecord
  2
20
 70
     0
 62
   250
  6
CONTINUOUS
  0
LAYER
  5
38
100
AcDbSymbolTableRecord
100
AcDbLayerTableRecord
  2
21
 70
     0
 62
     7
  6
CONTINUOUS
  0
ENDTAB
  0
TABLE
  2
STYLE
  5
3
100
AcDbSymbolTable
 70
     2
  0
STYLE
  5
17
100
AcDbSymbolTableRecord
100
AcDbTextStyleTableRecord
  2
STANDARD
 70
     0
 40
0.0
 41
1.0
 50
0.0
 71
     0
 42
0.0
  3
txt
  4
bigfont
  0
STYLE
  5
1D
100
AcDbSymbolTableRecord
100
AcDbTextStyleTableRecord
  2
T_STANDARD
 70
    68
 40
10.0
 41
1.0
 50
0.0
 71
     0
 42
10.0
  3
txt
  4
bigfont
  0
ENDTAB
  0
TABLE
  2
VIEW
  5
5
100
AcDbSymbolTable
 70
     0
  0
ENDTAB
  0
TABLE
  2
UCS
  5
6
100
AcDbSymbolTable
 70
     0
  0
ENDTAB
  0
TABLE
  2
APPID
  5
8
100
AcDbSymbolTable
 70
     1
  0
APPID
  5
16
100
AcDbSymbolTableRecord
100
AcDbRegAppTableRecord
  2
ACAD
 70
     0
  0
ENDTAB
  0
TABLE
  2
DIMSTYLE
  5
9
100
AcDbSymbolTable
 70
     1
  0
DIMSTYLE
105
18
100
AcDbSymbolTableRecord
100
AcDbDimStyleTableRecord
  2
STANDARD
 70
     0
  3

  4

  5

  6

  7

 40
1.0
 41
0.18
 42
0.0625
 43
0.38
 44
0.18
 45
0.0
 46
0.0
 47
0.0
 48
0.0
 71
     0
 72
     0
 73
     1
 74
     1
 75
     0
 76
     0
 77
     0
 78
     0
140
0.18
141
0.09
142
0.0
143
25.4
144
1.0
145
0.0
146
1.0
147
0.09
170
     0
171
     2
172
     0
173
     0
174
     0
175
     0
176
     0
177
     0
178
     0
270
     2
271
     4
272
     4
273
     2
274
     2
275
     0
280
     0
281
     0
282
     0
283
     1
284
     0
285
     0
286
     0
287
     0
288
     0
340
17
  0
ENDTAB
  0
TABLE
  2
BLOCK_RECORD
  5
1
100
AcDbSymbolTable
 70
    10
  0
BLOCK_RECORD
  5
A
100
AcDbSymbolTableRecord
100
AcDbBlockTableRecord
  2
*MODEL_SPACE
  0
BLOCK_RECORD
  5
B
100
AcDbSymbolTableRecord
100
AcDbBlockTableRecord
  2
*PAPER_SPACE
  0
BLOCK_RECORD
  5
39
100
AcDbSymbolTableRecord
100
AcDbBlockTableRecord
  2
*G0
  0
BLOCK_RECORD
  5
CC
100
AcDbSymbolTableRecord
100
AcDbBlockTableRecord
  2
*G1
  0
BLOCK_RECORD
  5
CE
100
AcDbSymbolTableRecord
100
AcDbBlockTableRecord
  2
*G2
  0
BLOCK_RECORD
  5
DF
100
AcDbSymbolTableRecord
100
AcDbBlockTableRecord
  2
*G3
  0
BLOCK_RECORD
  5
E1
100
AcDbSymbolTableRecord
100
AcDbBlockTableRecord
  2
*G4
  0
BLOCK_RECORD
  5
F1
100
AcDbSymbolTableRecord
100
AcDbBlockTableRecord
  2
*G5
  0
BLOCK_RECORD
  5
F3
100
AcDbSymbolTableRecord
100
AcDbBlockTableRecord
  2
*G6
  0
BLOCK_RECORD
  5
1B2
100
AcDbSymbolTableRecord
100
AcDbBlockTableRecord
  2
*D7
  0
BLOCK_RECORD
  5
1BE
100
AcDbSymbolTableRecord
100
AcDbBlockTableRecord
  2
*D8
  0
BLOCK_RECORD
  5
1CA
100
AcDbSymbolTableRecord
100
AcDbBlockTableRecord
  2
*D9
  0
ENDTAB
  0
ENDSEC
  0
SECTION
  2
BLOCKS
  0
BLOCK
  5
D
100
AcDbEntity
  8
0
100
AcDbBlockBegin
  2
*MODEL_SPACE
 70
     0
 10
0.0
 20
0.0
 30
0.0
  3
*MODEL_SPACE
  1

  0
ENDBLK
  5
E
100
AcDbEntity
  8
0
100
AcDbBlockEnd
  0
BLOCK
  5
F
100
AcDbEntity
 67
     1
  8
0
100
AcDbBlockBegin
  2
*PAPER_SPACE
 70
     0
 10
0.0
 20
0.0
 30
0.0
  3
*PAPER_SPACE
  1

  0
ENDBLK
  5
10
100
AcDbEntity
 67
     1
  8
0
100
AcDbBlockEnd
  0
BLOCK
  5
3A
100
AcDbEntity
  8
0
  6
CONTINUOUS
 62
     7
100
AcDbBlockBegin
  2
*G0
 70
     0
 10
0.0
 20
0.0
 30
0.0
  3
*G0
  1

  0
ENDBLK
  5
3B
100
AcDbEntity
  8
0
100
AcDbBlockEnd
  0
BLOCK
  5
CD
100
AcDbEntity
  8
0
  6
CONTINUOUS
 62
   214
100
AcDbBlockBegin
  2
*G1
 70
     0
 10
0.0
 20
0.0
 30
0.0
  3
*G1
  1

  0
INSERT
  5
D7
100
AcDbEntity
  8
0
  6
CONTINUOUS
 62
   214
100
AcDbBlockReference
  2
*G2
 10
0.0
 20
0.0
 30
0.0
  0
CIRCLE
  5
D8
100
AcDbEntity
  8
3
  6
CONTINUOUS
 62
   214
100
AcDbCircle
 10
365.600386
 20
359.241834
 30
0.0
 40
2.0
  0
CIRCLE
  5
D9
100
AcDbEntity
  8
3
  6
CONTINUOUS
 62
   214
100
AcDbCircle
 10
365.600386
 20
359.241834
 30
0.0
 40
1.65
  0
CIRCLE
  5
DA
100
AcDbEntity
  8
3
  6
CONTINUOUS
 62
   214
100
AcDbCircle
 10
365.600386
 20
359.241834
 30
0.0
 40
3.464707
  0
ENDBLK
  5
DB
100
AcDbEntity
  8
0
100
AcDbBlockEnd
  0
BLOCK
  5
CF
100
AcDbEntity
  8
0
  6
CONTINUOUS
 62
   214
100
AcDbBlockBegin
  2
*G2
 70
     0
 10
0.0
 20
0.0
 30
0.0
  3
*G2
  1

  0
LINE
  5
D0
100
AcDbEntity
  8
3
  6
CONTINUOUS
 62
   214
100
AcDbLine
 10
365.600386
 20
363.241835
 30
0.0
 11
362.136284
 21
361.241835
 31
0.0
  0
LINE
  5
D1
100
AcDbEntity
  8
3
  6
CONTINUOUS
 62
   214
100
AcDbLine
 10
362.136284
 20
361.241835
 30
0.0
 11
362.136284
 21
357.241834
 31
0.0
  0
LINE
  5
D2
100
AcDbEntity
  8
3
  6
CONTINUOUS
 62
   214
100
AcDbLine
 10
362.136284
 20
357.241834
 30
0.0
 11
365.600386
 21
355.241834
 31
0.0
  0
LINE
  5
D3
100
AcDbEntity
  8
3
  6
CONTINUOUS
 62
   214
100
AcDbLine
 10
365.600386
 20
355.241834
 30
0.0
 11
369.064488
 21
357.241834
 31
0.0
  0
LINE
  5
D4
100
AcDbEntity
  8
3
  6
CONTINUOUS
 62
   214
100
AcDbLine
 10
369.064488
 20
357.241834
 30
0.0
 11
369.064488
 21
361.241835
 31
0.0
  0
LINE
  5
D5
100
AcDbEntity
  8
3
  6
CONTINUOUS
 62
   214
100
AcDbLine
 10
369.064488
 20
361.241835
 30
0.0
 11
365.600386
 21
363.241835
 31
0.0
  0
ENDBLK
  5
D6
100
AcDbEntity
  8
0
100
AcDbBlockEnd
  0
BLOCK
  5
E0
100
AcDbEntity
  8
0
  6
CONTINUOUS
 62
   214
100
AcDbBlockBegin
  2
*G3
 70
     0
 10
0.0
 20
0.0
 30
0.0
  3
*G3
  1

  0
INSERT
  5
EA
100
AcDbEntity
  8
0
  6
CONTINUOUS
 62
   214
100
AcDbBlockReference
  2
*G4
 10
0.0
 20
0.0
 30
0.0
  0
CIRCLE
  5
EB
100
AcDbEntity
  8
3
  6
CONTINUOUS
 62
   214
100
AcDbCircle
 10
305.600386
 20
359.241834
 30
0.0
 40
2.0
  0
CIRCLE
  5
EC
100
AcDbEntity
  8
3
  6
CONTINUOUS
 62
   214
100
AcDbCircle
 10
305.600386
 20
359.241834
 30
0.0
 40
1.65
  0
CIRCLE
  5
ED
100
AcDbEntity
  8
3
  6
CONTINUOUS
 62
   214
100
AcDbCircle
 10
305.600386
 20
359.241834
 30
0.0
 40
3.464707
  0
ENDBLK
  5
EE
100
AcDbEntity
  8
0
100
AcDbBlockEnd
  0
BLOCK
  5
E2
100
AcDbEntity
  8
0
  6
CONTINUOUS
 62
   214
100
AcDbBlockBegin
  2
*G4
 70
     0
 10
0.0
 20
0.0
 30
0.0
  3
*G4
  1

  0
LINE
  5
E3
100
AcDbEntity
  8
3
  6
CONTINUOUS
 62
   214
100
AcDbLine
 10
305.600386
 20
363.241835
 30
0.0
 11
302.136284
 21
361.241835
 31
0.0
  0
LINE
  5
E4
100
AcDbEntity
  8
3
  6
CONTINUOUS
 62
   214
100
AcDbLine
 10
302.136284
 20
361.241835
 30
0.0
 11
302.136284
 21
357.241834
 31
0.0
  0
LINE
  5
E5
100
AcDbEntity
  8
3
  6
CONTINUOUS
 62
   214
100
AcDbLine
 10
302.136284
 20
357.241834
 30
0.0
 11
305.600386
 21
355.241834
 31
0.0
  0
LINE
  5
E6
100
AcDbEntity
  8
3
  6
CONTINUOUS
 62
   214
100
AcDbLine
 10
305.600386
 20
355.241834
 30
0.0
 11
309.064488
 21
357.241834
 31
0.0
  0
LINE
  5
E7
100
AcDbEntity
  8
3
  6
CONTINUOUS
 62
   214
100
AcDbLine
 10
309.064488
 20
357.241834
 30
0.0
 11
309.064488
 21
361.241835
 31
0.0
  0
LINE
  5
E8
100
AcDbEntity
  8
3
  6
CONTINUOUS
 62
   214
100
AcDbLine
 10
309.064488
 20
361.241835
 30
0.0
 11
305.600386
 21
363.241835
 31
0.0
  0
ENDBLK
  5
E9
100
AcDbEntity
  8
0
100
AcDbBlockEnd
  0
BLOCK
  5
F2
100
AcDbEntity
  8
0
  6
CONTINUOUS
 62
   214
100
AcDbBlockBegin
  2
*G5
 70
     0
 10
0.0
 20
0.0
 30
0.0
  3
*G5
  1

  0
INSERT
  5
FC
100
AcDbEntity
  8
0
  6
CONTINUOUS
 62
   214
100
AcDbBlockReference
  2
*G6
 10
0.0
 20
0.0
 30
0.0
  0
CIRCLE
  5
FD
100
AcDbEntity
  8
3
  6
CONTINUOUS
 62
   214
100
AcDbCircle
 10
245.600386
 20
359.241834
 30
0.0
 40
2.0
  0
CIRCLE
  5
FE
100
AcDbEntity
  8
3
  6
CONTINUOUS
 62
   214
100
AcDbCircle
 10
245.600386
 20
359.241834
 30
0.0
 40
1.65
  0
CIRCLE
  5
FF
100
AcDbEntity
  8
3
  6
CONTINUOUS
 62
   214
100
AcDbCircle
 10
245.600386
 20
359.241834
 30
0.0
 40
3.464707
  0
ENDBLK
  5
100
100
AcDbEntity
  8
0
100
AcDbBlockEnd
  0
BLOCK
  5
F4
100
AcDbEntity
  8
0
  6
CONTINUOUS
 62
   214
100
AcDbBlockBegin
  2
*G6
 70
     0
 10
0.0
 20
0.0
 30
0.0
  3
*G6
  1

  0
LINE
  5
F5
100
AcDbEntity
  8
3
  6
CONTINUOUS
 62
   214
100
AcDbLine
 10
245.600386
 20
363.241835
 30
0.0
 11
242.136284
 21
361.241835
 31
0.0
  0
LINE
  5
F6
100
AcDbEntity
  8
3
  6
CONTINUOUS
 62
   214
100
AcDbLine
 10
242.136284
 20
361.241835
 30
0.0
 11
242.136284
 21
357.241834
 31
0.0
  0
LINE
  5
F7
100
AcDbEntity
  8
3
  6
CONTINUOUS
 62
   214
100
AcDbLine
 10
242.136284
 20
357.241834
 30
0.0
 11
245.600386
 21
355.241834
 31
0.0
  0
LINE
  5
F8
100
AcDbEntity
  8
3
  6
CONTINUOUS
 62
   214
100
AcDbLine
 10
245.600386
 20
355.241834
 30
0.0
 11
249.064488
 21
357.241834
 31
0.0
  0
LINE
  5
F9
100
AcDbEntity
  8
3
  6
CONTINUOUS
 62
   214
100
AcDbLine
 10
249.064488
 20
357.241834
 30
0.0
 11
249.064488
 21
361.241835
 31
0.0
  0
LINE
  5
FA
100
AcDbEntity
  8
3
  6
CONTINUOUS
 62
   214
100
AcDbLine
 10
249.064488
 20
361.241835
 30
0.0
 11
245.600386
 21
363.241835
 31
0.0
  0
ENDBLK
  5
FB
100
AcDbEntity
  8
0
100
AcDbBlockEnd
  0
BLOCK
  5
1B3
100
AcDbEntity
  8
2
  6
CONTINUOUS
 62
   134
100
AcDbBlockBegin
  2
*D7
 70
     0
 10
0.0
 20
0.0
 30
0.0
  3
*D7
  1

  0
LINE
  5
1B4
100
AcDbEntity
  8
2
  6
CONTINUOUS
 62
   134
100
AcDbLine
 10
585.815554
 20
185.522201
 30
0.0
 11
645.815554
 21
185.522201
 31
0.0
  0
LINE
  5
1B5
100
AcDbEntity
  8
2
  6
CONTINUOUS
 62
   134
100
AcDbLine
 10
585.815554
 20
183.522201
 30
0.0
 11
585.815554
 21
197.022201
 31
0.0
  0
LINE
  5
1B6
100
AcDbEntity
  8
2
  6
CONTINUOUS
 62
   134
100
AcDbLine
 10
645.815554
 20
183.522201
 30
0.0
 11
645.815554
 21
197.022201
 31
0.0
  0
LINE
  5
1B7
100
AcDbEntity
  8
2
  6
CONTINUOUS
 62
   134
100
AcDbLine
 10
585.815554
 20
185.522201
 30
0.0
 11
589.679257
 21
186.557477
 31
0.0
  0
LINE
  5
1B8
100
AcDbEntity
  8
2
  6
CONTINUOUS
 62
   134
100
AcDbLine
 10
585.815554
 20
185.522201
 30
0.0
 11
589.679257
 21
184.486925
 31
0.0
  0
LINE
  5
1B9
100
AcDbEntity
  8
2
  6
CONTINUOUS
 62
   134
100
AcDbLine
 10
645.815554
 20
185.522201
 30
0.0
 11
641.95185
 21
184.486925
 31
0.0
  0
LINE
  5
1BA
100
AcDbEntity
  8
2
  6
CONTINUOUS
 62
   134
100
AcDbLine
 10
645.815554
 20
185.522201
 30
0.0
 11
641.95185
 21
186.557477
 31
0.0
  0
TEXT
  5
1BB
100
AcDbEntity
  8
2
  6
CONTINUOUS
 62
   134
100
AcDbText
 10
613.815554
 20
185.522201
 30
0.0
 40
4.0
  1
60
 41
0.5
 11
613.815554
 21
185.522201
 31
0.0
100
AcDbText
 73
     1
  0
ENDBLK
  5
1BC
100
AcDbEntity
  8
2
  6
CONTINUOUS
 62
   134
100
AcDbBlockEnd
  0
BLOCK
  5
1BF
100
AcDbEntity
  8
2
  6
CONTINUOUS
 62
   134
100
AcDbBlockBegin
  2
*D8
 70
     0
 10
0.0
 20
0.0
 30
0.0
  3
*D8
  1

  0
LINE
  5
1C0
100
AcDbEntity
  8
2
  6
CONTINUOUS
 62
   134
100
AcDbLine
 10
420.100386
 20
185.522201
 30
0.0
 11
191.100386
 21
185.522201
 31
0.0
  0
LINE
  5
1C1
100
AcDbEntity
  8
2
  6
CONTINUOUS
 62
   134
100
AcDbLine
 10
420.100386
 20
183.522201
 30
0.0
 11
420.100386
 21
197.022201
 31
0.0
  0
LINE
  5
1C2
100
AcDbEntity
  8
2
  6
CONTINUOUS
 62
   134
100
AcDbLine
 10
191.100386
 20
183.522201
 30
0.0
 11
191.100386
 21
197.022201
 31
0.0
  0
LINE
  5
1C3
100
AcDbEntity
  8
2
  6
CONTINUOUS
 62
   134
100
AcDbLine
 10
420.100386
 20
185.522201
 30
0.0
 11
416.236683
 21
184.486925
 31
0.0
  0
LINE
  5
1C4
100
AcDbEntity
  8
2
  6
CONTINUOUS
 62
   134
100
AcDbLine
 10
420.100386
 20
185.522201
 30
0.0
 11
416.236683
 21
186.557477
 31
0.0
  0
LINE
  5
1C5
100
AcDbEntity
  8
2
  6
CONTINUOUS
 62
   134
100
AcDbLine
 10
191.100386
 20
185.522201
 30
0.0
 11
194.964089
 21
186.557477
 31
0.0
  0
LINE
  5
1C6
100
AcDbEntity
  8
2
  6
CONTINUOUS
 62
   134
100
AcDbLine
 10
191.100386
 20
185.522201
 30
0.0
 11
194.964089
 21
184.486925
 31
0.0
  0
TEXT
  5
1C7
100
AcDbEntity
  8
2
  6
CONTINUOUS
 62
   134
100
AcDbText
 10
302.600386
 20
185.522201
 30
0.0
 40
4.0
  1
229
 41
0.5
 11
302.600386
 21
185.522201
 31
0.0
100
AcDbText
 73
     1
  0
ENDBLK
  5
1C8
100
AcDbEntity
  8
2
  6
CONTINUOUS
 62
   134
100
AcDbBlockEnd
  0
BLOCK
  5
1CB
100
AcDbEntity
  8
2
  6
CONTINUOUS
 62
   134
100
AcDbBlockBegin
  2
*D9
 70
     0
 10
0.0
 20
0.0
 30
0.0
  3
*D9
  1

  0
LINE
  5
1CC
100
AcDbEntity
  8
2
  6
CONTINUOUS
 62
   134
100
AcDbLine
 10
432.100386
 20
197.522201
 30
0.0
 11
432.100386
 21
271.522201
 31
0.0
  0
LINE
  5
1CD
100
AcDbEntity
  8
2
  6
CONTINUOUS
 62
   134
100
AcDbLine
 10
434.100386
 20
197.522201
 30
0.0
 11
420.600386
 21
197.522201
 31
0.0
  0
LINE
  5
1CE
100
AcDbEntity
  8
2
  6
CONTINUOUS
 62
   134
100
AcDbLine
 10
434.100386
 20
271.522201
 30
0.0
 11
400.600386
 21
271.522201
 31
0.0
  0
LINE
  5
1CF
100
AcDbEntity
  8
2
  6
CONTINUOUS
 62
   134
100
AcDbLine
 10
432.100386
 20
197.522201
 30
0.0
 11
431.06511
 21
201.385904
 31
0.0
  0
LINE
  5
1D0
100
AcDbEntity
  8
2
  6
CONTINUOUS
 62
   134
100
AcDbLine
 10
432.100386
 20
197.522201
 30
0.0
 11
433.135662
 21
201.385904
 31
0.0
  0
LINE
  5
1D1
100
AcDbEntity
  8
2
  6
CONTINUOUS
 62
   134
100
AcDbLine
 10
432.100386
 20
271.522201
 30
0.0
 11
433.135662
 21
267.658497
 31
0.0
  0
LINE
  5
1D2
100
AcDbEntity
  8
2
  6
CONTINUOUS
 62
   134
100
AcDbLine
 10
432.100386
 20
271.522201
 30
0.0
 11
431.06511
 21
267.658497
 31
0.0
  0
TEXT
  5
1D3
100
AcDbEntity
  8
2
  6
CONTINUOUS
 62
   134
100
AcDbText
 10
432.100386
 20
232.522201
 30
0.0
 40
4.0
  1
74
 50
90.0
 41
0.5
 11
432.100386
 21
232.522201
 31
0.0
100
AcDbText
 73
     1
  0
ENDBLK
  5
1D4
100
AcDbEntity
  8
2
  6
CONTINUOUS
 62
   134
100
AcDbBlockEnd
  0
ENDSEC
  0
SECTION
  2
ENTITIES
  0
INSERT
  5
3C
100
AcDbEntity
  8
0
  6
CONTINUOUS
 62
     7
100
AcDbBlockReference
  2
*G0
 10
0.0
 20
0.0
 30
0.0
  0
LINE
  5
3D
100
AcDbEntity
  8
3
  6
CONTINUOUS
 62
   214
100
AcDbLine
 10
366.000386
 20
464.363224
 30
0.0
 11
365.200386
 21
464.363224
 31
0.0
  0
LINE
  5
3E
100
AcDbEntity
  8
3
  6
CONTINUOUS
 62
   214
100
AcDbLine
 10
362.100386
 20
462.293777
 30
0.0
 11
362.100386
 21
462.063224
 31
0.0
  0
ARC
  5
3F
100
AcDbEntity
  8
3
  6
CONTINUOUS
 62
   214
100
AcDbCircle
 10
365.600386
 20
460.696558
 30
0.0
 40
3.966667
100
AcDbArc
 50
95.787563
 51
147.425982
  0
ARC
  5
40
100
AcDbEntity
  8
3
  6
CONTINUOUS
 62
   214
100
AcDbCircle
 10
363.100386
 20
462.293777
 30
0.0
 40
1.0
100
AcDbArc
 50
147.425982
 51
180.0
  0
ARC
  5
41
100
AcDbEntity
  8
3
  6
CONTINUOUS
 62
   214
100
AcDbCircle
 10
365.600386
 20
460.696558
 30
0.0
 40
3.966667
100
AcDbArc
 50
32.574018
 51
84.212437
  0
LINE
  5
42
100
AcDbEntity
  8
3
  6
CONTINUOUS
 62
   214
100
AcDbLine
 10
369.100386
 20
462.293777
 30
0.0
 11
369.100386
 21
462.063224
 31
0.0
  0
ARC
  5
43
100
AcDbEntity
  8
3
  6
CONTINUOUS
 62
   214
100
AcDbCircle
 10
368.100386
 20
462.293777
 30
0.0
 40
1.0
100
AcDbArc
 50
0.0
 51
32.574018
  0
LINE
  5
44
100
AcDbEntity
  8
3
  6
CONTINUOUS
 62
   214
100
AcDbLine
 10
366.000386
 20
464.643005
 30
0.0
 11
366.000386
 21
464.363224
 31
0.0
  0
LINE
  5
45
100
AcDbEntity
  8
3
  6
CONTINUOUS
 62
   214
100
AcDbLine
 10
365.200386
 20
464.643005
 30
0.0
 11
365.200386
 21
464.363224
 31
0.0
  0
LINE
  5
46
100
AcDbEntity
  8
3
  6
CONTINUOUS
 62
   214
100
AcDbLine
 10
369.600386
 20
458.563224
 30
0.0
 11
369.600386
 21
455.363224
 31
0.0
  0
LINE
  5
47
100
AcDbEntity
  8
3
  6
CONTINUOUS
 62
   214
100
AcDbLine
 10
369.600386
 20
455.363224
 30
0.0
 11
361.600386
 21
455.363225
 31
0.0
  0
LINE
  5
48
100
AcDbEntity
  8
3
  6
CONTINUOUS
 62
   214
100
AcDbLine
 10
361.600386
 20
455.363225
 30
0.0
 11
361.600386
 21
458.563224
 31
0.0
  0
LINE
  5
49
100
AcDbEntity
  8
3
  6
CONTINUOUS
 62
   214
100
AcDbLine
 10
363.600386
 20
454.063224
 30
0.0
 11
363.600386
 21
458.563224
 31
0.0
  0
LINE
  5
4A
100
AcDbEntity
  8
3
  6
CONTINUOUS
 62
   214
100
AcDbLine
 10
367.350386
 20
455.363224
 30
0.0
 11
367.350386
 21
454.063224
 31
0.0
  0
LINE
  5
4B
100
AcDbEntity
  8
3
  6
CONTINUOUS
 62
   214
100
AcDbLine
 10
363.850386
 20
454.063224
 30
0.0
 11
363.850386
 21
455.363225
 31
0.0
  0
LINE
  5
4C
100
AcDbEntity
  8
3
  6
CENTER
 62
   214
100
AcDbLine
 10
365.600386
 20
453.333711
 30
0.0
 11
365.600386
 21
465.931887
 31
0.0
  0
LINE
  5
4D
100
AcDbEntity
  8
3
  6
CONTINUOUS
 62
   214
100
AcDbLine
 10
367.600386
 20
458.563224
 30
0.0
 11
367.600386
 21
454.063224
 31
0.0
  0
LINE
  5
4E
100
AcDbEntity
  8
3
  6
CONTINUOUS
 62
   214
100
AcDbLine
 10
367.600386
 20
454.063224
 30
0.0
 11
363.600386
 21
454.063224
 31
0.0
  0
LINE
  5
4F
100
AcDbEntity
  8
3
  6
CONTINUOUS
 62
   214
100
AcDbLine
 10
246.000386
 20
464.363224
 30
0.0
 11
245.200386
 21
464.363224
 31
0.0
  0
LINE
  5
50
100
AcDbEntity
  8
3
  6
CONTINUOUS
 62
   214
100
AcDbLine
 10
242.100386
 20
462.293777
 30
0.0
 11
242.100386
 21
462.063224
 31
0.0
  0
ARC
  5
51
100
AcDbEntity
  8
3
  6
CONTINUOUS
 62
   214
100
AcDbCircle
 10
245.600386
 20
460.696558
 30
0.0
 40
3.966667
100
AcDbArc
 50
95.787563
 51
147.425982
  0
ARC
  5
52
100
AcDbEntity
  8
3
  6
CONTINUOUS
 62
   214
100
AcDbCircle
 10
243.100386
 20
462.293777
 30
0.0
 40
1.0
100
AcDbArc
 50
147.425982
 51
180.0
  0
ARC
  5
53
100
AcDbEntity
  8
3
  6
CONTINUOUS
 62
   214
100
AcDbCircle
 10
245.600386
 20
460.696558
 30
0.0
 40
3.966667
100
AcDbArc
 50
32.574018
 51
84.212437
  0
LINE
  5
54
100
AcDbEntity
  8
3
  6
CONTINUOUS
 62
   214
100
AcDbLine
 10
249.100386
 20
462.293777
 30
0.0
 11
249.100386
 21
462.063224
 31
0.0
  0
ARC
  5
55
100
AcDbEntity
  8
3
  6
CONTINUOUS
 62
   214
100
AcDbCircle
 10
248.100386
 20
462.293777
 30
0.0
 40
1.0
100
AcDbArc
 50
0.0
 51
32.574018
  0
LINE
  5
56
100
AcDbEntity
  8
3
  6
CONTINUOUS
 62
   214
100
AcDbLine
 10
246.000386
 20
464.643005
 30
0.0
 11
246.000386
 21
464.363224
 31
0.0
  0
LINE
  5
57
100
AcDbEntity
  8
3
  6
CONTINUOUS
 62
   214
100
AcDbLine
 10
245.200386
 20
464.643005
 30
0.0
 11
245.200386
 21
464.363224
 31
0.0
  0
LINE
  5
58
100
AcDbEntity
  8
3
  6
CONTINUOUS
 62
   214
100
AcDbLine
 10
249.600386
 20
458.563224
 30
0.0
 11
249.600386
 21
455.363224
 31
0.0
  0
LINE
  5
59
100
AcDbEntity
  8
3
  6
CONTINUOUS
 62
   214
100
AcDbLine
 10
249.600386
 20
455.363224
 30
0.0
 11
241.600386
 21
455.363225
 31
0.0
  0
LINE
  5
5A
100
AcDbEntity
  8
3
  6
CONTINUOUS
 62
   214
100
AcDbLine
 10
241.600386
 20
455.363225
 30
0.0
 11
241.600386
 21
458.563224
 31
0.0
  0
LINE
  5
5B
100
AcDbEntity
  8
3
  6
CONTINUOUS
 62
   214
100
AcDbLine
 10
243.600386
 20
454.063224
 30
0.0
 11
243.600386
 21
458.563224
 31
0.0
  0
LINE
  5
5C
100
AcDbEntity
  8
3
  6
CONTINUOUS
 62
   214
100
AcDbLine
 10
247.350386
 20
455.363224
 30
0.0
 11
247.350386
 21
454.063224
 31
0.0
  0
LINE
  5
5D
100
AcDbEntity
  8
3
  6
CONTINUOUS
 62
   214
100
AcDbLine
 10
243.850386
 20
454.063224
 30
0.0
 11
243.850386
 21
455.363225
 31
0.0
  0
LINE
  5
5E
100
AcDbEntity
  8
3
  6
CENTER
 62
   214
100
AcDbLine
 10
245.600386
 20
453.333711
 30
0.0
 11
245.600386
 21
465.931887
 31
0.0
  0
LINE
  5
5F
100
AcDbEntity
  8
3
  6
CONTINUOUS
 62
   214
100
AcDbLine
 10
247.600386
 20
458.563224
 30
0.0
 11
247.600386
 21
454.063224
 31
0.0
  0
LINE
  5
60
100
AcDbEntity
  8
3
  6
CONTINUOUS
 62
   214
100
AcDbLine
 10
247.600386
 20
454.063224
 30
0.0
 11
243.600386
 21
454.063224
 31
0.0
  0
LINE
  5
61
100
AcDbEntity
  8
3
  6
CONTINUOUS
 62
   214
100
AcDbLine
 10
220.600386
 20
537.313224
 30
0.0
 11
390.600386
 21
537.313224
 31
0.0
  0
LINE
  5
62
100
AcDbEntity
  8
3
  6
HIDDEN
 62
   214
100
AcDbLine
 10
396.600386
 20
469.313224
 30
0.0
 11
214.600386
 21
469.313224
 31
0.0
  0
LINE
  5
63
100
AcDbEntity
  8
3
  6
HIDDEN
 62
   214
100
AcDbLine
 10
396.600386
 20
529.313224
 30
0.0
 11
214.600386
 21
529.313224
 31
0.0
  0
LINE
  5
64
100
AcDbEntity
  8
3
  6
CENTER
 62
   214
100
AcDbLine
 10
405.054934
 20
499.313224
 30
0.0
 11
200.624097
 21
499.313224
 31
0.0
  0
LINE
  5
65
100
AcDbEntity
  8
3
  6
CONTINUOUS
 62
   214
100
AcDbLine
 10
205.600386
 20
460.063224
 30
0.0
 11
405.600386
 21
460.063224
 31
0.0
  0
LINE
  5
66
100
AcDbEntity
  8
3
  6
CONTINUOUS
 62
   214
100
AcDbLine
 10
405.600386
 20
462.063224
 30
0.0
 11
205.600386
 21
462.063224
 31
0.0
  0
LINE
  5
67
100
AcDbEntity
  8
3
  6
CONTINUOUS
 62
   214
100
AcDbLine
 10
405.600386
 20
458.563224
 30
0.0
 11
205.600386
 21
458.563224
 31
0.0
  0
LINE
  5
68
100
AcDbEntity
  8
3
  6
CONTINUOUS
 62
   214
100
AcDbLine
 10
418.100386
 20
529.313224
 30
0.0
 11
420.100386
 21
527.313224
 31
0.0
  0
LINE
  5
69
100
AcDbEntity
  8
3
  6
CONTINUOUS
 62
   214
100
AcDbLine
 10
420.100386
 20
527.313224
 30
0.0
 11
420.100386
 21
471.313224
 31
0.0
  0
LINE
  5
6A
100
AcDbEntity
  8
3
  6
CONTINUOUS
 62
   214
100
AcDbLine
 10
420.100386
 20
471.313224
 30
0.0
 11
418.100386
 21
469.313224
 31
0.0
  0
LINE
  5
6B
100
AcDbEntity
  8
3
  6
CENTER
 62
   214
100
AcDbLine
 10
407.190623
 20
521.313224
 30
0.0
 11
417.010149
 21
521.313224
 31
0.0
  0
LINE
  5
6C
100
AcDbEntity
  8
3
  6
CENTER
 62
   214
100
AcDbLine
 10
412.100386
 20
526.222987
 30
0.0
 11
412.100386
 21
516.403461
 31
0.0
  0
CIRCLE
  5
6D
100
AcDbEntity
  8
3
  6
CONTINUOUS
 62
   214
100
AcDbCircle
 10
412.100386
 20
521.313224
 30
0.0
 40
3.25
  0
LINE
  5
6E
100
AcDbEntity
  8
3
  6
CENTER
 62
   214
100
AcDbLine
 10
407.190623
 20
477.313224
 30
0.0
 11
417.010149
 21
477.313224
 31
0.0
  0
LINE
  5
6F
100
AcDbEntity
  8
3
  6
CENTER
 62
   214
100
AcDbLine
 10
412.100386
 20
482.222987
 30
0.0
 11
412.100386
 21
472.403461
 31
0.0
  0
CIRCLE
  5
70
100
AcDbEntity
  8
3
  6
CONTINUOUS
 62
   214
100
AcDbCircle
 10
412.100386
 20
477.313224
 30
0.0
 40
3.25
  0
LINE
  5
71
100
AcDbEntity
  8
3
  6
CONTINUOUS
 62
   214
100
AcDbLine
 10
396.600386
 20
462.813224
 30
0.0
 11
392.100386
 21
462.813224
 31
0.0
  0
LINE
  5
72
100
AcDbEntity
  8
3
  6
CONTINUOUS
 62
   214
100
AcDbLine
 10
392.100386
 20
535.813224
 30
0.0
 11
396.600386
 21
535.813224
 31
0.0
  0
LINE
  5
73
100
AcDbEntity
  8
3
  6
CONTINUOUS
 62
   214
100
AcDbLine
 10
392.100386
 20
462.813224
 30
0.0
 11
390.600386
 21
467.313224
 31
0.0
  0
LINE
  5
74
100
AcDbEntity
  8
3
  6
CONTINUOUS
 62
   214
100
AcDbLine
 10
390.600386
 20
531.313224
 30
0.0
 11
392.100386
 21
535.813224
 31
0.0
  0
LINE
  5
75
100
AcDbEntity
  8
3
  6
CONTINUOUS
 62
   214
100
AcDbLine
 10
400.100386
 20
529.313224
 30
0.0
 11
400.100386
 21
469.313224
 31
0.0
  0
LINE
  5
76
100
AcDbEntity
  8
3
  6
CONTINUOUS
 62
   214
100
AcDbLine
 10
398.100386
 20
469.313224
 30
0.0
 11
398.100386
 21
529.313224
 31
0.0
  0
LINE
  5
77
100
AcDbEntity
  8
3
  6
CONTINUOUS
 62
   214
100
AcDbLine
 10
392.100386
 20
535.813224
 30
0.0
 11
392.100386
 21
462.813224
 31
0.0
  0
LINE
  5
78
100
AcDbEntity
  8
3
  6
CONTINUOUS
 62
   214
100
AcDbLine
 10
396.600386
 20
462.813224
 30
0.0
 11
396.600386
 21
535.813224
 31
0.0
  0
LINE
  5
79
100
AcDbEntity
  8
3
  6
CONTINUOUS
 62
   214
100
AcDbLine
 10
418.100386
 20
529.313224
 30
0.0
 11
396.600386
 21
529.313224
 31
0.0
  0
LINE
  5
7A
100
AcDbEntity
  8
3
  6
CONTINUOUS
 62
   214
100
AcDbLine
 10
418.100386
 20
469.313224
 30
0.0
 11
396.600386
 21
469.313224
 31
0.0
  0
LINE
  5
7B
100
AcDbEntity
  8
3
  6
CONTINUOUS
 62
   214
100
AcDbLine
 10
401.700386
 20
493.313224
 30
0.0
 11
403.100386
 21
493.313224
 31
0.0
  0
LINE
  5
7C
100
AcDbEntity
  8
3
  6
CONTINUOUS
 62
   214
100
AcDbLine
 10
400.600386
 20
493.313224
 30
0.0
 11
400.100386
 21
493.313224
 31
0.0
  0
LINE
  5
7D
100
AcDbEntity
  8
3
  6
CONTINUOUS
 62
   214
100
AcDbLine
 10
398.100386
 20
493.313224
 30
0.0
 11
397.600386
 21
493.313224
 31
0.0
  0
LINE
  5
7E
100
AcDbEntity
  8
3
  6
CONTINUOUS
 62
   214
100
AcDbLine
 10
398.100386
 20
505.313224
 30
0.0
 11
397.600386
 21
505.313224
 31
0.0
  0
LINE
  5
7F
100
AcDbEntity
  8
3
  6
CONTINUOUS
 62
   214
100
AcDbLine
 10
401.700386
 20
503.813224
 30
0.0
 11
401.700386
 21
493.313224
 31
0.0
  0
LINE
  5
80
100
AcDbEntity
  8
3
  6
CONTINUOUS
 62
   214
100
AcDbLine
 10
403.100386
 20
493.313224
 30
0.0
 11
403.100386
 21
503.813224
 31
0.0
  0
LINE
  5
81
100
AcDbEntity
  8
3
  6
CONTINUOUS
 62
   214
100
AcDbLine
 10
400.600386
 20
506.313224
 30
0.0
 11
400.600386
 21
492.313224
 31
0.0
  0
LINE
  5
82
100
AcDbEntity
  8
3
  6
CONTINUOUS
 62
   214
100
AcDbLine
 10
400.600386
 20
506.313224
 30
0.0
 11
401.600386
 21
506.313224
 31
0.0
  0
LINE
  5
83
100
AcDbEntity
  8
3
  6
CONTINUOUS
 62
   214
100
AcDbLine
 10
401.600386
 20
506.313224
 30
0.0
 11
401.600386
 21
492.313224
 31
0.0
  0
LINE
  5
84
100
AcDbEntity
  8
3
  6
CONTINUOUS
 62
   214
100
AcDbLine
 10
401.600386
 20
492.313224
 30
0.0
 11
400.600386
 21
492.313224
 31
0.0
  0
LINE
  5
85
100
AcDbEntity
  8
3
  6
CONTINUOUS
 62
   214
100
AcDbLine
 10
401.700386
 20
493.913224
 30
0.0
 11
401.600386
 21
493.913224
 31
0.0
  0
LINE
  5
86
100
AcDbEntity
  8
3
  6
CONTINUOUS
 62
   214
100
AcDbLine
 10
403.100386
 20
503.813224
 30
0.0
 11
401.600386
 21
503.813224
 31
0.0
  0
LINE
  5
87
100
AcDbEntity
  8
3
  6
CONTINUOUS
 62
   214
100
AcDbLine
 10
400.600386
 20
503.813224
 30
0.0
 11
400.100386
 21
503.813224
 31
0.0
  0
LINE
  5
88
100
AcDbEntity
  8
3
  6
CONTINUOUS
 62
   214
100
AcDbLine
 10
396.600386
 20
509.313224
 30
0.0
 11
397.600386
 21
509.313224
 31
0.0
  0
LINE
  5
89
100
AcDbEntity
  8
3
  6
CONTINUOUS
 62
   214
100
AcDbLine
 10
397.600386
 20
509.313224
 30
0.0
 11
397.600386
 21
489.313224
 31
0.0
  0
LINE
  5
8A
100
AcDbEntity
  8
3
  6
CONTINUOUS
 62
   214
100
AcDbLine
 10
397.600386
 20
489.313224
 30
0.0
 11
396.600386
 21
489.313224
 31
0.0
  0
LINE
  5
8B
100
AcDbEntity
  8
3
  6
CONTINUOUS
 62
   214
100
AcDbLine
 10
405.600386
 20
458.563224
 30
0.0
 11
405.600386
 21
462.063224
 31
0.0
  0
LINE
  5
8C
100
AcDbEntity
  8
3
  6
CONTINUOUS
 62
   214
100
AcDbLine
 10
390.600386
 20
462.063224
 30
0.0
 11
390.600386
 21
537.313224
 31
0.0
  0
LINE
  5
8D
100
AcDbEntity
  8
3
  6
CONTINUOUS
 62
   214
100
AcDbLine
 10
193.100386
 20
529.313224
 30
0.0
 11
191.100386
 21
527.313224
 31
0.0
  0
LINE
  5
8E
100
AcDbEntity
  8
3
  6
CONTINUOUS
 62
   214
100
AcDbLine
 10
191.100386
 20
527.313224
 30
0.0
 11
191.100386
 21
471.313224
 31
0.0
  0
LINE
  5
8F
100
AcDbEntity
  8
3
  6
CONTINUOUS
 62
   214
100
AcDbLine
 10
193.100386
 20
469.313224
 30
0.0
 11
191.100386
 21
471.313224
 31
0.0
  0
LINE
  5
90
100
AcDbEntity
  8
3
  6
CENTER
 62
   214
100
AcDbLine
 10
194.190623
 20
477.313224
 30
0.0
 11
204.010149
 21
477.313224
 31
0.0
  0
LINE
  5
91
100
AcDbEntity
  8
3
  6
CENTER
 62
   214
100
AcDbLine
 10
199.100386
 20
482.222987
 30
0.0
 11
199.100386
 21
472.403461
 31
0.0
  0
CIRCLE
  5
92
100
AcDbEntity
  8
3
  6
CONTINUOUS
 62
   214
100
AcDbCircle
 10
199.100386
 20
477.313224
 30
0.0
 40
3.25
  0
LINE
  5
93
100
AcDbEntity
  8
3
  6
CENTER
 62
   214
100
AcDbLine
 10
194.190623
 20
521.313224
 30
0.0
 11
204.010149
 21
521.313224
 31
0.0
  0
LINE
  5
94
100
AcDbEntity
  8
3
  6
CENTER
 62
   214
100
AcDbLine
 10
199.100386
 20
526.222987
 30
0.0
 11
199.100386
 21
516.403461
 31
0.0
  0
CIRCLE
  5
95
100
AcDbEntity
  8
3
  6
CONTINUOUS
 62
   214
100
AcDbCircle
 10
199.100386
 20
521.313224
 30
0.0
 40
3.25
  0
LINE
  5
96
100
AcDbEntity
  8
3
  6
CONTINUOUS
 62
   214
100
AcDbLine
 10
214.600386
 20
462.813224
 30
0.0
 11
219.100386
 21
462.813224
 31
0.0
  0
LINE
  5
97
100
AcDbEntity
  8
3
  6
CONTINUOUS
 62
   214
100
AcDbLine
 10
219.100386
 20
535.813224
 30
0.0
 11
214.600386
 21
535.813224
 31
0.0
  0
LINE
  5
98
100
AcDbEntity
  8
3
  6
CONTINUOUS
 62
   214
100
AcDbLine
 10
219.100386
 20
462.813224
 30
0.0
 11
220.600386
 21
467.313224
 31
0.0
  0
LINE
  5
99
100
AcDbEntity
  8
3
  6
CONTINUOUS
 62
   214
100
AcDbLine
 10
220.600386
 20
531.313224
 30
0.0
 11
219.100386
 21
535.813224
 31
0.0
  0
LINE
  5
9A
100
AcDbEntity
  8
3
  6
CONTINUOUS
 62
   214
100
AcDbLine
 10
220.600386
 20
467.313224
 30
0.0
 11
220.600386
 21
469.313224
 31
0.0
  0
LINE
  5
9B
100
AcDbEntity
  8
3
  6
CONTINUOUS
 62
   214
100
AcDbLine
 10
220.600386
 20
529.313224
 30
0.0
 11
220.600386
 21
531.313224
 31
0.0
  0
LINE
  5
9C
100
AcDbEntity
  8
3
  6
CONTINUOUS
 62
   214
100
AcDbLine
 10
211.100386
 20
529.313224
 30
0.0
 11
211.100386
 21
469.313224
 31
0.0
  0
LINE
  5
9D
100
AcDbEntity
  8
3
  6
CONTINUOUS
 62
   214
100
AcDbLine
 10
213.100386
 20
529.313224
 30
0.0
 11
213.100386
 21
469.313224
 31
0.0
  0
LINE
  5
9E
100
AcDbEntity
  8
3
  6
CONTINUOUS
 62
   214
100
AcDbLine
 10
214.600386
 20
535.813224
 30
0.0
 11
214.600386
 21
462.813224
 31
0.0
  0
LINE
  5
9F
100
AcDbEntity
  8
3
  6
CONTINUOUS
 62
   214
100
AcDbLine
 10
219.100386
 20
462.813224
 30
0.0
 11
219.100386
 21
535.813224
 31
0.0
  0
LINE
  5
A0
100
AcDbEntity
  8
3
  6
CONTINUOUS
 62
   214
100
AcDbLine
 10
214.600386
 20
529.313224
 30
0.0
 11
193.100386
 21
529.313224
 31
0.0
  0
LINE
  5
A1
100
AcDbEntity
  8
3
  6
CONTINUOUS
 62
   214
100
AcDbLine
 10
214.600386
 20
469.313224
 30
0.0
 11
193.100386
 21
469.313224
 31
0.0
  0
LINE
  5
A2
100
AcDbEntity
  8
3
  6
CONTINUOUS
 62
   214
100
AcDbLine
 10
208.100386
 20
505.313224
 30
0.0
 11
209.500386
 21
505.313224
 31
0.0
  0
LINE
  5
A3
100
AcDbEntity
  8
3
  6
CONTINUOUS
 62
   214
100
AcDbLine
 10
209.500386
 20
505.313224
 30
0.0
 11
209.500386
 21
493.313224
 31
0.0
  0
LINE
  5
A4
100
AcDbEntity
  8
3
  6
CONTINUOUS
 62
   214
100
AcDbLine
 10
209.500386
 20
493.313224
 30
0.0
 11
208.100386
 21
493.313224
 31
0.0
  0
LINE
  5
A5
100
AcDbEntity
  8
3
  6
CONTINUOUS
 62
   214
100
AcDbLine
 10
208.100386
 20
493.313224
 30
0.0
 11
208.100386
 21
505.313224
 31
0.0
  0
LINE
  5
A6
100
AcDbEntity
  8
3
  6
CONTINUOUS
 62
   214
100
AcDbLine
 10
210.600386
 20
505.313224
 30
0.0
 11
211.100386
 21
505.313224
 31
0.0
  0
LINE
  5
A7
100
AcDbEntity
  8
3
  6
CONTINUOUS
 62
   214
100
AcDbLine
 10
210.600386
 20
493.313224
 30
0.0
 11
211.100386
 21
493.313224
 31
0.0
  0
LINE
  5
A8
100
AcDbEntity
  8
3
  6
CONTINUOUS
 62
   214
100
AcDbLine
 10
213.100386
 20
493.313224
 30
0.0
 11
213.600386
 21
493.313224
 31
0.0
  0
LINE
  5
A9
100
AcDbEntity
  8
3
  6
CONTINUOUS
 62
   214
100
AcDbLine
 10
213.100386
 20
505.313224
 30
0.0
 11
213.600386
 21
505.313224
 31
0.0
  0
LINE
  5
AA
100
AcDbEntity
  8
3
  6
CONTINUOUS
 62
   214
100
AcDbLine
 10
209.600386
 20
492.313224
 30
0.0
 11
209.600386
 21
506.313224
 31
0.0
  0
LINE
  5
AB
100
AcDbEntity
  8
3
  6
CONTINUOUS
 62
   214
100
AcDbLine
 10
210.600386
 20
506.313224
 30
0.0
 11
210.600386
 21
492.313224
 31
0.0
  0
LINE
  5
AC
100
AcDbEntity
  8
3
  6
CONTINUOUS
 62
   214
100
AcDbLine
 10
209.600386
 20
492.313224
 30
0.0
 11
210.600386
 21
492.313224
 31
0.0
  0
LINE
  5
AD
100
AcDbEntity
  8
3
  6
CONTINUOUS
 62
   214
100
AcDbLine
 10
209.500386
 20
493.913224
 30
0.0
 11
209.600386
 21
493.913224
 31
0.0
  0
LINE
  5
AE
100
AcDbEntity
  8
3
  6
CONTINUOUS
 62
   214
100
AcDbLine
 10
209.500386
 20
504.713224
 30
0.0
 11
209.600386
 21
504.713224
 31
0.0
  0
LINE
  5
AF
100
AcDbEntity
  8
3
  6
CONTINUOUS
 62
   214
100
AcDbLine
 10
209.600386
 20
506.313224
 30
0.0
 11
210.600386
 21
506.313224
 31
0.0
  0
LINE
  5
B0
100
AcDbEntity
  8
3
  6
CONTINUOUS
 62
   214
100
AcDbLine
 10
214.600386
 20
509.313224
 30
0.0
 11
213.600386
 21
509.313224
 31
0.0
  0
LINE
  5
B1
100
AcDbEntity
  8
3
  6
CONTINUOUS
 62
   214
100
AcDbLine
 10
213.600386
 20
509.313224
 30
0.0
 11
213.600386
 21
489.313224
 31
0.0
  0
LINE
  5
B2
100
AcDbEntity
  8
3
  6
CONTINUOUS
 62
   214
100
AcDbLine
 10
213.600386
 20
489.313224
 30
0.0
 11
214.600386
 21
489.313224
 31
0.0
  0
LINE
  5
B3
100
AcDbEntity
  8
3
  6
CONTINUOUS
 62
   214
100
AcDbLine
 10
205.600386
 20
458.563224
 30
0.0
 11
205.600386
 21
462.063224
 31
0.0
  0
LINE
  5
B4
100
AcDbEntity
  8
3
  6
CONTINUOUS
 62
   214
100
AcDbLine
 10
220.600386
 20
537.313224
 30
0.0
 11
220.600386
 21
462.063224
 31
0.0
  0
LINE
  5
B5
100
AcDbEntity
  8
3
  6
CONTINUOUS
 62
   214
100
AcDbLine
 10
306.000386
 20
464.363224
 30
0.0
 11
305.200386
 21
464.363224
 31
0.0
  0
LINE
  5
B6
100
AcDbEntity
  8
3
  6
CENTER
 62
   214
100
AcDbLine
 10
305.600386
 20
453.333711
 30
0.0
 11
305.600386
 21
543.451724
 31
0.0
  0
LINE
  5
B7
100
AcDbEntity
  8
3
  6
CENTER
 62
   214
100
AcDbLine
 10
300.690623
 20
521.313224
 30
0.0
 11
310.510149
 21
521.313224
 31
0.0
  0
LINE
  5
B8
100
AcDbEntity
  8
3
  6
CENTER
 62
   214
100
AcDbLine
 10
300.690623
 20
477.313224
 30
0.0
 11
310.510149
 21
477.313224
 31
0.0
  0
CIRCLE
  5
B9
100
AcDbEntity
  8
3
  6
HIDDEN
 62
   214
100
AcDbCircle
 10
305.600386
 20
477.313224
 30
0.0
 40
3.25
  0
CIRCLE
  5
BA
100
AcDbEntity
  8
3
  6
HIDDEN
 62
   214
100
AcDbCircle
 10
305.600386
 20
521.313224
 30
0.0
 40
3.25
  0
LINE
  5
BB
100
AcDbEntity
  8
3
  6
CONTINUOUS
 62
   214
100
AcDbLine
 10
302.100386
 20
462.293777
 30
0.0
 11
302.100386
 21
462.063224
 31
0.0
  0
ARC
  5
BC
100
AcDbEntity
  8
3
  6
CONTINUOUS
 62
   214
100
AcDbCircle
 10
305.600386
 20
460.696558
 30
0.0
 40
3.966667
100
AcDbArc
 50
95.787563
 51
147.425982
  0
ARC
  5
BD
100
AcDbEntity
  8
3
  6
CONTINUOUS
 62
   214
100
AcDbCircle
 10
303.100386
 20
462.293777
 30
0.0
 40
1.0
100
AcDbArc
 50
147.425982
 51
180.0
  0
ARC
  5
BE
100
AcDbEntity
  8
3
  6
CONTINUOUS
 62
   214
100
AcDbCircle
 10
305.600386
 20
460.696558
 30
0.0
 40
3.966667
100
AcDbArc
 50
32.574018
 51
84.212437
  0
LINE
  5
BF
100
AcDbEntity
  8
3
  6
CONTINUOUS
 62
   214
100
AcDbLine
 10
309.100386
 20
462.293777
 30
0.0
 11
309.100386
 21
462.063224
 31
0.0
  0
ARC
  5
C0
100
AcDbEntity
  8
3
  6
CONTINUOUS
 62
   214
100
AcDbCircle
 10
308.100386
 20
462.293777
 30
0.0
 40
1.0
100
AcDbArc
 50
0.0
 51
32.574018
  0
LINE
  5
C1
100
AcDbEntity
  8
3
  6
CONTINUOUS
 62
   214
100
AcDbLine
 10
306.000386
 20
464.643005
 30
0.0
 11
306.000386
 21
464.363224
 31
0.0
  0
LINE
  5
C2
100
AcDbEntity
  8
3
  6
CONTINUOUS
 62
   214
100
AcDbLine
 10
305.200386
 20
464.643005
 30
0.0
 11
305.200386
 21
464.363224
 31
0.0
  0
LINE
  5
C3
100
AcDbEntity
  8
3
  6
CONTINUOUS
 62
   214
100
AcDbLine
 10
309.600386
 20
458.563224
 30
0.0
 11
309.600386
 21
455.363224
 31
0.0
  0
LINE
  5
C4
100
AcDbEntity
  8
3
  6
CONTINUOUS
 62
   214
100
AcDbLine
 10
309.600386
 20
455.363224
 30
0.0
 11
301.600386
 21
455.363225
 31
0.0
  0
LINE
  5
C5
100
AcDbEntity
  8
3
  6
CONTINUOUS
 62
   214
100
AcDbLine
 10
301.600386
 20
455.363225
 30
0.0
 11
301.600386
 21
458.563224
 31
0.0
  0
LINE
  5
C6
100
AcDbEntity
  8
3
  6
CONTINUOUS
 62
   214
100
AcDbLine
 10
303.600386
 20
454.063224
 30
0.0
 11
303.600386
 21
458.563224
 31
0.0
  0
LINE
  5
C7
100
AcDbEntity
  8
3
  6
CONTINUOUS
 62
   214
100
AcDbLine
 10
307.350386
 20
455.363224
 30
0.0
 11
307.350386
 21
454.063224
 31
0.0
  0
LINE
  5
C8
100
AcDbEntity
  8
3
  6
CONTINUOUS
 62
   214
100
AcDbLine
 10
303.850386
 20
454.063224
 30
0.0
 11
303.850386
 21
455.363225
 31
0.0
  0
LINE
  5
C9
100
AcDbEntity
  8
3
  6
CONTINUOUS
 62
   214
100
AcDbLine
 10
307.600386
 20
458.563224
 30
0.0
 11
307.600386
 21
454.063224
 31
0.0
  0
LINE
  5
CA
100
AcDbEntity
  8
3
  6
CONTINUOUS
 62
   214
100
AcDbLine
 10
307.600386
 20
454.063224
 30
0.0
 11
303.600386
 21
454.063224
 31
0.0
  0
LINE
  5
CB
100
AcDbEntity
  8
3
  6
CENTER
 62
   214
100
AcDbLine
 10
360.16626
 20
359.241834
 30
0.0
 11
371.034512
 21
359.241834
 31
0.0
  0
INSERT
  5
DC
100
AcDbEntity
  8
0
  6
CONTINUOUS
 62
   214
100
AcDbBlockReference
  2
*G1
 10
0.0
 20
0.0
 30
0.0
  0
LINE
  5
DD
100
AcDbEntity
  8
3
  6
CENTER
 62
   214
100
AcDbLine
 10
365.600386
 20
364.67596
 30
0.0
 11
365.600386
 21
353.807709
 31
0.0
  0
LINE
  5
DE
100
AcDbEntity
  8
3
  6
CENTER
 62
   214
100
AcDbLine
 10
300.16626
 20
359.241834
 30
0.0
 11
311.034512
 21
359.241834
 31
0.0
  0
INSERT
  5
EF
100
AcDbEntity
  8
0
  6
CONTINUOUS
 62
   214
100
AcDbBlockReference
  2
*G3
 10
0.0
 20
0.0
 30
0.0
  0
LINE
  5
F0
100
AcDbEntity
  8
3
  6
CENTER
 62
   214
100
AcDbLine
 10
240.16626
 20
359.241834
 30
0.0
 11
251.034512
 21
359.241834
 31
0.0
  0
INSERT
  5
101
100
AcDbEntity
  8
0
  6
CONTINUOUS
 62
   214
100
AcDbBlockReference
  2
*G5
 10
0.0
 20
0.0
 30
0.0
  0
LINE
  5
102
100
AcDbEntity
  8
3
  6
CENTER
 62
   214
100
AcDbLine
 10
245.600386
 20
364.67596
 30
0.0
 11
245.600386
 21
353.807709
 31
0.0
  0
LINE
  5
103
100
AcDbEntity
  8
3
  6
CONTINUOUS
 62
   214
100
AcDbLine
 10
570.565554
 20
357.241835
 30
0.0
 11
570.565554
 21
361.241834
 31
0.0
  0
LINE
  5
104
100
AcDbEntity
  8
3
  6
CONTINUOUS
 62
   214
100
AcDbLine
 10
575.065554
 20
357.241835
 30
0.0
 11
570.565554
 21
357.241835
 31
0.0
  0
LINE
  5
105
100
AcDbEntity
  8
3
  6
CENTER
 62
   214
100
AcDbLine
 10
569.83604
 20
359.241835
 30
0.0
 11
582.434217
 21
359.241835
 31
0.0
  0
LINE
  5
106
100
AcDbEntity
  8
3
  6
CONTINUOUS
 62
   214
100
AcDbLine
 10
570.565554
 20
360.991835
 30
0.0
 11
571.865554
 21
360.991835
 31
0.0
  0
LINE
  5
107
100
AcDbEntity
  8
3
  6
CONTINUOUS
 62
   214
100
AcDbLine
 10
571.865554
 20
357.491835
 30
0.0
 11
570.565554
 21
357.491835
 31
0.0
  0
LINE
  5
108
100
AcDbEntity
  8
3
  6
CONTINUOUS
 62
   214
100
AcDbLine
 10
570.565554
 20
361.241834
 30
0.0
 11
575.065554
 21
361.241834
 31
0.0
  0
LINE
  5
109
100
AcDbEntity
  8
3
  6
CONTINUOUS
 62
   214
100
AcDbLine
 10
575.065554
 20
355.241835
 30
0.0
 11
575.065554
 21
363.241835
 31
0.0
  0
LINE
  5
10A
100
AcDbEntity
  8
3
  6
CONTINUOUS
 62
   214
100
AcDbLine
 10
571.865554
 20
363.241835
 30
0.0
 11
575.065554
 21
363.241835
 31
0.0
  0
LINE
  5
10B
100
AcDbEntity
  8
3
  6
CONTINUOUS
 62
   214
100
AcDbLine
 10
571.865554
 20
355.241835
 30
0.0
 11
571.865554
 21
363.241835
 31
0.0
  0
LINE
  5
10C
100
AcDbEntity
  8
3
  6
CONTINUOUS
 62
   214
100
AcDbLine
 10
575.065554
 20
355.241835
 30
0.0
 11
571.865554
 21
355.241835
 31
0.0
  0
LINE
  5
10D
100
AcDbEntity
  8
3
  6
CONTINUOUS
 62
   214
100
AcDbLine
 10
581.145334
 20
359.641835
 30
0.0
 11
580.865554
 21
359.641835
 31
0.0
  0
LINE
  5
10E
100
AcDbEntity
  8
3
  6
CONTINUOUS
 62
   214
100
AcDbLine
 10
581.145334
 20
358.841835
 30
0.0
 11
580.865554
 21
358.841835
 31
0.0
  0
ARC
  5
10F
100
AcDbEntity
  8
3
  6
CONTINUOUS
 62
   214
100
AcDbCircle
 10
578.796107
 20
356.741835
 30
0.0
 40
1.0
100
AcDbArc
 50
-90.0
 51
-57.425982
  0
LINE
  5
110
100
AcDbEntity
  8
3
  6
CONTINUOUS
 62
   214
100
AcDbLine
 10
578.796107
 20
355.741835
 30
0.0
 11
578.565554
 21
355.741835
 31
0.0
  0
ARC
  5
111
100
AcDbEntity
  8
3
  6
CONTINUOUS
 62
   214
100
AcDbCircle
 10
577.198887
 20
359.241835
 30
0.0
 40
3.966667
100
AcDbArc
 50
-57.425982
 51
-5.787563
  0
ARC
  5
112
100
AcDbEntity
  8
3
  6
CONTINUOUS
 62
   214
100
AcDbCircle
 10
578.796107
 20
361.741835
 30
0.0
 40
1.0
100
AcDbArc
 50
57.425982
 51
90.0
  0
ARC
  5
113
100
AcDbEntity
  8
3
  6
CONTINUOUS
 62
   214
100
AcDbCircle
 10
577.198887
 20
359.241835
 30
0.0
 40
3.966667
100
AcDbArc
 50
5.787563
 51
57.425982
  0
LINE
  5
114
100
AcDbEntity
  8
3
  6
CONTINUOUS
 62
   214
100
AcDbLine
 10
578.796107
 20
362.741835
 30
0.0
 11
578.565554
 21
362.741835
 31
0.0
  0
LINE
  5
115
100
AcDbEntity
  8
3
  6
CONTINUOUS
 62
   214
100
AcDbLine
 10
578.565554
 20
355.741835
 30
0.0
 11
578.565554
 21
362.741835
 31
0.0
  0
LINE
  5
116
100
AcDbEntity
  8
3
  6
CONTINUOUS
 62
   214
100
AcDbLine
 10
205.600386
 20
351.741835
 30
0.0
 11
405.600386
 21
351.741835
 31
0.0
  0
LINE
  5
117
100
AcDbEntity
  8
3
  6
CONTINUOUS
 62
   214
100
AcDbLine
 10
405.600386
 20
366.741835
 30
0.0
 11
205.600386
 21
366.741835
 31
0.0
  0
LINE
  5
118
100
AcDbEntity
  8
3
  6
CONTINUOUS
 62
   214
100
AcDbLine
 10
205.600386
 20
386.741835
 30
0.0
 11
405.600386
 21
386.741835
 31
0.0
  0
LINE
  5
119
100
AcDbEntity
  8
3
  6
CENTER
 62
   214
100
AcDbLine
 10
405.054934
 20
243.522201
 30
0.0
 11
200.624097
 21
243.522201
 31
0.0
  0
LINE
  5
11A
100
AcDbEntity
  8
3
  6
CONTINUOUS
 62
   214
100
AcDbLine
 10
230.600386
 20
204.272201
 30
0.0
 11
380.600386
 21
204.272201
 31
0.0
  0
LINE
  5
11B
100
AcDbEntity
  8
3
  6
CONTINUOUS
 62
   214
100
AcDbLine
 10
420.100386
 20
198.522201
 30
0.0
 11
191.100386
 21
198.522201
 31
0.0
  0
LINE
  5
11C
100
AcDbEntity
  8
3
  6
CONTINUOUS
 62
   214
100
AcDbLine
 10
191.100386
 20
197.522201
 30
0.0
 11
420.100386
 21
197.522201
 31
0.0
  0
LINE
  5
11D
100
AcDbEntity
  8
3
  6
CONTINUOUS
 62
   214
100
AcDbLine
 10
390.600386
 20
114.322741
 30
0.0
 11
220.600386
 21
114.322741
 31
0.0
  0
LINE
  5
11E
100
AcDbEntity
  8
3
  6
CONTINUOUS
 62
   214
100
AcDbLine
 10
220.600386
 20
38.322741
 30
0.0
 11
390.600386
 21
38.322741
 31
0.0
  0
LINE
  5
11F
100
AcDbEntity
  8
3
  6
CONTINUOUS
 62
   214
100
AcDbLine
 10
418.100386
 20
106.322741
 30
0.0
 11
193.100386
 21
106.322741
 31
0.0
  0
LINE
  5
120
100
AcDbEntity
  8
3
  6
CONTINUOUS
 62
   214
100
AcDbLine
 10
418.100386
 20
46.322741
 30
0.0
 11
193.100386
 21
46.322741
 31
0.0
  0
LINE
  5
121
100
AcDbEntity
  8
3
  6
CONTINUOUS
 62
   214
100
AcDbLine
 10
205.600386
 20
351.741835
 30
0.0
 11
205.600386
 21
386.741835
 31
0.0
  0
LINE
  5
122
100
AcDbEntity
  8
3
  6
CONTINUOUS
 62
   214
100
AcDbLine
 10
230.600386
 20
204.272201
 30
0.0
 11
230.600386
 21
351.741835
 31
0.0
  0
LINE
  5
123
100
AcDbEntity
  8
3
  6
CONTINUOUS
 62
   214
100
AcDbLine
 10
220.600386
 20
205.522201
 30
0.0
 11
230.600386
 21
205.522201
 31
0.0
  0
LINE
  5
124
100
AcDbEntity
  8
3
  6
CONTINUOUS
 62
   214
100
AcDbLine
 10
230.600386
 20
281.522201
 30
0.0
 11
220.600386
 21
281.522201
 31
0.0
  0
LINE
  5
125
100
AcDbEntity
  8
3
  6
CONTINUOUS
 62
   214
100
AcDbLine
 10
209.600386
 20
250.522201
 30
0.0
 11
210.600386
 21
250.522201
 31
0.0
  0
LINE
  5
126
100
AcDbEntity
  8
3
  6
CONTINUOUS
 62
   214
100
AcDbLine
 10
209.500386
 20
248.922201
 30
0.0
 11
209.600386
 21
248.922201
 31
0.0
  0
LINE
  5
127
100
AcDbEntity
  8
3
  6
CONTINUOUS
 62
   214
100
AcDbLine
 10
209.500386
 20
238.122201
 30
0.0
 11
209.600386
 21
238.122201
 31
0.0
  0
LINE
  5
128
100
AcDbEntity
  8
3
  6
CONTINUOUS
 62
   214
100
AcDbLine
 10
213.100386
 20
249.522201
 30
0.0
 11
213.600386
 21
249.522201
 31
0.0
  0
LINE
  5
129
100
AcDbEntity
  8
3
  6
CONTINUOUS
 62
   214
100
AcDbLine
 10
213.100386
 20
237.522201
 30
0.0
 11
213.600386
 21
237.522201
 31
0.0
  0
LINE
  5
12A
100
AcDbEntity
  8
3
  6
CONTINUOUS
 62
   214
100
AcDbLine
 10
210.600386
 20
237.522201
 30
0.0
 11
211.100386
 21
237.522201
 31
0.0
  0
LINE
  5
12B
100
AcDbEntity
  8
3
  6
CONTINUOUS
 62
   214
100
AcDbLine
 10
210.600386
 20
249.522201
 30
0.0
 11
211.100386
 21
249.522201
 31
0.0
  0
LINE
  5
12C
100
AcDbEntity
  8
3
  6
CONTINUOUS
 62
   214
100
AcDbLine
 10
208.100386
 20
237.522201
 30
0.0
 11
208.100386
 21
249.522201
 31
0.0
  0
LINE
  5
12D
100
AcDbEntity
  8
3
  6
CONTINUOUS
 62
   214
100
AcDbLine
 10
209.500386
 20
237.522201
 30
0.0
 11
208.100386
 21
237.522201
 31
0.0
  0
LINE
  5
12E
100
AcDbEntity
  8
3
  6
CONTINUOUS
 62
   214
100
AcDbLine
 10
209.500386
 20
249.522201
 30
0.0
 11
209.500386
 21
237.522201
 31
0.0
  0
LINE
  5
12F
100
AcDbEntity
  8
3
  6
CONTINUOUS
 62
   214
100
AcDbLine
 10
208.100386
 20
249.522201
 30
0.0
 11
209.500386
 21
249.522201
 31
0.0
  0
LINE
  5
130
100
AcDbEntity
  8
3
  6
CONTINUOUS
 62
   214
100
AcDbLine
 10
213.600386
 20
233.522201
 30
0.0
 11
214.600386
 21
233.522201
 31
0.0
  0
LINE
  5
131
100
AcDbEntity
  8
3
  6
CONTINUOUS
 62
   214
100
AcDbLine
 10
213.600386
 20
253.522201
 30
0.0
 11
213.600386
 21
233.522201
 31
0.0
  0
LINE
  5
132
100
AcDbEntity
  8
3
  6
CONTINUOUS
 62
   214
100
AcDbLine
 10
214.600386
 20
253.522201
 30
0.0
 11
213.600386
 21
253.522201
 31
0.0
  0
LINE
  5
133
100
AcDbEntity
  8
3
  6
CONTINUOUS
 62
   214
100
AcDbLine
 10
220.600386
 20
211.522201
 30
0.0
 11
219.100386
 21
207.022201
 31
0.0
  0
LINE
  5
134
100
AcDbEntity
  8
3
  6
CONTINUOUS
 62
   214
100
AcDbLine
 10
220.600386
 20
275.522201
 30
0.0
 11
220.600386
 21
211.522201
 31
0.0
  0
LINE
  5
135
100
AcDbEntity
  8
3
  6
CONTINUOUS
 62
   214
100
AcDbLine
 10
219.100386
 20
280.022201
 30
0.0
 11
220.600386
 21
275.522201
 31
0.0
  0
LINE
  5
136
100
AcDbEntity
  8
3
  6
CONTINUOUS
 62
   214
100
AcDbLine
 10
214.600386
 20
207.022201
 30
0.0
 11
214.600386
 21
280.022201
 31
0.0
  0
LINE
  5
137
100
AcDbEntity
  8
3
  6
CONTINUOUS
 62
   214
100
AcDbLine
 10
219.100386
 20
207.022201
 30
0.0
 11
214.600386
 21
207.022201
 31
0.0
  0
LINE
  5
138
100
AcDbEntity
  8
3
  6
CONTINUOUS
 62
   214
100
AcDbLine
 10
219.100386
 20
280.022201
 30
0.0
 11
219.100386
 21
207.022201
 31
0.0
  0
LINE
  5
139
100
AcDbEntity
  8
3
  6
CONTINUOUS
 62
   214
100
AcDbLine
 10
214.600386
 20
280.022201
 30
0.0
 11
219.100386
 21
280.022201
 31
0.0
  0
LINE
  5
13A
100
AcDbEntity
  8
3
  6
CONTINUOUS
 62
   214
100
AcDbLine
 10
220.600386
 20
281.522201
 30
0.0
 11
220.600386
 21
205.522201
 31
0.0
  0
ARC
  5
13B
100
AcDbEntity
  8
3
  6
CONTINUOUS
 62
   214
100
AcDbCircle
 10
211.100386
 20
200.522201
 30
0.0
 40
2.0
100
AcDbArc
 50
-90.0
 51
0.0
  0
LINE
  5
13C
100
AcDbEntity
  8
3
  6
CONTINUOUS
 62
   214
100
AcDbLine
 10
213.100386
 20
271.522201
 30
0.0
 11
213.100386
 21
200.522201
 31
0.0
  0
LINE
  5
13D
100
AcDbEntity
  8
3
  6
CONTINUOUS
 62
   214
100
AcDbLine
 10
211.100386
 20
271.522201
 30
0.0
 11
213.100386
 21
271.522201
 31
0.0
  0
LINE
  5
13E
100
AcDbEntity
  8
3
  6
CONTINUOUS
 62
   214
100
AcDbLine
 10
211.100386
 20
200.522201
 30
0.0
 11
211.100386
 21
271.522201
 31
0.0
  0
LINE
  5
13F
100
AcDbEntity
  8
3
  6
CONTINUOUS
 62
   214
100
AcDbLine
 10
191.100386
 20
200.522201
 30
0.0
 11
211.100386
 21
200.522201
 31
0.0
  0
LINE
  5
140
100
AcDbEntity
  8
3
  6
CONTINUOUS
 62
   214
100
AcDbLine
 10
191.100386
 20
200.522201
 30
0.0
 11
191.100386
 21
197.522201
 31
0.0
  0
LINE
  5
141
100
AcDbEntity
  8
3
  6
CONTINUOUS
 62
   214
100
AcDbLine
 10
220.600386
 20
46.322741
 30
0.0
 11
220.600386
 21
38.322741
 31
0.0
  0
LINE
  5
142
100
AcDbEntity
  8
3
  6
CONTINUOUS
 62
   214
100
AcDbLine
 10
220.600386
 20
114.322741
 30
0.0
 11
220.600386
 21
106.322741
 31
0.0
  0
LINE
  5
143
100
AcDbEntity
  8
3
  6
CONTINUOUS
 62
   214
100
AcDbLine
 10
220.600386
 20
46.322741
 30
0.0
 11
220.600386
 21
44.322741
 31
0.0
  0
LINE
  5
144
100
AcDbEntity
  8
3
  6
CONTINUOUS
 62
   214
100
AcDbLine
 10
220.600386
 20
108.322741
 30
0.0
 11
220.600386
 21
106.322741
 31
0.0
  0
LINE
  5
145
100
AcDbEntity
  8
3
  6
CONTINUOUS
 62
   214
100
AcDbLine
 10
219.100386
 20
46.322741
 30
0.0
 11
219.100386
 21
39.822741
 31
0.0
  0
LINE
  5
146
100
AcDbEntity
  8
3
  6
CONTINUOUS
 62
   214
100
AcDbLine
 10
219.100386
 20
112.822741
 30
0.0
 11
219.100386
 21
106.322741
 31
0.0
  0
LINE
  5
147
100
AcDbEntity
  8
3
  6
CONTINUOUS
 62
   214
100
AcDbLine
 10
214.600386
 20
106.322741
 30
0.0
 11
214.600386
 21
112.822741
 31
0.0
  0
LINE
  5
148
100
AcDbEntity
  8
3
  6
CONTINUOUS
 62
   214
100
AcDbLine
 10
214.600386
 20
39.822741
 30
0.0
 11
214.600386
 21
46.322741
 31
0.0
  0
LINE
  5
149
100
AcDbEntity
  8
3
  6
CONTINUOUS
 62
   214
100
AcDbLine
 10
220.600386
 20
44.322741
 30
0.0
 11
219.100386
 21
39.822741
 31
0.0
  0
LINE
  5
14A
100
AcDbEntity
  8
3
  6
CONTINUOUS
 62
   214
100
AcDbLine
 10
219.100386
 20
112.822741
 30
0.0
 11
220.600386
 21
108.322741
 31
0.0
  0
LINE
  5
14B
100
AcDbEntity
  8
3
  6
CONTINUOUS
 62
   214
100
AcDbLine
 10
219.100386
 20
39.822741
 30
0.0
 11
214.600386
 21
39.822741
 31
0.0
  0
LINE
  5
14C
100
AcDbEntity
  8
3
  6
CONTINUOUS
 62
   214
100
AcDbLine
 10
214.600386
 20
112.822741
 30
0.0
 11
219.100386
 21
112.822741
 31
0.0
  0
CIRCLE
  5
14D
100
AcDbEntity
  8
3
  6
CONTINUOUS
 62
   214
100
AcDbCircle
 10
199.100386
 20
54.322741
 30
0.0
 40
3.25
  0
LINE
  5
14E
100
AcDbEntity
  8
3
  6
CENTER
 62
   214
100
AcDbLine
 10
199.100386
 20
49.412979
 30
0.0
 11
199.100386
 21
59.232504
 31
0.0
  0
LINE
  5
14F
100
AcDbEntity
  8
3
  6
CENTER
 62
   214
100
AcDbLine
 10
194.190623
 20
54.322741
 30
0.0
 11
204.010149
 21
54.322741
 31
0.0
  0
CIRCLE
  5
150
100
AcDbEntity
  8
3
  6
CONTINUOUS
 62
   214
100
AcDbCircle
 10
199.100386
 20
98.322741
 30
0.0
 40
3.25
  0
LINE
  5
151
100
AcDbEntity
  8
3
  6
CENTER
 62
   214
100
AcDbLine
 10
199.100386
 20
93.412979
 30
0.0
 11
199.100386
 21
103.232504
 31
0.0
  0
LINE
  5
152
100
AcDbEntity
  8
3
  6
CENTER
 62
   214
100
AcDbLine
 10
194.190623
 20
98.322741
 30
0.0
 11
204.010149
 21
98.322741
 31
0.0
  0
LINE
  5
153
100
AcDbEntity
  8
3
  6
CONTINUOUS
 62
   214
100
AcDbLine
 10
193.100386
 20
106.322741
 30
0.0
 11
191.100386
 21
104.322741
 31
0.0
  0
LINE
  5
154
100
AcDbEntity
  8
3
  6
CONTINUOUS
 62
   214
100
AcDbLine
 10
191.100386
 20
48.322741
 30
0.0
 11
191.100386
 21
104.322741
 31
0.0
  0
LINE
  5
155
100
AcDbEntity
  8
3
  6
CONTINUOUS
 62
   214
100
AcDbLine
 10
193.100386
 20
46.322741
 30
0.0
 11
191.100386
 21
48.322741
 31
0.0
  0
LINE
  5
156
100
AcDbEntity
  8
3
  6
CENTER
 62
   214
100
AcDbLine
 10
305.600386
 20
118.739415
 30
0.0
 11
305.600386
 21
32.184241
 31
0.0
  0
LINE
  5
157
100
AcDbEntity
  8
3
  6
CENTER
 62
   214
100
AcDbLine
 10
300.046686
 20
378.741835
 30
0.0
 11
311.154086
 21
378.741835
 31
0.0
  0
CIRCLE
  5
158
100
AcDbEntity
  8
3
  6
CONTINUOUS
 62
   214
100
AcDbCircle
 10
305.600386
 20
378.741835
 30
0.0
 40
3.25
  0
CIRCLE
  5
159
100
AcDbEntity
  8
3
  6
CONTINUOUS
 62
   214
100
AcDbCircle
 10
305.600386
 20
98.322741
 30
0.0
 40
3.25
  0
LINE
  5
15A
100
AcDbEntity
  8
3
  6
CENTER
 62
   214
100
AcDbLine
 10
300.690623
 20
98.322741
 30
0.0
 11
310.510149
 21
98.322741
 31
0.0
  0
CIRCLE
  5
15B
100
AcDbEntity
  8
3
  6
CONTINUOUS
 62
   214
100
AcDbCircle
 10
305.600386
 20
54.322741
 30
0.0
 40
3.25
  0
LINE
  5
15C
100
AcDbEntity
  8
3
  6
CENTER
 62
   214
100
AcDbLine
 10
300.690623
 20
54.322741
 30
0.0
 11
310.510149
 21
54.322741
 31
0.0
  0
LINE
  5
15D
100
AcDbEntity
  8
3
  6
CONTINUOUS
 62
   214
100
AcDbLine
 10
575.065554
 20
366.741835
 30
0.0
 11
575.065554
 21
351.741835
 31
0.0
  0
LINE
  5
15E
100
AcDbEntity
  8
3
  6
CONTINUOUS
 62
   214
100
AcDbLine
 10
576.565554
 20
366.741835
 30
0.0
 11
575.065554
 21
366.741835
 31
0.0
  0
LINE
  5
15F
100
AcDbEntity
  8
3
  6
CENTER
 62
   214
100
AcDbLine
 10
573.097223
 20
378.741835
 30
0.0
 11
581.784834
 21
378.741835
 31
0.0
  0
LINE
  5
160
100
AcDbEntity
  8
3
  6
CONTINUOUS
 62
   214
100
AcDbLine
 10
585.815554
 20
198.522201
 30
0.0
 11
645.815554
 21
198.522201
 31
0.0
  0
ARC
  5
161
100
AcDbEntity
  8
3
  6
CONTINUOUS
 62
   214
100
AcDbCircle
 10
615.815554
 20
243.522201
 30
0.0
 40
39.25
100
AcDbArc
 50
-40.15247
 51
-139.84753
  0
LINE
  5
162
100
AcDbEntity
  8
3
  6
CONTINUOUS
 62
   214
100
AcDbLine
 10
576.565554
 20
243.522201
 30
0.0
 11
576.565554
 21
386.741835
 31
0.0
  0
ARC
  5
163
100
AcDbEntity
  8
3
  6
CONTINUOUS
 62
   214
100
AcDbCircle
 10
615.815554
 20
243.522201
 30
0.0
 40
7.0
100
AcDbArc
 50
-62.874105
 51
-117.125895
  0
LINE
  5
164
100
AcDbEntity
  8
3
  6
CONTINUOUS
 62
   214
100
AcDbLine
 10
612.623923
 20
237.292153
 30
0.0
 11
612.815554
 21
235.101808
 31
0.0
  0
LINE
  5
165
100
AcDbEntity
  8
3
  6
CONTINUOUS
 62
   214
100
AcDbLine
 10
619.007184
 20
237.292153
 30
0.0
 11
618.815554
 21
235.101808
 31
0.0
  0
ARC
  5
166
100
AcDbEntity
  8
3
  6
CONTINUOUS
 62
   214
100
AcDbCircle
 10
615.815554
 20
242.518008
 30
0.0
 40
8.0
100
AcDbArc
 50
-86.416678
 51
-67.975689
  0
CIRCLE
  5
167
100
AcDbEntity
  8
3
  6
CONTINUOUS
 62
   214
100
AcDbCircle
 10
617.565554
 20
236.258016
 30
0.0
 40
0.5
  0
LINE
  5
168
100
AcDbEntity
  8
3
  6
CONTINUOUS
 62
   214
100
AcDbLine
 10
616.315554
 20
234.533648
 30
0.0
 11
616.315554
 21
237.54307
 31
0.0
  0
ARC
  5
169
100
AcDbEntity
  8
3
  6
CONTINUOUS
 62
   214
100
AcDbCircle
 10
615.815554
 20
242.518008
 30
0.0
 40
8.0
100
AcDbArc
 50
-112.024311
 51
-93.583322
  0
CIRCLE
  5
16A
100
AcDbEntity
  8
3
  6
CONTINUOUS
 62
   214
100
AcDbCircle
 10
614.065554
 20
236.258016
 30
0.0
 40
0.5
  0
LINE
  5
16B
100
AcDbEntity
  8
3
  6
CONTINUOUS
 62
   214
100
AcDbLine
 10
615.315554
 20
234.533648
 30
0.0
 11
615.315554
 21
237.54307
 31
0.0
  0
CIRCLE
  5
16C
100
AcDbEntity
  8
3
  6
CONTINUOUS
 62
   214
100
AcDbCircle
 10
615.815554
 20
243.522201
 30
0.0
 40
6.0
  0
ARC
  5
16D
100
AcDbEntity
  8
3
  6
CONTINUOUS
 62
   214
100
AcDbCircle
 10
615.815554
 20
243.522201
 30
0.0
 40
32.0
100
AcDbArc
 50
61.044976
 51
118.955024
  0
ARC
  5
16E
100
AcDbEntity
  8
3
  6
CONTINUOUS
 62
   214
100
AcDbCircle
 10
615.815554
 20
243.522201
 30
0.0
 40
32.0
100
AcDbArc
 50
-20.364135
 51
19.522464
  0
ARC
  5
16F
100
AcDbEntity
  8
3
  6
CONTINUOUS
 62
   214
100
AcDbCircle
 10
615.815554
 20
243.522201
 30
0.0
 40
32.0
100
AcDbArc
 50
159.635865
 51
-159.635865
  0
LINE
  5
170
100
AcDbEntity
  8
3
  6
CENTER
 62
   214
100
AcDbLine
 10
615.815554
 20
290.599961
 30
0.0
 11
615.815554
 21
196.44444
 31
0.0
  0
LINE
  5
171
100
AcDbEntity
  8
3
  6
CENTER
 62
   214
100
AcDbLine
 10
568.737793
 20
243.522201
 30
0.0
 11
662.893314
 21
243.522201
 31
0.0
  0
LINE
  5
172
100
AcDbEntity
  8
3
  6
CONTINUOUS
 62
   214
100
AcDbLine
 10
645.815554
 20
266.522201
 30
0.0
 11
640.815554
 21
271.522201
 31
0.0
  0
LINE
  5
173
100
AcDbEntity
  8
3
  6
CONTINUOUS
 62
   214
100
AcDbLine
 10
590.815554
 20
271.522201
 30
0.0
 11
640.815554
 21
271.522201
 31
0.0
  0
LINE
  5
174
100
AcDbEntity
  8
3
  6
CONTINUOUS
 62
   214
100
AcDbLine
 10
645.815554
 20
197.522201
 30
0.0
 11
645.815554
 21
266.522201
 31
0.0
  0
LINE
  5
175
100
AcDbEntity
  8
3
  6
CONTINUOUS
 62
   214
100
AcDbLine
 10
585.815554
 20
266.522201
 30
0.0
 11
590.815554
 21
271.522201
 31
0.0
  0
LINE
  5
176
100
AcDbEntity
  8
3
  6
CONTINUOUS
 62
   214
100
AcDbLine
 10
585.815554
 20
197.522201
 30
0.0
 11
585.815554
 21
266.522201
 31
0.0
  0
ARC
  5
177
100
AcDbEntity
  8
3
  6
CONTINUOUS
 62
   214
100
AcDbCircle
 10
615.815554
 20
243.522201
 30
0.0
 40
6.1
100
AcDbArc
 50
131.053351
 51
48.946649
  0
LINE
  5
178
100
AcDbEntity
  8
3
  6
CONTINUOUS
 62
   214
100
AcDbLine
 10
611.809309
 20
248.122201
 30
0.0
 11
619.821799
 21
248.122201
 31
0.0
  0
LINE
  5
179
100
AcDbEntity
  8
3
  6
CONTINUOUS
 62
   214
100
AcDbLine
 10
585.815554
 20
200.522201
 30
0.0
 11
645.815554
 21
200.522201
 31
0.0
  0
LINE
  5
17A
100
AcDbEntity
  8
3
  6
CONTINUOUS
 62
   214
100
AcDbLine
 10
585.815554
 20
197.522201
 30
0.0
 11
645.815554
 21
197.522201
 31
0.0
  0
LINE
  5
17B
100
AcDbEntity
  8
3
  6
CONTINUOUS
 62
   214
100
AcDbLine
 10
578.565554
 20
386.741835
 30
0.0
 11
576.565554
 21
386.741835
 31
0.0
  0
LINE
  5
17C
100
AcDbEntity
  8
3
  6
CONTINUOUS
 62
   214
100
AcDbLine
 10
578.565554
 20
351.741835
 30
0.0
 11
578.565554
 21
386.741835
 31
0.0
  0
LINE
  5
17D
100
AcDbEntity
  8
3
  6
CONTINUOUS
 62
   214
100
AcDbLine
 10
380.600386
 20
351.741835
 30
0.0
 11
380.600386
 21
204.272201
 31
0.0
  0
LINE
  5
17E
100
AcDbEntity
  8
3
  6
CONTINUOUS
 62
   214
100
AcDbLine
 10
405.600386
 20
351.741835
 30
0.0
 11
405.600386
 21
386.741835
 31
0.0
  0
LINE
  5
17F
100
AcDbEntity
  8
3
  6
CONTINUOUS
 62
   214
100
AcDbLine
 10
380.600386
 20
205.522201
 30
0.0
 11
390.600386
 21
205.522201
 31
0.0
  0
LINE
  5
180
100
AcDbEntity
  8
3
  6
CONTINUOUS
 62
   214
100
AcDbLine
 10
390.600386
 20
281.522201
 30
0.0
 11
380.600386
 21
281.522201
 31
0.0
  0
LINE
  5
181
100
AcDbEntity
  8
3
  6
CONTINUOUS
 62
   214
100
AcDbLine
 10
400.600386
 20
248.022201
 30
0.0
 11
400.100386
 21
248.022201
 31
0.0
  0
LINE
  5
182
100
AcDbEntity
  8
3
  6
CONTINUOUS
 62
   214
100
AcDbLine
 10
403.100386
 20
248.022201
 30
0.0
 11
401.600386
 21
248.022201
 31
0.0
  0
LINE
  5
183
100
AcDbEntity
  8
3
  6
CONTINUOUS
 62
   214
100
AcDbLine
 10
401.700386
 20
238.122201
 30
0.0
 11
401.600386
 21
238.122201
 31
0.0
  0
LINE
  5
184
100
AcDbEntity
  8
3
  6
CONTINUOUS
 62
   214
100
AcDbLine
 10
400.600386
 20
250.522201
 30
0.0
 11
401.600386
 21
250.522201
 31
0.0
  0
LINE
  5
185
100
AcDbEntity
  8
3
  6
CONTINUOUS
 62
   214
100
AcDbLine
 10
403.100386
 20
237.522201
 30
0.0
 11
403.100386
 21
248.022201
 31
0.0
  0
LINE
  5
186
100
AcDbEntity
  8
3
  6
CONTINUOUS
 62
   214
100
AcDbLine
 10
401.700386
 20
248.022201
 30
0.0
 11
401.700386
 21
237.522201
 31
0.0
  0
LINE
  5
187
100
AcDbEntity
  8
3
  6
CONTINUOUS
 62
   214
100
AcDbLine
 10
398.100386
 20
249.522201
 30
0.0
 11
397.600386
 21
249.522201
 31
0.0
  0
LINE
  5
188
100
AcDbEntity
  8
3
  6
CONTINUOUS
 62
   214
100
AcDbLine
 10
398.100386
 20
237.522201
 30
0.0
 11
397.600386
 21
237.522201
 31
0.0
  0
LINE
  5
189
100
AcDbEntity
  8
3
  6
CONTINUOUS
 62
   214
100
AcDbLine
 10
400.600386
 20
237.522201
 30
0.0
 11
400.100386
 21
237.522201
 31
0.0
  0
LINE
  5
18A
100
AcDbEntity
  8
3
  6
CONTINUOUS
 62
   214
100
AcDbLine
 10
401.700386
 20
237.522201
 30
0.0
 11
403.100386
 21
237.522201
 31
0.0
  0
LINE
  5
18B
100
AcDbEntity
  8
3
  6
CONTINUOUS
 62
   214
100
AcDbLine
 10
397.600386
 20
233.522201
 30
0.0
 11
396.600386
 21
233.522201
 31
0.0
  0
LINE
  5
18C
100
AcDbEntity
  8
3
  6
CONTINUOUS
 62
   214
100
AcDbLine
 10
397.600386
 20
253.522201
 30
0.0
 11
397.600386
 21
233.522201
 31
0.0
  0
LINE
  5
18D
100
AcDbEntity
  8
3
  6
CONTINUOUS
 62
   214
100
AcDbLine
 10
396.600386
 20
253.522201
 30
0.0
 11
397.600386
 21
253.522201
 31
0.0
  0
LINE
  5
18E
100
AcDbEntity
  8
3
  6
CONTINUOUS
 62
   214
100
AcDbLine
 10
390.600386
 20
211.522201
 30
0.0
 11
392.100386
 21
207.022201
 31
0.0
  0
LINE
  5
18F
100
AcDbEntity
  8
3
  6
CONTINUOUS
 62
   214
100
AcDbLine
 10
392.100386
 20
280.022201
 30
0.0
 11
390.600386
 21
275.522201
 31
0.0
  0
LINE
  5
190
100
AcDbEntity
  8
3
  6
CONTINUOUS
 62
   214
100
AcDbLine
 10
396.600386
 20
207.022201
 30
0.0
 11
396.600386
 21
280.022201
 31
0.0
  0
LINE
  5
191
100
AcDbEntity
  8
3
  6
CONTINUOUS
 62
   214
100
AcDbLine
 10
392.100386
 20
207.022201
 30
0.0
 11
396.600386
 21
207.022201
 31
0.0
  0
LINE
  5
192
100
AcDbEntity
  8
3
  6
CONTINUOUS
 62
   214
100
AcDbLine
 10
392.100386
 20
280.022201
 30
0.0
 11
392.100386
 21
207.022201
 31
0.0
  0
LINE
  5
193
100
AcDbEntity
  8
3
  6
CONTINUOUS
 62
   214
100
AcDbLine
 10
396.600386
 20
280.022201
 30
0.0
 11
392.100386
 21
280.022201
 31
0.0
  0
LINE
  5
194
100
AcDbEntity
  8
3
  6
CONTINUOUS
 62
   214
100
AcDbLine
 10
390.600386
 20
205.522201
 30
0.0
 11
390.600386
 21
281.522201
 31
0.0
  0
LINE
  5
195
100
AcDbEntity
  8
3
  6
CONTINUOUS
 62
   214
100
AcDbLine
 10
420.100386
 20
197.522201
 30
0.0
 11
420.100386
 21
200.522201
 31
0.0
  0
ARC
  5
196
100
AcDbEntity
  8
3
  6
CONTINUOUS
 62
   214
100
AcDbCircle
 10
400.100386
 20
200.522201
 30
0.0
 40
2.0
100
AcDbArc
 50
-180.0
 51
-90.0
  0
LINE
  5
197
100
AcDbEntity
  8
3
  6
CONTINUOUS
 62
   214
100
AcDbLine
 10
398.100386
 20
271.522201
 30
0.0
 11
398.100386
 21
200.522201
 31
0.0
  0
LINE
  5
198
100
AcDbEntity
  8
3
  6
CONTINUOUS
 62
   214
100
AcDbLine
 10
400.100386
 20
271.522201
 30
0.0
 11
398.100386
 21
271.522201
 31
0.0
  0
LINE
  5
199
100
AcDbEntity
  8
3
  6
CONTINUOUS
 62
   214
100
AcDbLine
 10
400.100386
 20
200.522201
 30
0.0
 11
400.100386
 21
271.522201
 31
0.0
  0
LINE
  5
19A
100
AcDbEntity
  8
3
  6
CONTINUOUS
 62
   214
100
AcDbLine
 10
420.100386
 20
200.522201
 30
0.0
 11
400.100386
 21
200.522201
 31
0.0
  0
LINE
  5
19B
100
AcDbEntity
  8
3
  6
CONTINUOUS
 62
   214
100
AcDbLine
 10
390.600386
 20
106.322741
 30
0.0
 11
390.600386
 21
114.322741
 31
0.0
  0
LINE
  5
19C
100
AcDbEntity
  8
3
  6
CONTINUOUS
 62
   214
100
AcDbLine
 10
390.600386
 20
38.322741
 30
0.0
 11
390.600386
 21
46.322741
 31
0.0
  0
LINE
  5
19D
100
AcDbEntity
  8
3
  6
CONTINUOUS
 62
   214
100
AcDbLine
 10
392.100386
 20
46.322741
 30
0.0
 11
392.100386
 21
39.822741
 31
0.0
  0
LINE
  5
19E
100
AcDbEntity
  8
3
  6
CONTINUOUS
 62
   214
100
AcDbLine
 10
392.100386
 20
112.822741
 30
0.0
 11
392.100386
 21
106.322741
 31
0.0
  0
LINE
  5
19F
100
AcDbEntity
  8
3
  6
CONTINUOUS
 62
   214
100
AcDbLine
 10
396.600386
 20
106.322741
 30
0.0
 11
396.600386
 21
112.822741
 31
0.0
  0
LINE
  5
1A0
100
AcDbEntity
  8
3
  6
CONTINUOUS
 62
   214
100
AcDbLine
 10
396.600386
 20
39.822741
 30
0.0
 11
396.600386
 21
46.322741
 31
0.0
  0
LINE
  5
1A1
100
AcDbEntity
  8
3
  6
CONTINUOUS
 62
   214
100
AcDbLine
 10
390.600386
 20
44.322741
 30
0.0
 11
392.100386
 21
39.822741
 31
0.0
  0
LINE
  5
1A2
100
AcDbEntity
  8
3
  6
CONTINUOUS
 62
   214
100
AcDbLine
 10
392.100386
 20
112.822741
 30
0.0
 11
390.600386
 21
108.322741
 31
0.0
  0
LINE
  5
1A3
100
AcDbEntity
  8
3
  6
CONTINUOUS
 62
   214
100
AcDbLine
 10
392.100386
 20
39.822741
 30
0.0
 11
396.600386
 21
39.822741
 31
0.0
  0
LINE
  5
1A4
100
AcDbEntity
  8
3
  6
CONTINUOUS
 62
   214
100
AcDbLine
 10
396.600386
 20
112.822741
 30
0.0
 11
392.100386
 21
112.822741
 31
0.0
  0
CIRCLE
  5
1A5
100
AcDbEntity
  8
3
  6
CONTINUOUS
 62
   214
100
AcDbCircle
 10
412.100386
 20
98.322741
 30
0.0
 40
3.25
  0
LINE
  5
1A6
100
AcDbEntity
  8
3
  6
CENTER
 62
   214
100
AcDbLine
 10
412.100386
 20
93.412979
 30
0.0
 11
412.100386
 21
103.232504
 31
0.0
  0
LINE
  5
1A7
100
AcDbEntity
  8
3
  6
CENTER
 62
   214
100
AcDbLine
 10
407.190623
 20
98.322741
 30
0.0
 11
417.010149
 21
98.322741
 31
0.0
  0
CIRCLE
  5
1A8
100
AcDbEntity
  8
3
  6
CONTINUOUS
 62
   214
100
AcDbCircle
 10
412.100386
 20
54.322741
 30
0.0
 40
3.25
  0
LINE
  5
1A9
100
AcDbEntity
  8
3
  6
CENTER
 62
   214
100
AcDbLine
 10
412.100386
 20
49.412979
 30
0.0
 11
412.100386
 21
59.232504
 31
0.0
  0
LINE
  5
1AA
100
AcDbEntity
  8
3
  6
CENTER
 62
   214
100
AcDbLine
 10
407.190623
 20
54.322741
 30
0.0
 11
417.010149
 21
54.322741
 31
0.0
  0
LINE
  5
1AB
100
AcDbEntity
  8
3
  6
CONTINUOUS
 62
   214
100
AcDbLine
 10
420.100386
 20
104.322741
 30
0.0
 11
418.100386
 21
106.322741
 31
0.0
  0
LINE
  5
1AC
100
AcDbEntity
  8
3
  6
CONTINUOUS
 62
   214
100
AcDbLine
 10
420.100386
 20
48.322741
 30
0.0
 11
420.100386
 21
104.322741
 31
0.0
  0
LINE
  5
1AD
100
AcDbEntity
  8
3
  6
CONTINUOUS
 62
   214
100
AcDbLine
 10
418.100386
 20
46.322741
 30
0.0
 11
420.100386
 21
48.322741
 31
0.0
  0
LINE
  5
1AE
100
AcDbEntity
  8
3
  6
CONTINUOUS
 62
   214
100
AcDbLine
 10
580.865554
 20
358.841835
 30
0.0
 11
580.865554
 21
359.641835
 31
0.0
  0
LINE
  5
1AF
100
AcDbEntity
  8
3
  6
CONTINUOUS
 62
   214
100
AcDbLine
 10
575.065554
 20
351.741835
 30
0.0
 11
578.565554
 21
351.741835
 31
0.0
  0
ARC
  5
1B0
100
AcDbEntity
  8
3
  6
CONTINUOUS
 62
   214
100
AcDbCircle
 10
615.815554
 20
243.522201
 30
0.0
 40
38.0
100
AcDbArc
 50
-37.863646
 51
-142.136354
  0
TEXT
  5
1B1
100
AcDbEntity
  8
10
  6
CONTINUOUS
 62
     3
100
AcDbText
 10
526.735169
 20
83.090115
 30
0.0
 40
10.0
  1
防塵安全カバー(テープ幅150用)
 41
0.852941
 11
526.735169
 21
83.090115
 31
0.0
100
AcDbText
 73
     1
  0
DIMENSION
  5
1BD
100
AcDbEntity
  8
2
  6
CONTINUOUS
 62
   134
100
AcDbDimension
  2
*D7
 10
585.815554
 20
185.522201
 30
0.0
 11
615.815554
 21
185.522201
 31
0.0
  1
60
100
AcDbAlignedDimension
 13
585.815554
 23
197.022201
 33
0.0
 14
645.815554
 24
197.022201
 34
0.0
100
AcDbRotatedDimension
  0
DIMENSION
  5
1C9
100
AcDbEntity
  8
2
  6
CONTINUOUS
 62
   134
100
AcDbDimension
  2
*D8
 10
420.100386
 20
185.522201
 30
0.0
 11
305.600386
 21
185.522201
 31
0.0
  1
229
100
AcDbAlignedDimension
 13
420.100386
 23
197.022201
 33
0.0
 14
191.100386
 24
197.022201
 34
0.0
100
AcDbRotatedDimension
  0
DIMENSION
  5
1D5
100
AcDbEntity
  8
2
  6
CONTINUOUS
 62
   134
100
AcDbDimension
  2
*D9
 10
432.100386
 20
197.522201
 30
0.0
 11
432.100386
 21
234.522201
 31
0.0
  1
74
100
AcDbAlignedDimension
 13
420.600386
 23
197.522201
 33
0.0
 14
400.600386
 24
271.522201
 34
0.0
 50
90.0
100
AcDbRotatedDimension
  0
LINE
  5
1D6
100
AcDbEntity
  8
3
  6
CENTER
 62
   214
100
AcDbLine
 10
199.100386
 20
206.31375
 30
0.0
 11
199.100386
 21
191.275091
 31
0.0
  0
LINE
  5
1D7
100
AcDbEntity
  8
3
  6
CENTER
 62
   214
100
AcDbLine
 10
305.600386
 20
392.974161
 30
0.0
 11
305.600386
 21
189.554249
 31
0.0
  0
LINE
  5
1D8
100
AcDbEntity
  8
3
  6
CENTER
 62
   214
100
AcDbLine
 10
637.815554
 20
206.31375
 30
0.0
 11
637.815554
 21
191.275091
 31
0.0
  0
LINE
  5
1D9
100
AcDbEntity
  8
3
  6
CENTER
 62
   214
100
AcDbLine
 10
593.815554
 20
206.31375
 30
0.0
 11
593.815554
 21
191.275091
 31
0.0
  0
LINE
  5
1DA
100
AcDbEntity
  8
3
  6
CENTER
 62
   214
100
AcDbLine
 10
412.100386
 20
206.31375
 30
0.0
 11
412.100386
 21
191.275091
 31
0.0
  0
LINE
  5
1DB
100
AcDbEntity
  8
3
  6
CONTINUOUS
 62
   214
100
AcDbLine
 10
401.600386
 20
234.533648
 30
0.0
 11
400.600386
 21
234.533648
 31
0.0
  0
LINE
  5
1DC
100
AcDbEntity
  8
3
  6
CONTINUOUS
 62
   214
100
AcDbLine
 10
401.600386
 20
250.522201
 30
0.0
 11
401.600386
 21
234.533648
 31
0.0
  0
LINE
  5
1DD
100
AcDbEntity
  8
3
  6
CONTINUOUS
 62
   214
100
AcDbLine
 10
400.600386
 20
250.522201
 30
0.0
 11
400.600386
 21
234.533648
 31
0.0
  0
LINE
  5
1DE
100
AcDbEntity
  8
3
  6
CONTINUOUS
 62
   214
100
AcDbLine
 10
209.600386
 20
234.533648
 30
0.0
 11
210.600386
 21
234.533648
 31
0.0
  0
LINE
  5
1DF
100
AcDbEntity
  8
3
  6
CONTINUOUS
 62
   214
100
AcDbLine
 10
210.600386
 20
250.522201
 30
0.0
 11
210.600386
 21
234.533648
 31
0.0
  0
LINE
  5
1E0
100
AcDbEntity
  8
3
  6
CONTINUOUS
 62
   214
100
AcDbLine
 10
209.600386
 20
234.533648
 30
0.0
 11
209.600386
 21
250.522201
 31
0.0
  0
LINE
  5
1E1
100
AcDbEntity
  8
3
  6
CONTINUOUS
 62
   214
100
AcDbLine
 10
209.600386
 20
237.292153
 30
0.0
 11
210.600386
 21
237.292153
 31
0.0
  0
LINE
  5
1E2
100
AcDbEntity
  8
3
  6
CONTINUOUS
 62
   214
100
AcDbLine
 10
210.600386
 20
235.101809
 30
0.0
 11
209.600386
 21
235.101809
 31
0.0
  0
LINE
  5
1E3
100
AcDbEntity
  8
3
  6
CONTINUOUS
 62
   214
100
AcDbLine
 10
400.600386
 20
237.292153
 30
0.0
 11
401.600386
 21
237.292153
 31
0.0
  0
LINE
  5
1E4
100
AcDbEntity
  8
3
  6
CONTINUOUS
 62
   214
100
AcDbLine
 10
401.600386
 20
235.101809
 30
0.0
 11
400.600386
 21
235.101809
 31
0.0
  0
ENDSEC
  0
SECTION
  2
OBJECTS
  0
DICTIONARY
  5
19
100
AcDbDictionary
  3
ACAD_GROUP
350
1A
  3
ACAD_MLINESTYLE
350
1B
  0
DICTIONARY
  5
1A
102
{ACAD_REACTORS
330
19
102
}
100
AcDbDictionary
  0
DICTIONARY
  5
1B
102
{ACAD_REACTORS
330
19
102
}
100
AcDbDictionary
  3
STANDARD
350
1C
  0
MLINESTYLE
  5
1C
102
{ACAD_REACTORS
330
1B
102
}
100
AcDbMlineStyle
  2
STANDARD
 70
     0
  3

 62
     0
 51
90.0
 52
90.0
 71
     2
 49
0.5
 62
   256
  6
BYLAYER
 49
-0.5
 62
   256
  6
BYLAYER
  0
ENDSEC
  0
EOF
