  0
SECTION
  2
HEADER
  9
$ACADVER
  1
AC1014
  9
$ACADMAINTVER
 70
     9
  9
$DWGCODEPAGE
  3
ANSI_932
  9
$INSBASE
 10
0.0
 20
0.0
 30
0.0
  9
$EXTMIN
 10
50.00000000000024
 20
35.62078212290503
 30
0.0
  9
$EXTMAX
 10
223.1662386662269
 20
180.3000005805319
 30
0.0
  9
$LIMMIN
 10
0.0
 20
0.0
  9
$LIMMAX
 10
297.0
 20
210.0
  9
$ORTHOMODE
 70
     0
  9
$REGENMODE
 70
     1
  9
$FILLMODE
 70
     1
  9
$QTEXTMODE
 70
     0
  9
$MIRRTEXT
 70
     1
  9
$DRAGMODE
 70
     2
  9
$LTSCALE
 40
0.25
  9
$OSMODE
 70
    37
  9
$ATTMODE
 70
     1
  9
$TEXTSIZE
 40
4.0
  9
$TRACEWID
 40
0.05
  9
$TEXTSTYLE
  7
STANDARD
  9
$CLAYER
  8
0
  9
$CELTYPE
  6
BYLAYER
  9
$CECOLOR
 62
   256
  9
$CELTSCALE
 40
1.0
  9
$DELOBJ
 70
     1
  9
$DISPSILH
 70
     0
  9
$DIMSCALE
 40
1.0
  9
$DIMASZ
 40
4.0
  9
$DIMEXO
 40
1.0
  9
$DIMDLI
 40
10.0
  9
$DIMRND
 40
0.0
  9
$DIMDLE
 40
0.0
  9
$DIMEXE
 40
2.0
  9
$DIMTP
 40
0.0
  9
$DIMTM
 40
0.0
  9
$DIMTXT
 40
4.0
  9
$DIMCEN
 40
0.09
  9
$DIMTSZ
 40
0.0
  9
$DIMTOL
 70
     0
  9
$DIMLIM
 70
     0
  9
$DIMTIH
 70
     0
  9
$DIMTOH
 70
     0
  9
$DIMSE1
 70
     0
  9
$DIMSE2
 70
     0
  9
$DIMTAD
 70
     3
  9
$DIMZIN
 70
     8
  9
$DIMBLK
  1

  9
$DIMASO
 70
     1
  9
$DIMSHO
 70
     1
  9
$DIMPOST
  1

  9
$DIMAPOST
  1

  9
$DIMALT
 70
     0
  9
$DIMALTD
 70
     2
  9
$DIMALTF
 40
25.4
  9
$DIMLFAC
 40
1.0
  9
$DIMTOFL
 70
     1
  9
$DIMTVP
 40
0.7
  9
$DIMTIX
 70
     0
  9
$DIMSOXD
 70
     0
  9
$DIMSAH
 70
     0
  9
$DIMBLK1
  1

  9
$DIMBLK2
  1

  9
$DIMSTYLE
  2
STANDARD
  9
$DIMCLRD
 70
     0
  9
$DIMCLRE
 70
     0
  9
$DIMCLRT
 70
     0
  9
$DIMTFAC
 40
0.5
  9
$DIMGAP
 40
0.09
  9
$DIMJUST
 70
     0
  9
$DIMSD1
 70
     0
  9
$DIMSD2
 70
     0
  9
$DIMTOLJ
 70
     1
  9
$DIMTZIN
 70
     8
  9
$DIMALTZ
 70
     0
  9
$DIMALTTZ
 70
     0
  9
$DIMFIT
 70
     5
  9
$DIMUPT
 70
     1
  9
$DIMUNIT
 70
     2
  9
$DIMDEC
 70
     2
  9
$DIMTDEC
 70
     4
  9
$DIMALTU
 70
     2
  9
$DIMALTTD
 70
     2
  9
$DIMTXSTY
  7
STANDARD
  9
$DIMAUNIT
 70
     0
  9
$LUNITS
 70
     2
  9
$LUPREC
 70
     4
  9
$SKETCHINC
 40
0.1
  9
$FILLETRAD
 40
0.5
  9
$AUNITS
 70
     0
  9
$AUPREC
 70
     0
  9
$MENU
  1
.
  9
$ELEVATION
 40
0.0
  9
$PELEVATION
 40
0.0
  9
$THICKNESS
 40
0.0
  9
$LIMCHECK
 70
     0
  9
$CHAMFERA
 40
0.0
  9
$CHAMFERB
 40
0.0
  9
$CHAMFERC
 40
0.0
  9
$CHAMFERD
 40
0.0
  9
$SKPOLY
 70
     0
  9
$TDCREATE
 40
2456553.936921296
  9
$TDUPDATE
 40
2456553.561923264
  9
$TDINDWG
 40
0.0000000116
  9
$TDUSRTIMER
 40
0.0000000116
  9
$USRTIMER
 70
     1
  9
$ANGBASE
 50
0.0
  9
$ANGDIR
 70
     0
  9
$PDMODE
 70
     0
  9
$PDSIZE
 40
0.0
  9
$PLINEWID
 40
0.0
  9
$COORDS
 70
     1
  9
$SPLFRAME
 70
     0
  9
$SPLINETYPE
 70
     6
  9
$SPLINESEGS
 70
     8
  9
$ATTDIA
 70
     0
  9
$ATTREQ
 70
     1
  9
$HANDLING
 70
     1
  9
$HANDSEED
  5
1A4
  9
$SURFTAB1
 70
     6
  9
$SURFTAB2
 70
     6
  9
$SURFTYPE
 70
     6
  9
$SURFU
 70
     6
  9
$SURFV
 70
     6
  9
$UCSNAME
  2

  9
$UCSORG
 10
0.0
 20
0.0
 30
0.0
  9
$UCSXDIR
 10
1.0
 20
0.0
 30
0.0
  9
$UCSYDIR
 10
0.0
 20
1.0
 30
0.0
  9
$PUCSNAME
  2

  9
$PUCSORG
 10
0.0
 20
0.0
 30
0.0
  9
$PUCSXDIR
 10
1.0
 20
0.0
 30
0.0
  9
$PUCSYDIR
 10
0.0
 20
1.0
 30
0.0
  9
$USERI1
 70
     0
  9
$USERI2
 70
     0
  9
$USERI3
 70
     0
  9
$USERI4
 70
     0
  9
$USERI5
 70
     0
  9
$USERR1
 40
0.0
  9
$USERR2
 40
0.0
  9
$USERR3
 40
0.0
  9
$USERR4
 40
0.0
  9
$USERR5
 40
0.0
  9
$WORLDVIEW
 70
     1
  9
$SHADEDGE
 70
     3
  9
$SHADEDIF
 70
    70
  9
$TILEMODE
 70
     1
  9
$MAXACTVP
 70
    64
  9
$PINSBASE
 10
0.0
 20
0.0
 30
0.0
  9
$PLIMCHECK
 70
     0
  9
$PEXTMIN
 10
0.0
 20
0.0
 30
0.0
  9
$PEXTMAX
 10
297.0
 20
210.0
 30
0.0
  9
$PLIMMIN
 10
0.0
 20
0.0
  9
$PLIMMAX
 10
297.0
 20
210.0
  9
$UNITMODE
 70
     0
  9
$VISRETAIN
 70
     1
  9
$PLINEGEN
 70
     0
  9
$PSLTSCALE
 70
     1
  9
$TREEDEPTH
 70
  3020
  9
$PICKSTYLE
 70
     1
  9
$CMLSTYLE
  2
STANDARD
  9
$CMLJUST
 70
     0
  9
$CMLSCALE
 40
1.0
  9
$PROXYGRAPHICS
 70
     1
  9
$MEASUREMENT
 70
     1
  0
ENDSEC
  0
SECTION
  2
CLASSES
  0
CLASS
  1
ACDBDICTIONARYWDFLT
  2
AcDbDictionaryWithDefault
  3
ObjectDBX Classes
 90
        0
280
     0
281
     0
  0
CLASS
  1
VISUALSTYLE
  2
AcDbVisualStyle
  3
ObjectDBX Classes
 90
     4095
280
     0
281
     0
  0
CLASS
  1
MATERIAL
  2
AcDbMaterial
  3
ObjectDBX Classes
 90
     1153
280
     0
281
     0
  0
CLASS
  1
SCALE
  2
AcDbScale
  3
ObjectDBX Classes
 90
     1153
280
     0
281
     0
  0
CLASS
  1
SUN
  2
AcDbSun
  3
SCENEOE
 90
     1153
280
     0
281
     0
  0
CLASS
  1
DICTIONARYVAR
  2
AcDbDictionaryVar
  3
ObjectDBX Classes
 90
        0
280
     0
281
     0
  0
CLASS
  1
XRECORD
  2
AcDbXrecord
  3
ObjectDBX Classes
 90
        0
280
     0
281
     0
  0
CLASS
  1
LWPOLYLINE
  2
AcDbPolyline
  3
ObjectDBX Classes
 90
        0
280
     0
281
     1
  0
CLASS
  1
HATCH
  2
AcDbHatch
  3
ObjectDBX Classes
 90
        0
280
     0
281
     1
  0
CLASS
  1
ACDBPLACEHOLDER
  2
AcDbPlaceHolder
  3
ObjectDBX Classes
 90
        0
280
     0
281
     0
  0
CLASS
  1
LAYOUT
  2
AcDbLayout
  3
ObjectDBX Classes
 90
        0
280
     0
281
     0
  0
ENDSEC
  0
SECTION
  2
TABLES
  0
TABLE
  2
VPORT
  5
8
102
{ACAD_XDICTIONARY
360
19A
102
}
330
0
100
AcDbSymbolTable
 70
     1
  0
VPORT
  5
29
330
8
100
AcDbSymbolTableRecord
100
AcDbViewportTableRecord
  2
*ACTIVE
 70
     0
 10
0.0
 20
0.0
 11
1.0
 21
1.0
 12
10.42990654205607
 22
4.5
 13
0.0
 23
0.0
 14
0.5
 24
0.5
 15
0.5
 25
0.5
 16
0.0
 26
0.0
 36
1.0
 17
0.0
 27
0.0
 37
0.0
 40
9.0
 41
1.972972972850329
 42
50.0
 43
0.0
 44
0.0
 50
0.0
 51
0.0
 71
     0
 72
   100
 73
     1
 74
     3
 75
     0
 76
     0
 77
     0
 78
     0
  0
ENDTAB
  0
TABLE
  2
LTYPE
  5
5
330
0
100
AcDbSymbolTable
 70
     9
  0
LTYPE
  5
14
330
5
100
AcDbSymbolTableRecord
100
AcDbLinetypeTableRecord
  2
BYBLOCK
 70
     0
  3

 72
    65
 73
     0
 40
0.0
  0
LTYPE
  5
15
330
5
100
AcDbSymbolTableRecord
100
AcDbLinetypeTableRecord
  2
BYLAYER
 70
     0
  3

 72
    65
 73
     0
 40
0.0
  0
LTYPE
  5
16
330
5
100
AcDbSymbolTableRecord
100
AcDbLinetypeTableRecord
  2
CONTINUOUS
 70
     0
  3
Solid line
 72
    65
 73
     0
 40
0.0
  0
LTYPE
  5
B9
330
5
100
AcDbSymbolTableRecord
100
AcDbLinetypeTableRecord
  2
DOT
 70
     0
  3
DOT
 72
    65
 73
     2
 40
4.0
 49
6.0
 74
     0
 49
-2.0
 74
     0
  0
LTYPE
  5
BA
330
5
100
AcDbSymbolTableRecord
100
AcDbLinetypeTableRecord
  2
HIDDEN
 70
     0
  3
HIDDEN
 72
    65
 73
     2
 40
4.2
 49
8.4
 74
     0
 49
-4.2
 74
     0
  0
LTYPE
  5
BB
330
5
100
AcDbSymbolTableRecord
100
AcDbLinetypeTableRecord
  2
DASHDOT
 70
     0
  3
DASHDOT
 72
    65
 73
     4
 40
14.5
 49
30.0
 74
     0
 49
-9.0
 74
     0
 49
2.5
 74
     0
 49
-9.0
 74
     0
  0
LTYPE
  5
BC
330
5
100
AcDbSymbolTableRecord
100
AcDbLinetypeTableRecord
  2
PHANTOM
 70
     0
  3
PHANTOM
 72
    65
 73
     6
 40
12.0
 49
30.0
 74
     0
 49
-9.0
 74
     0
 49
2.5
 74
     0
 49
-5.0
 74
     0
 49
2.5
 74
     0
 49
-9.0
 74
     0
  0
LTYPE
  5
BD
330
5
100
AcDbSymbolTableRecord
100
AcDbLinetypeTableRecord
  2
ACAD_ISO14W100
 70
     0
  3
ACAD_ISO14W100
 72
    65
 73
     8
 40
1.5
 49
12.0
 74
     0
 49
-3.0
 74
     0
 49
0.5
 74
     0
 49
-3.0
 74
     0
 49
0.5
 74
     0
 49
-3.0
 74
     0
 49
0.5
 74
     0
 49
-3.0
 74
     0
  0
LTYPE
  5
BE
330
5
100
AcDbSymbolTableRecord
100
AcDbLinetypeTableRecord
  2
ACAD_ISO06W100
 70
     0
  3
ACAD_ISO06W100
 72
    65
 73
     8
 40
13.5
 49
24.0
 74
     0
 49
-3.0
 74
     0
 49
0.5
 74
     0
 49
-3.0
 74
     0
 49
0.5
 74
     0
 49
-3.0
 74
     0
 49
0.5
 74
     0
 49
-3.0
 74
     0
  0
LTYPE
  5
BF
330
5
100
AcDbSymbolTableRecord
100
AcDbLinetypeTableRecord
  2
ACAD_ISO11W100
 70
     0
  3
ACAD_ISO11W100
 72
    65
 73
     6
 40
15.5
 49
12.0
 74
     0
 49
-3.0
 74
     0
 49
12.0
 74
     0
 49
-3.0
 74
     0
 49
0.5
 74
     0
 49
-3.0
 74
     0
  0
LTYPE
  5
C0
330
5
100
AcDbSymbolTableRecord
100
AcDbLinetypeTableRecord
  2
ACAD_ISO13W100
 70
     0
  3
ACAD_ISO13W100
 72
    65
 73
     8
 40
13.0
 49
12.0
 74
     0
 49
-3.0
 74
     0
 49
12.0
 74
     0
 49
-3.0
 74
     0
 49
0.5
 74
     0
 49
-3.0
 74
     0
 49
0.5
 74
     0
 49
-3.0
 74
     0
  0
ENDTAB
  0
TABLE
  2
LAYER
  5
2
330
0
100
AcDbSymbolTable
 70
    22
  0
LAYER
  5
10
330
2
100
AcDbSymbolTableRecord
100
AcDbLayerTableRecord
  2
0
 70
     0
 62
     7
  6
CONTINUOUS
  0
LAYER
  5
C1
330
2
100
AcDbSymbolTableRecord
100
AcDbLayerTableRecord
  2
1
 70
     0
 62
     7
  6
CONTINUOUS
  0
LAYER
  5
C2
330
2
100
AcDbSymbolTableRecord
100
AcDbLayerTableRecord
  2
2
 70
     0
 62
   134
  6
CONTINUOUS
  0
LAYER
  5
C3
330
2
100
AcDbSymbolTableRecord
100
AcDbLayerTableRecord
  2
3
 70
     0
 62
   214
  6
CONTINUOUS
  0
LAYER
  5
C4
330
2
100
AcDbSymbolTableRecord
100
AcDbLayerTableRecord
  2
4
 70
     0
 62
    54
  6
CONTINUOUS
  0
LAYER
  5
C5
330
2
100
AcDbSymbolTableRecord
100
AcDbLayerTableRecord
  2
5
 70
     0
 62
    94
  6
CONTINUOUS
  0
LAYER
  5
C6
330
2
100
AcDbSymbolTableRecord
100
AcDbLayerTableRecord
  2
6
 70
     0
 62
    14
  6
CONTINUOUS
  0
LAYER
  5
C7
330
2
100
AcDbSymbolTableRecord
100
AcDbLayerTableRecord
  2
7
 70
     0
 62
     4
  6
CONTINUOUS
  0
LAYER
  5
C8
330
2
100
AcDbSymbolTableRecord
100
AcDbLayerTableRecord
  2
8
 70
     0
 62
     6
  6
CONTINUOUS
  0
LAYER
  5
C9
330
2
100
AcDbSymbolTableRecord
100
AcDbLayerTableRecord
  2
9
 70
     0
 62
     2
  6
CONTINUOUS
  0
LAYER
  5
CA
330
2
100
AcDbSymbolTableRecord
100
AcDbLayerTableRecord
  2
10
 70
     0
 62
     3
  6
CONTINUOUS
  0
LAYER
  5
CB
330
2
100
AcDbSymbolTableRecord
100
AcDbLayerTableRecord
  2
11
 70
     0
 62
   251
  6
CONTINUOUS
  0
LAYER
  5
CC
330
2
100
AcDbSymbolTableRecord
100
AcDbLayerTableRecord
  2
12
 70
     0
 62
   136
  6
CONTINUOUS
  0
LAYER
  5
CD
330
2
100
AcDbSymbolTableRecord
100
AcDbLayerTableRecord
  2
13
 70
     0
 62
   216
  6
CONTINUOUS
  0
LAYER
  5
CE
330
2
100
AcDbSymbolTableRecord
100
AcDbLayerTableRecord
  2
14
 70
     0
 62
    56
  6
CONTINUOUS
  0
LAYER
  5
CF
330
2
100
AcDbSymbolTableRecord
100
AcDbLayerTableRecord
  2
15
 70
     0
 62
    96
  6
CONTINUOUS
  0
LAYER
  5
D0
330
2
100
AcDbSymbolTableRecord
100
AcDbLayerTableRecord
  2
16
 70
     0
 62
    16
  6
CONTINUOUS
  0
LAYER
  5
D1
330
2
100
AcDbSymbolTableRecord
100
AcDbLayerTableRecord
  2
17
 70
     0
 62
   132
  6
CONTINUOUS
  0
LAYER
  5
D2
330
2
100
AcDbSymbolTableRecord
100
AcDbLayerTableRecord
  2
18
 70
     0
 62
   212
  6
CONTINUOUS
  0
LAYER
  5
D3
330
2
100
AcDbSymbolTableRecord
100
AcDbLayerTableRecord
  2
19
 70
     0
 62
    52
  6
CONTINUOUS
  0
LAYER
  5
D4
330
2
100
AcDbSymbolTableRecord
100
AcDbLayerTableRecord
  2
20
 70
     0
 62
   250
  6
CONTINUOUS
  0
LAYER
  5
D5
330
2
100
AcDbSymbolTableRecord
100
AcDbLayerTableRecord
  2
128
 70
     0
 62
     7
  6
CONTINUOUS
  0
ENDTAB
  0
TABLE
  2
STYLE
  5
3
330
0
100
AcDbSymbolTable
 70
     3
  0
STYLE
  5
11
330
3
100
AcDbSymbolTableRecord
100
AcDbTextStyleTableRecord
  2
STANDARD
 70
     0
 40
0.0
 41
1.0
 50
0.0
 71
     0
 42
4.0
  3
txt
  4
bigfont
  0
STYLE
  5
6C
330
3
100
AcDbSymbolTableRecord
100
AcDbTextStyleTableRecord
  2
T_STANDARD
 70
     4
 40
10.0
 41
1.0
 50
0.0
 71
     0
 42
4.0
  3
txt
  4
bigfont
1001
ACAD
1000

1071
      256
  0
STYLE
  5
134
330
3
100
AcDbSymbolTableRecord
100
AcDbTextStyleTableRecord
  2
ＭＳ_ゴシック
 70
     0
 40
0.0
 41
1.0
 50
0.0
 71
     0
 42
4.0
  3

  4

1001
ACAD
1000
ＭＳ ゴシック
1071
      256
  0
ENDTAB
  0
TABLE
  2
VIEW
  5
6
330
0
100
AcDbSymbolTable
 70
     0
  0
ENDTAB
  0
TABLE
  2
UCS
  5
7
330
0
100
AcDbSymbolTable
 70
     0
  0
ENDTAB
  0
TABLE
  2
APPID
  5
9
330
0
100
AcDbSymbolTable
 70
     2
  0
APPID
  5
12
330
9
100
AcDbSymbolTableRecord
100
AcDbRegAppTableRecord
  2
ACAD
 70
     0
  0
APPID
  5
6B
330
9
100
AcDbSymbolTableRecord
100
AcDbRegAppTableRecord
  2
ODA
 70
     0
  0
ENDTAB
  0
TABLE
  2
DIMSTYLE
  5
A
330
0
100
AcDbSymbolTable
 70
     1
  0
DIMSTYLE
105
27
102
{ACAD_REACTORS
330
13E
330
148
102
}
330
A
100
AcDbSymbolTableRecord
100
AcDbDimStyleTableRecord
  2
STANDARD
 70
     0
  3

  4

  5

  6

  7

 40
1.0
 41
0.18
 42
0.0625
 43
0.38
 44
0.18
 45
0.0
 46
0.0
 47
0.0
 48
0.0
140
0.18
141
0.09
142
0.0
143
25.4
144
1.0
145
0.0
146
1.0
147
0.09
 71
     0
 72
     0
 73
     1
 74
     1
 75
     0
 76
     0
 77
     0
 78
     0
170
     0
171
     2
172
     0
173
     0
174
     0
175
     0
176
     0
177
     0
178
     0
270
     2
271
     4
272
     4
273
     2
274
     2
340
11
275
     0
280
     0
281
     0
282
     0
283
     1
284
     0
285
     0
286
     0
287
     3
288
     0
  0
ENDTAB
  0
TABLE
  2
BLOCK_RECORD
  5
1
330
0
100
AcDbSymbolTable
 70
    18
  0
BLOCK_RECORD
  5
1F
330
1
100
AcDbSymbolTableRecord
100
AcDbBlockTableRecord
  2
*MODEL_SPACE
  0
BLOCK_RECORD
  5
1B
330
1
100
AcDbSymbolTableRecord
100
AcDbBlockTableRecord
  2
*PAPER_SPACE
  0
BLOCK_RECORD
  5
6D
330
1
100
AcDbSymbolTableRecord
100
AcDbBlockTableRecord
  2
_ORIGIN
  0
BLOCK_RECORD
  5
72
330
1
100
AcDbSymbolTableRecord
100
AcDbBlockTableRecord
  2
_DOTBLANK
  0
BLOCK_RECORD
  5
77
330
1
100
AcDbSymbolTableRecord
100
AcDbBlockTableRecord
  2
_DOT
  0
BLOCK_RECORD
  5
7C
330
1
100
AcDbSymbolTableRecord
100
AcDbBlockTableRecord
  2
_OPEN
  0
BLOCK_RECORD
  5
82
330
1
100
AcDbSymbolTableRecord
100
AcDbBlockTableRecord
  2
_CLOSED
  0
BLOCK_RECORD
  5
89
330
1
100
AcDbSymbolTableRecord
100
AcDbBlockTableRecord
  2
_CLOSEDBLANK
  0
BLOCK_RECORD
  5
8F
330
1
100
AcDbSymbolTableRecord
100
AcDbBlockTableRecord
  2
_ARROWFILLED
  0
BLOCK_RECORD
  5
93
330
1
100
AcDbSymbolTableRecord
100
AcDbBlockTableRecord
  2
_BOXBLANK
  0
BLOCK_RECORD
  5
9B
330
1
100
AcDbSymbolTableRecord
100
AcDbBlockTableRecord
  2
_BOXFILLED
  0
BLOCK_RECORD
  5
A0
330
1
100
AcDbSymbolTableRecord
100
AcDbBlockTableRecord
  2
_INTEGRAL
  0
BLOCK_RECORD
  5
A5
330
1
100
AcDbSymbolTableRecord
100
AcDbBlockTableRecord
  2
_OBLIQUE
  0
BLOCK_RECORD
  5
A9
330
1
100
AcDbSymbolTableRecord
100
AcDbBlockTableRecord
  2
_NONE
  0
BLOCK_RECORD
  5
AC
330
1
100
AcDbSymbolTableRecord
100
AcDbBlockTableRecord
  2
MARK_OPEN
  0
BLOCK_RECORD
  5
B1
330
1
100
AcDbSymbolTableRecord
100
AcDbBlockTableRecord
  2
MARK_ORIGIN
  0
BLOCK_RECORD
  5
B5
330
1
100
AcDbSymbolTableRecord
100
AcDbBlockTableRecord
  2
MARK_DOT
  0
BLOCK_RECORD
  5
135
330
1
100
AcDbSymbolTableRecord
100
AcDbBlockTableRecord
  2
DIM1
  0
BLOCK_RECORD
  5
13F
330
1
100
AcDbSymbolTableRecord
100
AcDbBlockTableRecord
  2
DIM2
  0
ENDTAB
  0
ENDSEC
  0
SECTION
  2
BLOCKS
  0
BLOCK
  5
20
330
1F
100
AcDbEntity
  8
0
100
AcDbBlockBegin
  2
*MODEL_SPACE
 70
     0
 10
0.0
 20
0.0
 30
0.0
  3
*MODEL_SPACE
  1

  0
ENDBLK
  5
21
330
1F
100
AcDbEntity
  8
0
100
AcDbBlockEnd
  0
BLOCK
  5
1C
330
1B
100
AcDbEntity
 67
     1
  8
0
100
AcDbBlockBegin
  2
*PAPER_SPACE
 70
     0
 10
0.0
 20
0.0
 30
0.0
  3
*PAPER_SPACE
  1

  0
ENDBLK
  5
1D
330
1B
100
AcDbEntity
 67
     1
  8
0
100
AcDbBlockEnd
  0
BLOCK
  5
70
330
6D
100
AcDbEntity
  8
0
100
AcDbBlockBegin
  2
_ORIGIN
 70
     0
 10
0.0
 20
0.0
 30
0.0
  3
_ORIGIN
  1
_ORIGIN
  0
CIRCLE
  5
6E
330
6D
100
AcDbEntity
  8
0
100
AcDbCircle
 10
0.0
 20
0.0
 30
0.0
 40
0.5
  0
LINE
  5
6F
330
6D
100
AcDbEntity
  8
0
100
AcDbLine
 10
0.0
 20
0.0
 30
0.0
 11
-1.0
 21
0.0
 31
0.0
  0
ENDBLK
  5
71
330
6D
100
AcDbEntity
  8
0
100
AcDbBlockEnd
  0
BLOCK
  5
75
330
72
100
AcDbEntity
  8
0
100
AcDbBlockBegin
  2
_DOTBLANK
 70
     0
 10
0.0
 20
0.0
 30
0.0
  3
_DOTBLANK
  1
_DOTBLANK
  0
CIRCLE
  5
73
330
72
100
AcDbEntity
  8
0
100
AcDbCircle
 10
0.0
 20
0.0
 30
0.0
 40
0.5
  0
LINE
  5
74
330
72
100
AcDbEntity
  8
0
100
AcDbLine
 10
-0.5
 20
0.0
 30
0.0
 11
-1.0
 21
0.0
 31
0.0
  0
ENDBLK
  5
76
330
72
100
AcDbEntity
  8
0
100
AcDbBlockEnd
  0
BLOCK
  5
7A
330
77
100
AcDbEntity
  8
0
100
AcDbBlockBegin
  2
_DOT
 70
     0
 10
0.0
 20
0.0
 30
0.0
  3
_DOT
  1
_DOT
  0
LWPOLYLINE
  5
78
330
77
100
AcDbEntity
  8
0
100
AcDbPolyline
 90
        2
 70
     1
 43
0.5
 10
-0.25
 20
0.0
 42
1.0
 10
0.25
 20
0.0
 42
1.0
  0
LINE
  5
79
330
77
100
AcDbEntity
  8
0
100
AcDbLine
 10
-0.5
 20
0.0
 30
0.0
 11
-1.0
 21
0.0
 31
0.0
  0
ENDBLK
  5
7B
330
77
100
AcDbEntity
  8
0
100
AcDbBlockEnd
  0
BLOCK
  5
80
330
7C
100
AcDbEntity
  8
0
100
AcDbBlockBegin
  2
_OPEN
 70
     0
 10
0.0
 20
0.0
 30
0.0
  3
_OPEN
  1
_OPEN
  0
LINE
  5
7D
330
7C
100
AcDbEntity
  8
0
100
AcDbLine
 10
0.0
 20
0.0
 30
0.0
 11
-1.0
 21
0.1666666666666667
 31
0.0
  0
LINE
  5
7E
330
7C
100
AcDbEntity
  8
0
100
AcDbLine
 10
0.0
 20
0.0
 30
0.0
 11
-1.0
 21
-0.1666666666666667
 31
0.0
  0
LINE
  5
7F
330
7C
100
AcDbEntity
  8
0
100
AcDbLine
 10
0.0
 20
0.0
 30
0.0
 11
-1.0
 21
0.0
 31
0.0
  0
ENDBLK
  5
81
330
7C
100
AcDbEntity
  8
0
100
AcDbBlockEnd
  0
BLOCK
  5
87
330
82
100
AcDbEntity
  8
0
100
AcDbBlockBegin
  2
_CLOSED
 70
     0
 10
0.0
 20
0.0
 30
0.0
  3
_CLOSED
  1
_CLOSED
  0
LINE
  5
83
330
82
100
AcDbEntity
  8
0
100
AcDbLine
 10
0.0
 20
0.0
 30
0.0
 11
-1.0
 21
0.1666666666666667
 31
0.0
  0
LINE
  5
84
330
82
100
AcDbEntity
  8
0
100
AcDbLine
 10
0.0
 20
0.0
 30
0.0
 11
-1.0
 21
-0.1666666666666667
 31
0.0
  0
LINE
  5
85
330
82
100
AcDbEntity
  8
0
100
AcDbLine
 10
-1.0
 20
0.1666666666666667
 30
0.0
 11
-1.0
 21
-0.1666666666666667
 31
0.0
  0
LINE
  5
86
330
82
100
AcDbEntity
  8
0
100
AcDbLine
 10
0.0
 20
0.0
 30
0.0
 11
-1.0
 21
0.0
 31
0.0
  0
ENDBLK
  5
88
330
82
100
AcDbEntity
  8
0
100
AcDbBlockEnd
  0
BLOCK
  5
8D
330
89
100
AcDbEntity
  8
0
100
AcDbBlockBegin
  2
_CLOSEDBLANK
 70
     0
 10
0.0
 20
0.0
 30
0.0
  3
_CLOSEDBLANK
  1
_CLOSEDBLANK
  0
LINE
  5
8A
330
89
100
AcDbEntity
  8
0
100
AcDbLine
 10
0.0
 20
0.0
 30
0.0
 11
-1.0
 21
0.1666666666666667
 31
0.0
  0
LINE
  5
8B
330
89
100
AcDbEntity
  8
0
100
AcDbLine
 10
0.0
 20
0.0
 30
0.0
 11
-1.0
 21
-0.1666666666666667
 31
0.0
  0
LINE
  5
8C
330
89
100
AcDbEntity
  8
0
100
AcDbLine
 10
-1.0
 20
0.1666666666666667
 30
0.0
 11
-1.0
 21
-0.1666666666666667
 31
0.0
  0
ENDBLK
  5
8E
330
89
100
AcDbEntity
  8
0
100
AcDbBlockEnd
  0
BLOCK
  5
91
330
8F
100
AcDbEntity
  8
0
100
AcDbBlockBegin
  2
_ARROWFILLED
 70
     0
 10
0.0
 20
0.0
 30
0.0
  3
_ARROWFILLED
  1
_ARROWFILLED
  0
SOLID
  5
90
330
8F
100
AcDbEntity
  8
0
100
AcDbTrace
 10
0.0
 20
0.0
 30
0.0
 11
-1.0
 21
-0.1666666666666667
 31
0.0
 12
-1.0
 22
0.1666666666666667
 32
0.0
 13
0.0
 23
0.0
 33
0.0
  0
ENDBLK
  5
92
330
8F
100
AcDbEntity
  8
0
100
AcDbBlockEnd
  0
BLOCK
  5
99
330
93
100
AcDbEntity
  8
0
100
AcDbBlockBegin
  2
_BOXBLANK
 70
     0
 10
0.0
 20
0.0
 30
0.0
  3
_BOXBLANK
  1
_BOXBLANK
  0
LINE
  5
94
330
93
100
AcDbEntity
  8
0
100
AcDbLine
 10
-0.5
 20
-0.5
 30
0.0
 11
0.5
 21
-0.5
 31
0.0
  0
LINE
  5
95
330
93
100
AcDbEntity
  8
0
100
AcDbLine
 10
0.5
 20
-0.5
 30
0.0
 11
0.5
 21
0.5
 31
0.0
  0
LINE
  5
96
330
93
100
AcDbEntity
  8
0
100
AcDbLine
 10
0.5
 20
0.5
 30
0.0
 11
-0.5
 21
0.5
 31
0.0
  0
LINE
  5
97
330
93
100
AcDbEntity
  8
0
100
AcDbLine
 10
-0.5
 20
0.5
 30
0.0
 11
-0.5
 21
-0.5
 31
0.0
  0
LINE
  5
98
330
93
100
AcDbEntity
  8
0
100
AcDbLine
 10
-0.5
 20
0.0
 30
0.0
 11
-1.0
 21
0.0
 31
0.0
  0
ENDBLK
  5
9A
330
93
100
AcDbEntity
  8
0
100
AcDbBlockEnd
  0
BLOCK
  5
9E
330
9B
100
AcDbEntity
  8
0
100
AcDbBlockBegin
  2
_BOXFILLED
 70
     0
 10
0.0
 20
0.0
 30
0.0
  3
_BOXFILLED
  1
_BOXFILLED
  0
SOLID
  5
9C
330
9B
100
AcDbEntity
  8
0
100
AcDbTrace
 10
-0.5
 20
0.5
 30
0.0
 11
0.5
 21
0.5
 31
0.0
 12
-0.5
 22
-0.5
 32
0.0
 13
0.5
 23
-0.5
 33
0.0
  0
LINE
  5
9D
330
9B
100
AcDbEntity
  8
0
100
AcDbLine
 10
-0.5
 20
0.0
 30
0.0
 11
-1.0
 21
0.0
 31
0.0
  0
ENDBLK
  5
9F
330
9B
100
AcDbEntity
  8
0
100
AcDbBlockEnd
  0
BLOCK
  5
A3
330
A0
100
AcDbEntity
  8
0
100
AcDbBlockBegin
  2
_INTEGRAL
 70
     0
 10
0.0
 20
0.0
 30
0.0
  3
_INTEGRAL
  1
_INTEGRAL
  0
ARC
  5
A1
330
A0
100
AcDbEntity
  8
0
100
AcDbCircle
 10
0.444888
 20
-0.0913346
 30
0.0
 40
0.4541666
100
AcDbArc
 50
101.9999999999999
 51
167.9999999999998
  0
ARC
  5
A2
330
A0
100
AcDbEntity
  8
0
100
AcDbCircle
 10
-0.444888
 20
0.0913346
 30
0.0
 40
0.4541666
100
AcDbArc
 50
281.9999999999997
 51
347.9999999999997
  0
ENDBLK
  5
A4
330
A0
100
AcDbEntity
  8
0
100
AcDbBlockEnd
  0
BLOCK
  5
A7
330
A5
100
AcDbEntity
  8
0
100
AcDbBlockBegin
  2
_OBLIQUE
 70
     0
 10
0.0
 20
0.0
 30
0.0
  3
_OBLIQUE
  1
_OBLIQUE
  0
LINE
  5
A6
330
A5
100
AcDbEntity
  8
0
100
AcDbLine
 10
-0.5
 20
-0.5
 30
0.0
 11
0.5
 21
0.5
 31
0.0
  0
ENDBLK
  5
A8
330
A5
100
AcDbEntity
  8
0
100
AcDbBlockEnd
  0
BLOCK
  5
AA
330
A9
100
AcDbEntity
  8
0
100
AcDbBlockBegin
  2
_NONE
 70
     0
 10
0.0
 20
0.0
 30
0.0
  3
_NONE
  1
_NONE
  0
ENDBLK
  5
AB
330
A9
100
AcDbEntity
  8
0
100
AcDbBlockEnd
  0
BLOCK
  5
AF
330
AC
100
AcDbEntity
  8
0
100
AcDbBlockBegin
  2
MARK_OPEN
 70
     0
 10
0.0
 20
0.0
 30
0.0
  3
MARK_OPEN
  1
MARK_OPEN
  0
LINE
  5
AD
330
AC
100
AcDbEntity
  8
0
100
AcDbLine
 10
0.0
 20
0.0
 30
0.0
 11
-1.0
 21
0.1666666666666667
 31
0.0
  0
LINE
  5
AE
330
AC
100
AcDbEntity
  8
0
100
AcDbLine
 10
0.0
 20
0.0
 30
0.0
 11
-1.0
 21
-0.1666666666666667
 31
0.0
  0
ENDBLK
  5
B0
330
AC
100
AcDbEntity
  8
0
100
AcDbBlockEnd
  0
BLOCK
  5
B3
330
B1
100
AcDbEntity
  8
0
100
AcDbBlockBegin
  2
MARK_ORIGIN
 70
     0
 10
0.0
 20
0.0
 30
0.0
  3
MARK_ORIGIN
  1
MARK_ORIGIN
  0
CIRCLE
  5
B2
330
B1
100
AcDbEntity
  8
0
100
AcDbCircle
 10
0.0
 20
0.0
 30
0.0
 40
0.5
  0
ENDBLK
  5
B4
330
B1
100
AcDbEntity
  8
0
100
AcDbBlockEnd
  0
BLOCK
  5
B7
330
B5
100
AcDbEntity
  8
0
100
AcDbBlockBegin
  2
MARK_DOT
 70
     0
 10
0.0
 20
0.0
 30
0.0
  3
MARK_DOT
  1
MARK_DOT
  0
LWPOLYLINE
  5
B6
330
B5
100
AcDbEntity
  8
0
100
AcDbPolyline
 90
        2
 70
     1
 43
0.5
 10
-0.25
 20
0.0
 42
1.0
 10
0.25
 20
0.0
 42
1.0
  0
ENDBLK
  5
B8
330
B5
100
AcDbEntity
  8
0
100
AcDbBlockEnd
  0
BLOCK
  5
136
330
135
100
AcDbEntity
  8
0
100
AcDbBlockBegin
  2
DIM1
 70
     0
 10
0.0
 20
0.0
 30
0.0
  3
DIM1
  1
DIM1
  0
LINE
  5
138
330
135
100
AcDbEntity
  8
2
  6
CONTINUOUS
 62
   134
100
AcDbLine
 10
75.00000000000003
 20
139.7000005805319
 30
0.0
 11
51.99999999999999
 21
139.7000005805323
 31
0.0
  0
LINE
  5
139
330
135
100
AcDbEntity
  8
2
  6
CONTINUOUS
 62
   134
100
AcDbLine
 10
75.0
 20
177.3000005805319
 30
0.0
 11
52.00000000000051
 21
177.3000005805324
 31
0.0
  0
LINE
  5
13A
330
135
100
AcDbEntity
  8
2
  6
CONTINUOUS
 62
   134
100
AcDbLine
 10
53.99999999999999
 20
139.7000005805323
 30
0.0
 11
54.00000000000051
 21
177.3000005805323
 31
0.0
  0
MTEXT
  5
13B
330
135
100
AcDbEntity
  8
2
  6
CONTINUOUS
 62
   134
100
AcDbMText
 10
54.00000000000025
 20
158.5000005805323
 30
0.0
 40
4.0
 41
60.95238095238096
 71
     8
 72
     1
  1
37.6
  7
ＭＳ_ゴシック
 11
1.615544574432587E-15
 21
1.0
 31
0.0
1001
ACAD
1000
ACAD_MTEXT_DEFINED_HEIGHT_BEGIN
1070
    46
1040
4.0
1000
ACAD_MTEXT_DEFINED_HEIGHT_END
  0
INSERT
  5
13C
330
135
100
AcDbEntity
  8
2
  6
CONTINUOUS
 62
   134
100
AcDbBlockReference
  2
_OPEN
 10
53.99999999999999
 20
139.7000005805323
 30
0.0
 41
4.0
 42
4.0
 43
4.0
 50
269.999999999999
  0
INSERT
  5
13D
330
135
100
AcDbEntity
  8
2
  6
CONTINUOUS
 62
   134
100
AcDbBlockReference
  2
_OPEN
 10
54.00000000000051
 20
177.3000005805323
 30
0.0
 41
4.0
 42
4.0
 43
4.0
 50
89.999999999999
  0
ENDBLK
  5
137
330
135
100
AcDbEntity
  8
0
100
AcDbBlockEnd
  0
BLOCK
  5
140
330
13F
100
AcDbEntity
  8
0
100
AcDbBlockBegin
  2
DIM2
 70
     0
 10
0.0
 20
0.0
 30
0.0
  3
DIM2
  1
DIM2
  0
LINE
  5
142
330
13F
100
AcDbEntity
  8
2
  6
CONTINUOUS
 62
   134
100
AcDbLine
 10
65.99999999999999
 20
138.7000005805319
 30
0.0
 11
65.9999999999998
 21
125.7000005805319
 31
0.0
  0
LINE
  5
143
330
13F
100
AcDbEntity
  8
2
  6
CONTINUOUS
 62
   134
100
AcDbLine
 10
104.0
 20
138.7000005805319
 30
0.0
 11
103.9999999999998
 21
125.7000005805319
 31
0.0
  0
LINE
  5
144
330
13F
100
AcDbEntity
  8
2
  6
CONTINUOUS
 62
   134
100
AcDbLine
 10
65.99999999999983
 20
127.7000005805319
 30
0.0
 11
103.9999999999999
 21
127.7000005805319
 31
0.0
  0
MTEXT
  5
145
330
13F
100
AcDbEntity
  8
2
  6
CONTINUOUS
 62
   134
100
AcDbMText
 10
84.99999999999984
 20
127.7000005805319
 30
0.0
 40
4.0
 41
49.52380952380952
 71
     8
 72
     1
  1
φ38
  7
ＭＳ_ゴシック
1001
ACAD
1000
ACAD_MTEXT_DEFINED_HEIGHT_BEGIN
1070
    46
1040
4.0
1000
ACAD_MTEXT_DEFINED_HEIGHT_END
  0
INSERT
  5
146
330
13F
100
AcDbEntity
  8
2
  6
CONTINUOUS
 62
   134
100
AcDbBlockReference
  2
_OPEN
 10
65.99999999999983
 20
127.7000005805319
 30
0.0
 41
4.0
 42
4.0
 43
4.0
 50
179.9999999999998
  0
INSERT
  5
147
330
13F
100
AcDbEntity
  8
2
  6
CONTINUOUS
 62
   134
100
AcDbBlockReference
  2
_OPEN
 10
103.9999999999999
 20
127.7000005805319
 30
0.0
 41
4.0
 42
4.0
 43
4.0
 50
359.9999999999997
  0
ENDBLK
  5
141
330
13F
100
AcDbEntity
  8
0
100
AcDbBlockEnd
  0
ENDSEC
  0
SECTION
  2
ENTITIES
  0
LINE
  5
D6
330
1F
100
AcDbEntity
  8
3
  6
CONTINUOUS
 62
   214
100
AcDbLine
 10
220.1662386662268
 20
72.99999999999999
 30
0.0
 11
219.1662386662268
 21
72.99999999999999
 31
0.0
  0
LINE
  5
D7
330
1F
100
AcDbEntity
  8
3
  6
CONTINUOUS
 62
   214
100
AcDbLine
 10
182.5662386662268
 20
73.00000000000001
 30
0.0
 11
183.5662386662268
 21
73.00000000000001
 31
0.0
  0
LINE
  5
D8
330
1F
100
AcDbEntity
  8
3
  6
CONTINUOUS
 62
   214
100
AcDbLine
 10
220.1662386662268
 20
56.99999999999999
 30
0.0
 11
219.1662386662268
 21
56.99999999999999
 31
0.0
  0
LINE
  5
D9
330
1F
100
AcDbEntity
  8
3
  6
CONTINUOUS
 62
   214
100
AcDbLine
 10
182.5662386662268
 20
57.00000000000001
 30
0.0
 11
183.5662386662268
 21
57.00000000000001
 31
0.0
  0
LINE
  5
DA
330
1F
100
AcDbEntity
  8
3
  6
CONTINUOUS
 62
   214
100
AcDbLine
 10
185.266238666227
 20
84.00000000000004
 30
0.0
 11
185.866238666227
 21
78.00000000000006
 31
0.0
  0
LINE
  5
DB
330
1F
100
AcDbEntity
  8
3
  6
CONTINUOUS
 62
   214
100
AcDbLine
 10
217.4662386662268
 20
84.0
 30
0.0
 11
216.8662386662268
 21
77.99999999999997
 31
0.0
  0
LINE
  5
DC
330
1F
100
AcDbEntity
  8
3
  6
CONTINUOUS
 62
   214
100
AcDbLine
 10
185.2662386662269
 20
46.00000000000001
 30
0.0
 11
185.8662386662269
 21
51.99999999999999
 31
0.0
  0
LINE
  5
DD
330
1F
100
AcDbEntity
  8
3
  6
CONTINUOUS
 62
   214
100
AcDbLine
 10
217.4662386662268
 20
45.99999999999997
 30
0.0
 11
216.8662386662268
 21
51.99999999999994
 31
0.0
  0
LINE
  5
DE
330
1F
100
AcDbEntity
  8
3
  6
CONTINUOUS
 62
   214
100
AcDbLine
 10
183.5662386662268
 20
84.00000000000003
 30
0.0
 11
185.266238666227
 21
84.00000000000004
 31
0.0
  0
LINE
  5
DF
330
1F
100
AcDbEntity
  8
3
  6
CONTINUOUS
 62
   214
100
AcDbLine
 10
183.5662386662268
 20
46.0
 30
0.0
 11
185.2662386662269
 21
46.00000000000001
 31
0.0
  0
LINE
  5
E0
330
1F
100
AcDbEntity
  8
3
  6
CONTINUOUS
 62
   214
100
AcDbLine
 10
219.1662386662269
 20
84.0
 30
0.0
 11
217.4662386662268
 21
84.0
 31
0.0
  0
LINE
  5
E1
330
1F
100
AcDbEntity
  8
3
  6
CONTINUOUS
 62
   214
100
AcDbLine
 10
219.1662386662268
 20
45.99999999999997
 30
0.0
 11
217.4662386662268
 21
45.99999999999997
 31
0.0
  0
LINE
  5
E2
330
1F
100
AcDbEntity
  8
3
  6
CONTINUOUS
 62
   214
100
AcDbLine
 10
185.866238666227
 20
78.00000000000003
 30
0.0
 11
186.3662386662268
 21
78.0
 31
0.0
  0
LINE
  5
E3
330
1F
100
AcDbEntity
  8
3
  6
CONTINUOUS
 62
   214
100
AcDbLine
 10
216.3662386662268
 20
77.99999999999997
 30
0.0
 11
216.8662386662268
 21
77.99999999999994
 31
0.0
  0
LINE
  5
E4
330
1F
100
AcDbEntity
  8
3
  6
CONTINUOUS
 62
   214
100
AcDbLine
 10
185.8662386662269
 20
51.99999999999999
 30
0.0
 11
186.3662386662268
 21
51.99999999999998
 31
0.0
  0
LINE
  5
E5
330
1F
100
AcDbEntity
  8
3
  6
CONTINUOUS
 62
   214
100
AcDbLine
 10
216.3662386662268
 20
51.99999999999996
 30
0.0
 11
216.8662386662268
 21
51.99999999999994
 31
0.0
  0
LINE
  5
E6
330
1F
100
AcDbEntity
  8
3
  6
DASHDOT
 62
   214
100
AcDbLine
 10
179.5662386662268
 20
65.0
 30
0.0
 11
223.1662386662269
 21
64.99999999999996
 31
0.0
  0
LINE
  5
E7
330
1F
100
AcDbEntity
  8
3
  6
CONTINUOUS
 62
   214
100
AcDbLine
 10
220.1662386662268
 20
72.99999999999999
 30
0.0
 11
220.1662386662268
 21
56.99999999999999
 31
0.0
  0
LINE
  5
E8
330
1F
100
AcDbEntity
  8
3
  6
CONTINUOUS
 62
   214
100
AcDbLine
 10
219.1662386662269
 20
84.0
 30
0.0
 11
219.1662386662268
 21
45.99999999999997
 31
0.0
  0
LINE
  5
E9
330
1F
100
AcDbEntity
  8
3
  6
CONTINUOUS
 62
   214
100
AcDbLine
 10
217.4662386662268
 20
84.0
 30
0.0
 11
217.4662386662268
 21
45.99999999999997
 31
0.0
  0
LINE
  5
EA
330
1F
100
AcDbEntity
  8
3
  6
CONTINUOUS
 62
   214
100
AcDbLine
 10
216.8662386662268
 20
77.99999999999997
 30
0.0
 11
216.8662386662268
 21
51.99999999999994
 31
0.0
  0
LINE
  5
EB
330
1F
100
AcDbEntity
  8
3
  6
CONTINUOUS
 62
   214
100
AcDbLine
 10
182.5662386662268
 20
73.00000000000001
 30
0.0
 11
182.5662386662268
 21
57.00000000000001
 31
0.0
  0
LINE
  5
EC
330
1F
100
AcDbEntity
  8
3
  6
CONTINUOUS
 62
   214
100
AcDbLine
 10
183.5662386662268
 20
84.00000000000003
 30
0.0
 11
183.5662386662268
 21
46.0
 31
0.0
  0
LINE
  5
ED
330
1F
100
AcDbEntity
  8
3
  6
CONTINUOUS
 62
   214
100
AcDbLine
 10
185.266238666227
 20
84.00000000000004
 30
0.0
 11
185.2662386662269
 21
46.00000000000001
 31
0.0
  0
LINE
  5
EE
330
1F
100
AcDbEntity
  8
3
  6
CONTINUOUS
 62
   214
100
AcDbLine
 10
185.866238666227
 20
78.00000000000006
 30
0.0
 11
185.8662386662269
 21
51.99999999999999
 31
0.0
  0
MTEXT
  5
EF
330
1F
100
AcDbEntity
  8
10
  6
CONTINUOUS
 62
     3
100
AcDbMText
 10
123.7701756143998
 20
35.62078212290503
 30
0.0
 40
10.0
 41
56.48182898509999
 71
     7
 72
     1
  1
{\fＭＳ ゴシック;\T0.798217;CS 1.6-1}
1001
ACAD
1000
ACAD_MTEXT_DEFINED_HEIGHT_BEGIN
1070
    46
1040
10.0
1000
ACAD_MTEXT_DEFINED_HEIGHT_END
  0
LINE
  5
F0
330
1F
100
AcDbEntity
  8
3
  6
DASHDOT
 62
   214
100
AcDbLine
 10
134.5
 20
163.5000005805319
 30
0.0
 11
134.5
 21
153.5000005805319
 31
0.0
  0
LINE
  5
F1
330
1F
100
AcDbEntity
  8
3
  6
DASHDOT
 62
   214
100
AcDbLine
 10
114.9999999999999
 20
166.5000005805319
 30
0.0
 11
124.9999999999997
 21
166.5000005805319
 31
0.0
  0
LINE
  5
F2
330
1F
100
AcDbEntity
  8
3
  6
DASHDOT
 62
   214
100
AcDbLine
 10
114.9999999999998
 20
150.5000005805319
 30
0.0
 11
124.9999999999996
 21
150.5000005805319
 31
0.0
  0
LINE
  5
F3
330
1F
100
AcDbEntity
  8
3
  6
DASHDOT
 62
   214
100
AcDbLine
 10
84.99999999999999
 20
180.3000005805319
 30
0.0
 11
85.00000000000001
 21
136.7000005805319
 31
0.0
  0
LINE
  5
F4
330
1F
100
AcDbEntity
  8
3
  6
CONTINUOUS
 62
   214
100
AcDbLine
 10
93.00000000000003
 20
139.7000005805319
 30
0.0
 11
93.00000000000003
 21
140.7000005805319
 31
0.0
  0
LINE
  5
F5
330
1F
100
AcDbEntity
  8
3
  6
CONTINUOUS
 62
   214
100
AcDbLine
 10
93.0
 20
177.3000005805319
 30
0.0
 11
93.0
 21
176.3000005805319
 31
0.0
  0
LINE
  5
F6
330
1F
100
AcDbEntity
  8
3
  6
CONTINUOUS
 62
   214
100
AcDbLine
 10
77.00000000000003
 20
139.7000005805319
 30
0.0
 11
77.00000000000003
 21
140.7000005805319
 31
0.0
  0
LINE
  5
F7
330
1F
100
AcDbEntity
  8
3
  6
CONTINUOUS
 62
   214
100
AcDbLine
 10
77.0
 20
177.3000005805319
 30
0.0
 11
77.0
 21
176.3000005805319
 31
0.0
  0
LINE
  5
F8
330
1F
100
AcDbEntity
  8
3
  6
CONTINUOUS
 62
   214
100
AcDbLine
 10
104.0
 20
174.6000005805317
 30
0.0
 11
98.00000000000004
 21
174.0000005805318
 31
0.0
  0
LINE
  5
F9
330
1F
100
AcDbEntity
  8
3
  6
CONTINUOUS
 62
   214
100
AcDbLine
 10
104.0
 20
142.4000005805319
 30
0.0
 11
98.00000000000001
 21
143.0000005805319
 31
0.0
  0
LINE
  5
FA
330
1F
100
AcDbEntity
  8
3
  6
CONTINUOUS
 62
   214
100
AcDbLine
 10
66.0
 20
174.6000005805317
 30
0.0
 11
71.99999999999999
 21
174.0000005805318
 31
0.0
  0
LINE
  5
FB
330
1F
100
AcDbEntity
  8
3
  6
CONTINUOUS
 62
   214
100
AcDbLine
 10
66.00000000000001
 20
142.4000005805319
 30
0.0
 11
71.99999999999999
 21
143.0000005805319
 31
0.0
  0
LINE
  5
FC
330
1F
100
AcDbEntity
  8
3
  6
CONTINUOUS
 62
   214
100
AcDbLine
 10
104.0
 20
176.3000005805319
 30
0.0
 11
104.0
 21
174.6000005805317
 31
0.0
  0
LINE
  5
FD
330
1F
100
AcDbEntity
  8
3
  6
CONTINUOUS
 62
   214
100
AcDbLine
 10
65.99999999999999
 20
176.3000005805319
 30
0.0
 11
66.0
 21
174.6000005805317
 31
0.0
  0
LINE
  5
FE
330
1F
100
AcDbEntity
  8
3
  6
CONTINUOUS
 62
   214
100
AcDbLine
 10
104.0
 20
140.7000005805319
 30
0.0
 11
104.0
 21
142.4000005805319
 31
0.0
  0
LINE
  5
FF
330
1F
100
AcDbEntity
  8
3
  6
CONTINUOUS
 62
   214
100
AcDbLine
 10
66.00000000000001
 20
140.7000005805319
 30
0.0
 11
66.00000000000001
 21
142.4000005805319
 31
0.0
  0
LINE
  5
100
330
1F
100
AcDbEntity
  8
3
  6
CONTINUOUS
 62
   214
100
AcDbLine
 10
98.00000000000001
 20
174.0000005805318
 30
0.0
 11
97.99999999999999
 21
173.5000005805319
 31
0.0
  0
LINE
  5
101
330
1F
100
AcDbEntity
  8
3
  6
CONTINUOUS
 62
   214
100
AcDbLine
 10
98.00000000000001
 20
143.5000005805319
 30
0.0
 11
97.99999999999999
 21
143.0000005805319
 31
0.0
  0
LINE
  5
102
330
1F
100
AcDbEntity
  8
3
  6
CONTINUOUS
 62
   214
100
AcDbLine
 10
71.99999999999999
 20
174.0000005805318
 30
0.0
 11
71.99999999999997
 21
173.5000005805319
 31
0.0
  0
LINE
  5
103
330
1F
100
AcDbEntity
  8
3
  6
CONTINUOUS
 62
   214
100
AcDbLine
 10
72.0
 20
143.5000005805319
 30
0.0
 11
71.99999999999999
 21
143.0000005805319
 31
0.0
  0
LINE
  5
104
330
1F
100
AcDbEntity
  8
3
  6
HIDDEN
 62
   214
100
AcDbLine
 10
112.4999999999999
 20
173.5000005805319
 30
0.0
 11
112.4999999999999
 21
143.5000005805319
 31
0.0
  0
LINE
  5
105
330
1F
100
AcDbEntity
  8
3
  6
CONTINUOUS
 62
   214
100
AcDbLine
 10
125.9999999999999
 20
143.5000005805319
 30
0.0
 11
125.9999999999998
 21
173.5000005805319
 31
0.0
  0
CIRCLE
  5
106
330
1F
100
AcDbEntity
  8
3
  6
CONTINUOUS
 62
   214
100
AcDbCircle
 10
119.9999999999998
 20
150.5000005805319
 30
0.0
 40
2.75
  0
CIRCLE
  5
107
330
1F
100
AcDbEntity
  8
3
  6
CONTINUOUS
 62
   214
100
AcDbCircle
 10
119.9999999999999
 20
166.5000005805319
 30
0.0
 40
2.75
  0
CIRCLE
  5
108
330
1F
100
AcDbEntity
  8
3
  6
CONTINUOUS
 62
   214
100
AcDbCircle
 10
134.5
 20
158.5000005805319
 30
0.0
 40
2.25
  0
LINE
  5
109
330
1F
100
AcDbEntity
  8
3
  6
CONTINUOUS
 62
   214
100
AcDbLine
 10
117.5500000000002
 20
87.20000058053176
 30
0.0
 11
122.4500000000002
 21
87.20000058053176
 31
0.0
  0
ARC
  5
10A
330
1F
100
AcDbEntity
  8
3
  6
CONTINUOUS
 62
   214
100
AcDbCircle
 10
122.4500000000002
 20
86.90000058053177
 30
0.0
 40
0.3
100
AcDbArc
 50
0.0000000000027141
 51
89.99999999999991
  0
LINE
  5
10B
330
1F
100
AcDbEntity
  8
3
  6
CONTINUOUS
 62
   214
100
AcDbLine
 10
122.7500000000003
 20
86.90000058053178
 30
0.0
 11
122.7500000000003
 21
86.30000058053174
 31
0.0
  0
ARC
  5
10C
330
1F
100
AcDbEntity
  8
3
  6
CONTINUOUS
 62
   214
100
AcDbCircle
 10
117.5500000000002
 20
86.90000058053177
 30
0.0
 40
0.3
100
AcDbArc
 50
90.00000000000271
 51
179.9999999999973
  0
LINE
  5
10D
330
1F
100
AcDbEntity
  8
3
  6
CONTINUOUS
 62
   214
100
AcDbLine
 10
117.2500000000002
 20
86.30000058053174
 30
0.0
 11
117.2500000000002
 21
86.90000058053178
 31
0.0
  0
ARC
  5
10E
330
1F
100
AcDbEntity
  8
3
  6
CONTINUOUS
 62
   214
100
AcDbCircle
 10
122.4500000000002
 20
86.30000058053176
 30
0.0
 40
0.3
100
AcDbArc
 50
269.9999999999998
 51
359.999999999997
  0
ARC
  5
10F
330
1F
100
AcDbEntity
  8
3
  6
CONTINUOUS
 62
   214
100
AcDbCircle
 10
117.5500000000002
 20
86.30000058053176
 30
0.0
 40
0.3
100
AcDbArc
 50
180.0000000000024
 51
269.999999999997
  0
LINE
  5
110
330
1F
100
AcDbEntity
  8
3
  6
CONTINUOUS
 62
   214
100
AcDbLine
 10
77.00000000000003
 20
139.7000005805319
 30
0.0
 11
93.00000000000003
 21
139.7000005805319
 31
0.0
  0
LINE
  5
111
330
1F
100
AcDbEntity
  8
3
  6
CONTINUOUS
 62
   214
100
AcDbLine
 10
77.0
 20
177.3000005805319
 30
0.0
 11
93.0
 21
177.3000005805319
 31
0.0
  0
LINE
  5
112
330
1F
100
AcDbEntity
  8
3
  6
CONTINUOUS
 62
   214
100
AcDbLine
 10
104.0
 20
174.6000005805317
 30
0.0
 11
66.0
 21
174.6000005805317
 31
0.0
  0
LINE
  5
113
330
1F
100
AcDbEntity
  8
3
  6
CONTINUOUS
 62
   214
100
AcDbLine
 10
104.0
 20
142.4000005805319
 30
0.0
 11
66.00000000000001
 21
142.4000005805319
 31
0.0
  0
LINE
  5
114
330
1F
100
AcDbEntity
  8
3
  6
CONTINUOUS
 62
   214
100
AcDbLine
 10
66.00000000000001
 20
140.7000005805319
 30
0.0
 11
104.0
 21
140.7000005805319
 31
0.0
  0
LINE
  5
115
330
1F
100
AcDbEntity
  8
3
  6
CONTINUOUS
 62
   214
100
AcDbLine
 10
65.99999999999999
 20
176.3000005805319
 30
0.0
 11
104.0
 21
176.3000005805319
 31
0.0
  0
LINE
  5
116
330
1F
100
AcDbEntity
  8
3
  6
CONTINUOUS
 62
   214
100
AcDbLine
 10
98.00000000000004
 20
174.0000005805318
 30
0.0
 11
71.99999999999999
 21
174.0000005805318
 31
0.0
  0
LINE
  5
117
330
1F
100
AcDbEntity
  8
3
  6
CONTINUOUS
 62
   214
100
AcDbLine
 10
98.00000000000001
 20
143.0000005805319
 30
0.0
 11
71.99999999999999
 21
143.0000005805319
 31
0.0
  0
LINE
  5
118
330
1F
100
AcDbEntity
  8
3
  6
DASHDOT
 62
   214
100
AcDbLine
 10
85.0
 20
86.99992552437227
 30
0.0
 11
85.0
 21
43.00281176469124
 31
0.0
  0
LINE
  5
119
330
1F
100
AcDbEntity
  8
3
  6
DASHDOT
 62
   214
100
AcDbLine
 10
63.00633638450714
 20
65.0
 30
0.0
 11
106.9982966955867
 21
65.0
 31
0.0
  0
CIRCLE
  5
11A
330
1F
100
AcDbEntity
  8
3
  6
CONTINUOUS
 62
   214
100
AcDbCircle
 10
85.0
 20
65.0
 30
0.0
 40
8.0
  0
CIRCLE
  5
11B
330
1F
100
AcDbEntity
  8
3
  6
CONTINUOUS
 62
   214
100
AcDbCircle
 10
85.0
 20
65.0
 30
0.0
 40
19.0
  0
CIRCLE
  5
11C
330
1F
100
AcDbEntity
  8
3
  6
CONTINUOUS
 62
   214
100
AcDbCircle
 10
85.0
 20
65.0
 30
0.0
 40
5.1
  0
CIRCLE
  5
11D
330
1F
100
AcDbEntity
  8
3
  6
HIDDEN
 62
   214
100
AcDbCircle
 10
85.0
 20
65.0
 30
0.0
 40
13.0
  0
LINE
  5
11E
330
1F
100
AcDbEntity
  8
3
  6
CONTINUOUS
 62
   214
100
AcDbLine
 10
97.12435530280419
 20
86.00000058053176
 30
0.0
 11
142.5
 21
86.00000058053176
 31
0.0
  0
ARC
  5
11F
330
1F
100
AcDbEntity
  8
3
  6
CONTINUOUS
 62
   214
100
AcDbCircle
 10
96.60179907175015
 20
51.41784086635847
 30
0.0
 40
34.58610755073782
100
AcDbArc
 50
89.13429385528485
 51
109.5997098510233
  0
CIRCLE
  5
120
330
1F
100
AcDbEntity
  8
3
  6
CONTINUOUS
 62
   214
100
AcDbCircle
 10
127.7500000000001
 20
169.5000005805319
 30
0.0
 40
1.6
  0
LINE
  5
121
330
1F
100
AcDbEntity
  8
3
  6
DASHDOT
 62
   214
100
AcDbLine
 10
127.7500000000001
 20
167.1863222184794
 30
0.0
 11
127.7500000000001
 21
171.8136789425845
 31
0.0
  0
LINE
  5
122
330
1F
100
AcDbEntity
  8
3
  6
DASHDOT
 62
   214
100
AcDbLine
 10
125.4363216379475
 20
169.5000005805319
 30
0.0
 11
130.0636783620526
 21
169.5000005805319
 31
0.0
  0
CIRCLE
  5
123
330
1F
100
AcDbEntity
  8
3
  6
CONTINUOUS
 62
   214
100
AcDbCircle
 10
127.7500000000001
 20
147.5000005805319
 30
0.0
 40
1.6
  0
LINE
  5
124
330
1F
100
AcDbEntity
  8
3
  6
DASHDOT
 62
   214
100
AcDbLine
 10
127.7500000000001
 20
149.8136789425845
 30
0.0
 11
127.7500000000001
 21
145.1863222184794
 31
0.0
  0
LINE
  5
125
330
1F
100
AcDbEntity
  8
3
  6
DASHDOT
 62
   214
100
AcDbLine
 10
125.4363216379475
 20
147.5000005805319
 30
0.0
 11
130.0636783620526
 21
147.5000005805319
 31
0.0
  0
LINE
  5
126
330
1F
100
AcDbEntity
  8
3
  6
CONTINUOUS
 62
   214
100
AcDbLine
 10
142.4999999999998
 20
171.5000005805321
 30
0.0
 11
140.5
 21
173.5000005805319
 31
0.0
  0
LINE
  5
127
330
1F
100
AcDbEntity
  8
3
  6
CONTINUOUS
 62
   214
100
AcDbLine
 10
142.4999999999998
 20
171.5000005805321
 30
0.0
 11
142.4999999999999
 21
145.5000005805318
 31
0.0
  0
LINE
  5
128
330
1F
100
AcDbEntity
  8
3
  6
CONTINUOUS
 62
   214
100
AcDbLine
 10
142.4999999999999
 20
145.5000005805318
 30
0.0
 11
140.4999999999999
 21
143.5000005805319
 31
0.0
  0
LINE
  5
129
330
1F
100
AcDbEntity
  8
3
  6
DASHDOT
 62
   214
100
AcDbLine
 10
120.0000000000002
 20
89.60000058053176
 30
0.0
 11
120.0000000000002
 21
79.20000058053176
 31
0.0
  0
LINE
  5
12A
330
1F
100
AcDbEntity
  8
3
  6
DASHDOT
 62
   214
100
AcDbLine
 10
134.5000000000001
 20
89.00000058053176
 30
0.0
 11
134.5000000000001
 21
82.00000058053178
 31
0.0
  0
LINE
  5
12B
330
1F
100
AcDbEntity
  8
3
  6
CONTINUOUS
 62
   214
100
AcDbLine
 10
112.5
 20
85.00000058053176
 30
0.0
 11
142.5
 21
85.00000058053176
 31
0.0
  0
LINE
  5
12C
330
1F
100
AcDbEntity
  8
3
  6
CONTINUOUS
 62
   214
100
AcDbLine
 10
142.5
 20
85.00000058053176
 30
0.0
 11
142.5
 21
86.00000058053176
 31
0.0
  0
LINE
  5
12D
330
1F
100
AcDbEntity
  8
3
  6
CONTINUOUS
 62
   214
100
AcDbLine
 10
112.5
 20
86.00000058053176
 30
0.0
 11
112.5
 21
85.00000058053176
 31
0.0
  0
ARC
  5
12E
330
1F
100
AcDbEntity
  8
3
  6
CONTINUOUS
 62
   214
100
AcDbCircle
 10
120.0000000000002
 20
85.88392915196033
 30
0.0
 40
2.983928571428565
100
AcDbArc
 50
197.2312963683279
 51
342.7687036316714
  0
LINE
  5
12F
330
1F
100
AcDbEntity
  8
3
  6
DASHDOT
 62
   214
100
AcDbLine
 10
119.9999999999998
 20
171.5000005805319
 30
0.0
 11
119.9999999999998
 21
161.5000005805321
 31
0.0
  0
LINE
  5
130
330
1F
100
AcDbEntity
  8
3
  6
DASHDOT
 62
   214
100
AcDbLine
 10
119.9999999999998
 20
155.5000005805317
 30
0.0
 11
119.9999999999998
 21
145.5000005805319
 31
0.0
  0
LINE
  5
131
330
1F
100
AcDbEntity
  8
3
  6
DASHDOT
 62
   214
100
AcDbLine
 10
63.00000000000001
 20
158.5000005805319
 30
0.0
 11
145.4999999999998
 21
158.5000005805319
 31
0.0
  0
LINE
  5
132
330
1F
100
AcDbEntity
  8
3
  6
CONTINUOUS
 62
   214
100
AcDbLine
 10
140.5000000000001
 20
85.00000058053176
 30
0.0
 11
140.5000000000001
 21
86.00000058053176
 31
0.0
  0
LINE
  5
133
330
1F
100
AcDbEntity
  8
3
  6
DASHDOT
 62
   214
100
AcDbLine
 10
127.7500000000001
 20
89.00000058053176
 30
0.0
 11
127.7500000000001
 21
82.00000058053178
 31
0.0
  0
DIMENSION
  5
13E
330
1F
100
AcDbEntity
  8
2
  6
CONTINUOUS
 62
   134
100
AcDbDimension
  2
DIM1
 10
54.00000000000051
 20
177.3000005805323
 30
0.0
 11
54.00000000000025
 21
158.5000005805323
 31
0.0
 70
   160
  1
<>
  3
STANDARD
100
AcDbAlignedDimension
 13
77.00000000000003
 23
139.7000005805319
 33
0.0
 14
77.0
 24
177.3000005805319
 34
0.0
 50
89.9999999999992
100
AcDbRotatedDimension
1001
ACAD
1000
DSTYLE
1002
{
1070
   287
1070
     4
1070
     7
1000
OPEN
1070
     6
1000
OPEN
1070
   279
1070
     1
1070
   340
1005
134
1070
   140
1040
4.0
1070
    40
1040
1.0
1070
   147
1040
0.0
1070
    76
1070
     0
1070
    75
1070
     0
1070
   173
1070
     1
1070
   289
1070
     2
1070
   288
1070
     1
1070
    77
1070
     1
1070
   172
1070
     1
1070
   174
1070
     0
1070
    74
1070
     0
1070
    73
1070
     0
1070
   284
1070
     8
1070
    78
1070
     8
1070
    42
1040
2.0
1070
    44
1040
2.0
1070
    43
1040
10.0
1070
   271
1070
     2
1070
    41
1040
4.0
1002
}
  0
DIMENSION
  5
148
330
1F
100
AcDbEntity
  8
2
  6
CONTINUOUS
 62
   134
100
AcDbDimension
  2
DIM2
 10
103.9999999999999
 20
127.7000005805319
 30
0.0
 11
84.99999999999984
 21
127.7000005805319
 31
0.0
 70
   160
  1
φ<>
  3
STANDARD
100
AcDbAlignedDimension
 13
66.00000000000001
 23
140.7000005805319
 33
0.0
 14
104.0
 24
140.7000005805319
 34
0.0
100
AcDbRotatedDimension
1001
ACAD
1000
DSTYLE
1002
{
1070
   287
1070
     4
1070
     7
1000
OPEN
1070
     6
1000
OPEN
1070
   279
1070
     1
1070
   340
1005
134
1070
   140
1040
4.0
1070
    40
1040
1.0
1070
   147
1040
0.0
1070
    76
1070
     0
1070
    75
1070
     0
1070
   173
1070
     1
1070
   289
1070
     2
1070
   288
1070
     1
1070
    77
1070
     1
1070
   172
1070
     1
1070
   174
1070
     0
1070
    74
1070
     0
1070
    73
1070
     0
1070
   284
1070
     8
1070
    78
1070
     8
1070
    42
1040
2.0
1070
    44
1040
2.0
1070
    43
1040
10.0
1070
   271
1070
     2
1070
    41
1040
4.0
1002
}
  0
LINE
  5
149
330
1F
100
AcDbEntity
  8
3
  6
CONTINUOUS
 62
   214
100
AcDbLine
 10
216.3662386662269
 20
86.00000058053175
 30
0.0
 11
186.3662386662269
 21
86.00000058053178
 31
0.0
  0
LINE
  5
14A
330
1F
100
AcDbEntity
  8
3
  6
CONTINUOUS
 62
   214
100
AcDbLine
 10
190.9162386662269
 20
87.20000058053176
 30
0.0
 11
195.8162386662269
 21
87.20000058053176
 31
0.0
  0
ARC
  5
14B
330
1F
100
AcDbEntity
  8
3
  6
CONTINUOUS
 62
   214
100
AcDbCircle
 10
195.8162386662269
 20
86.90000058053177
 30
0.0
 40
0.3
100
AcDbArc
 50
0.0000000000027141
 51
89.99999999999991
  0
LINE
  5
14C
330
1F
100
AcDbEntity
  8
3
  6
CONTINUOUS
 62
   214
100
AcDbLine
 10
196.1162386662269
 20
86.90000058053178
 30
0.0
 11
196.1162386662269
 21
86.30000058053174
 31
0.0
  0
ARC
  5
14D
330
1F
100
AcDbEntity
  8
3
  6
CONTINUOUS
 62
   214
100
AcDbCircle
 10
190.9162386662269
 20
86.90000058053177
 30
0.0
 40
0.3
100
AcDbArc
 50
90.00000000000543
 51
179.9999999999973
  0
LINE
  5
14E
330
1F
100
AcDbEntity
  8
3
  6
CONTINUOUS
 62
   214
100
AcDbLine
 10
190.6162386662269
 20
86.30000058053174
 30
0.0
 11
190.6162386662269
 21
86.90000058053178
 31
0.0
  0
ARC
  5
14F
330
1F
100
AcDbEntity
  8
3
  6
CONTINUOUS
 62
   214
100
AcDbCircle
 10
195.8162386662269
 20
86.30000058053176
 30
0.0
 40
0.3
100
AcDbArc
 50
269.9999999999998
 51
359.999999999997
  0
ARC
  5
150
330
1F
100
AcDbEntity
  8
3
  6
CONTINUOUS
 62
   214
100
AcDbCircle
 10
190.9162386662269
 20
86.30000058053176
 30
0.0
 40
0.3
100
AcDbArc
 50
180.0000000000024
 51
269.9999999999942
  0
LINE
  5
151
330
1F
100
AcDbEntity
  8
3
  6
CONTINUOUS
 62
   214
100
AcDbLine
 10
206.9162386662269
 20
87.20000058053176
 30
0.0
 11
211.8162386662269
 21
87.20000058053176
 31
0.0
  0
ARC
  5
152
330
1F
100
AcDbEntity
  8
3
  6
CONTINUOUS
 62
   214
100
AcDbCircle
 10
211.8162386662269
 20
86.90000058053177
 30
0.0
 40
0.3
100
AcDbArc
 50
0.0000000000027141
 51
89.99999999999991
  0
LINE
  5
153
330
1F
100
AcDbEntity
  8
3
  6
CONTINUOUS
 62
   214
100
AcDbLine
 10
212.1162386662269
 20
86.90000058053178
 30
0.0
 11
212.1162386662269
 21
86.30000058053174
 31
0.0
  0
ARC
  5
154
330
1F
100
AcDbEntity
  8
3
  6
CONTINUOUS
 62
   214
100
AcDbCircle
 10
206.9162386662269
 20
86.90000058053177
 30
0.0
 40
0.3
100
AcDbArc
 50
90.00000000000543
 51
179.9999999999973
  0
LINE
  5
155
330
1F
100
AcDbEntity
  8
3
  6
CONTINUOUS
 62
   214
100
AcDbLine
 10
206.6162386662269
 20
86.30000058053174
 30
0.0
 11
206.6162386662269
 21
86.90000058053178
 31
0.0
  0
ARC
  5
156
330
1F
100
AcDbEntity
  8
3
  6
CONTINUOUS
 62
   214
100
AcDbCircle
 10
211.8162386662269
 20
86.30000058053176
 30
0.0
 40
0.3
100
AcDbArc
 50
269.9999999999998
 51
359.999999999997
  0
ARC
  5
157
330
1F
100
AcDbEntity
  8
3
  6
CONTINUOUS
 62
   214
100
AcDbCircle
 10
206.9162386662269
 20
86.30000058053176
 30
0.0
 40
0.3
100
AcDbArc
 50
180.0000000000024
 51
269.9999999999942
  0
LINE
  5
158
330
1F
100
AcDbEntity
  8
3
  6
CONTINUOUS
 62
   214
100
AcDbLine
 10
186.3662386662268
 20
85.00000058053176
 30
0.0
 11
216.3662386662268
 21
85.00000058053176
 31
0.0
  0
ARC
  5
159
330
1F
100
AcDbEntity
  8
3
  6
CONTINUOUS
 62
   214
100
AcDbCircle
 10
193.3662386662269
 20
85.88392915196034
 30
0.0
 40
2.983928571428565
100
AcDbArc
 50
197.2312963683279
 51
342.7687036316714
  0
LINE
  5
15A
330
1F
100
AcDbEntity
  8
3
  6
DASHDOT
 62
   214
100
AcDbLine
 10
193.3662386662269
 20
89.60000058053176
 30
0.0
 11
193.3662386662269
 21
81.4631595871313
 31
0.0
  0
ARC
  5
15B
330
1F
100
AcDbEntity
  8
3
  6
CONTINUOUS
 62
   214
100
AcDbCircle
 10
209.3662386662269
 20
85.88392915196034
 30
0.0
 40
2.983928571428565
100
AcDbArc
 50
197.2312963683279
 51
342.7687036316714
  0
LINE
  5
15C
330
1F
100
AcDbEntity
  8
3
  6
DASHDOT
 62
   214
100
AcDbLine
 10
209.3662386662269
 20
89.60000058053176
 30
0.0
 11
209.3662386662269
 21
81.4631595871313
 31
0.0
  0
LINE
  5
15D
330
1F
100
AcDbEntity
  8
3
  6
CONTINUOUS
 62
   214
100
AcDbLine
 10
188.3662386662268
 20
86.00000058053176
 30
0.0
 11
188.3662386662268
 21
85.00000058053176
 31
0.0
  0
LINE
  5
15E
330
1F
100
AcDbEntity
  8
3
  6
CONTINUOUS
 62
   214
100
AcDbLine
 10
214.3662386662268
 20
86.00000058053176
 30
0.0
 11
214.3662386662268
 21
85.00000058053176
 31
0.0
  0
LINE
  5
15F
330
1F
100
AcDbEntity
  8
3
  6
DASHDOT
 62
   214
100
AcDbLine
 10
212.3662386662269
 20
89.00000058053176
 30
0.0
 11
212.3662386662268
 21
82.00000058053179
 31
0.0
  0
LINE
  5
160
330
1F
100
AcDbEntity
  8
3
  6
DASHDOT
 62
   214
100
AcDbLine
 10
190.3662386662269
 20
89.00000058053176
 30
0.0
 11
190.3662386662269
 21
82.00000058053179
 31
0.0
  0
LINE
  5
161
330
1F
100
AcDbEntity
  8
3
  6
HIDDEN
 62
   214
100
AcDbLine
 10
79.89999999999999
 20
177.3000005805319
 30
0.0
 11
79.89999999999999
 21
174.0000005805318
 31
0.0
  0
LINE
  5
162
330
1F
100
AcDbEntity
  8
3
  6
HIDDEN
 62
   214
100
AcDbLine
 10
79.89999999999999
 20
143.0000005805319
 30
0.0
 11
79.89999999999996
 21
139.7000005805319
 31
0.0
  0
LINE
  5
163
330
1F
100
AcDbEntity
  8
3
  6
HIDDEN
 62
   214
100
AcDbLine
 10
90.09999999999998
 20
177.3000005805319
 30
0.0
 11
90.09999999999998
 21
174.0000005805318
 31
0.0
  0
LINE
  5
164
330
1F
100
AcDbEntity
  8
3
  6
HIDDEN
 62
   214
100
AcDbLine
 10
90.09999999999998
 20
143.0000005805319
 30
0.0
 11
90.09999999999995
 21
139.7000005805319
 31
0.0
  0
LINE
  5
165
330
1F
100
AcDbEntity
  8
3
  6
HIDDEN
 62
   214
100
AcDbLine
 10
182.5662386662268
 20
70.1
 30
0.0
 11
185.866238666227
 21
70.1
 31
0.0
  0
LINE
  5
166
330
1F
100
AcDbEntity
  8
3
  6
HIDDEN
 62
   214
100
AcDbLine
 10
216.8662386662268
 20
70.1
 30
0.0
 11
220.1662386662268
 21
70.09999999999991
 31
0.0
  0
LINE
  5
167
330
1F
100
AcDbEntity
  8
3
  6
HIDDEN
 62
   214
100
AcDbLine
 10
182.5662386662268
 20
59.90000000000001
 30
0.0
 11
185.866238666227
 21
59.90000000000001
 31
0.0
  0
LINE
  5
168
330
1F
100
AcDbEntity
  8
3
  6
HIDDEN
 62
   214
100
AcDbLine
 10
216.8662386662268
 20
59.90000000000001
 30
0.0
 11
220.1662386662268
 21
59.89999999999992
 31
0.0
  0
LINE
  5
169
330
1F
100
AcDbEntity
  8
3
  6
DASHDOT
 62
   214
100
AcDbLine
 10
201.3662386662269
 20
90.20000058053176
 30
0.0
 11
201.3662386662269
 21
42.99999999999997
 31
0.0
  0
CIRCLE
  5
16A
330
1F
100
AcDbEntity
  8
3
  6
HIDDEN
 62
   214
100
AcDbCircle
 10
85.0
 20
65.0
 30
0.0
 40
17.0
  0
ARC
  5
16B
330
1F
100
AcDbEntity
  8
3
  6
HIDDEN
 62
   214
100
AcDbCircle
 10
96.60179907175015
 20
51.41784086635847
 30
0.0
 40
34.58610755073782
100
AcDbArc
 50
109.5997098510233
 51
123.458875288616
  0
LINE
  5
16C
330
1F
100
AcDbEntity
  8
3
  6
CONTINUOUS
 62
   214
100
AcDbLine
 10
186.3662386662268
 20
82.0
 30
0.0
 11
216.3662386662268
 21
82.00000000000003
 31
0.0
  0
LINE
  5
16D
330
1F
100
AcDbEntity
  8
3
  6
CONTINUOUS
 62
   214
100
AcDbLine
 10
186.3662386662268
 20
48.0
 30
0.0
 11
216.3662386662268
 21
47.99999999999998
 31
0.0
  0
LINE
  5
16E
330
1F
100
AcDbEntity
  8
3
  6
CONTINUOUS
 62
   214
100
AcDbLine
 10
186.3662386662268
 20
86.00000058053178
 30
0.0
 11
186.3662386662268
 21
48.0
 31
0.0
  0
LINE
  5
16F
330
1F
100
AcDbEntity
  8
3
  6
CONTINUOUS
 62
   214
100
AcDbLine
 10
216.3662386662268
 20
47.99999999999998
 30
0.0
 11
216.3662386662268
 21
86.00000058053176
 31
0.0
  0
LINE
  5
170
330
1F
100
AcDbEntity
  8
3
  6
CONTINUOUS
 62
   214
100
AcDbLine
 10
68.0
 20
173.5000005805319
 30
0.0
 11
68.00000000000003
 21
143.5000005805319
 31
0.0
  0
LINE
  5
171
330
1F
100
AcDbEntity
  8
3
  6
CONTINUOUS
 62
   214
100
AcDbLine
 10
140.5
 20
173.5000005805319
 30
0.0
 11
68.0
 21
173.5000005805319
 31
0.0
  0
LINE
  5
172
330
1F
100
AcDbEntity
  8
3
  6
CONTINUOUS
 62
   214
100
AcDbLine
 10
68.00000000000003
 20
143.5000005805319
 30
0.0
 11
140.4999999999999
 21
143.5000005805319
 31
0.0
  0
VIEWPORT
  5
6A
330
1B
100
AcDbEntity
 67
     1
  8
0
100
AcDbViewport
 10
148.5
 20
105.0
 30
0.0
 40
297.0
 41
210.0
 68
     1
 69
     1
1001
ACAD
1000
MVIEW
1002
{
1070
    16
1010
0.0
1020
0.0
1030
0.0
1010
0.0
1020
0.0
1030
1.0
1040
0.0
1040
9.0
1040
148.5
1040
105.0
1040
50.0
1040
0.0
1040
0.0
1070
     0
1070
   100
1070
     0
1070
     3
1070
     0
1070
     0
1070
     0
1070
     0
1040
0.0
1040
0.0
1040
0.0
1040
0.5
1040
0.5
1040
0.5
1040
0.5
1070
     0
1002
{
1002
}
1002
}
  0
ENDSEC
  0
SECTION
  2
OBJECTS
  0
DICTIONARY
  5
C
330
0
100
AcDbDictionary
  3
ACAD_GROUP
350
D
  3
ACAD_LAYOUT
350
1A
  3
ACAD_MATERIAL
350
43
  3
ACAD_MLEADERSTYLE
350
195
  3
ACAD_MLINESTYLE
350
17
  3
ACAD_PLOTSETTINGS
350
19
  3
ACAD_SCALELIST
350
47
  3
ACAD_VISUALSTYLE
350
2A
  3
ACDBHEADERROUNDTRIPXREC
350
173
  3
ACDBVARIABLEDICTIONARY
350
193
  0
DICTIONARY
  5
19A
330
8
100
AcDbDictionary
280
     1
  3
ACAD_XREC_ROUNDTRIP
360
19B
  0
DICTIONARY
  5
D
102
{ACAD_REACTORS
330
C
102
}
330
C
100
AcDbDictionary
  0
DICTIONARY
  5
1A
102
{ACAD_REACTORS
330
C
102
}
330
C
100
AcDbDictionary
  0
DICTIONARY
  5
43
102
{ACAD_REACTORS
330
C
102
}
330
C
100
AcDbDictionary
  3
BYBLOCK
350
45
  3
BYLAYER
350
44
  3
GLOBAL
350
46
  0
DICTIONARY
  5
195
102
{ACAD_REACTORS
330
C
102
}
330
C
100
AcDbDictionary
  0
DICTIONARY
  5
17
102
{ACAD_REACTORS
330
C
102
}
330
C
100
AcDbDictionary
  3
STANDARD
350
18
  0
DICTIONARY
  5
19
102
{ACAD_REACTORS
330
C
102
}
330
C
100
AcDbDictionary
  0
DICTIONARY
  5
47
102
{ACAD_REACTORS
330
C
102
}
330
C
100
AcDbDictionary
  3
A0
350
48
  3
A1
350
49
  3
A2
350
4A
  3
A3
350
4B
  3
A4
350
4C
  3
A5
350
4D
  3
A6
350
4E
  3
A7
350
4F
  3
A8
350
50
  3
A9
350
51
  3
B0
350
52
  3
B1
350
53
  3
B2
350
54
  3
B3
350
55
  3
B4
350
56
  3
B5
350
57
  3
B6
350
58
  3
B7
350
59
  3
B8
350
5A
  3
B9
350
5B
  3
C0
350
5C
  3
C1
350
5D
  3
C2
350
5E
  3
C3
350
5F
  3
C4
350
60
  3
C5
350
61
  3
C6
350
62
  3
C7
350
63
  3
C8
350
64
  3
C9
350
65
  3
D0
350
66
  3
D1
350
67
  3
D2
350
68
  0
DICTIONARY
  5
2A
102
{ACAD_REACTORS
330
C
102
}
330
C
100
AcDbDictionary
  3
2DWIREFRAME
350
2F
  3
BASIC
350
32
  3
BRIGHTEN
350
36
  3
COLORCHANGE
350
3A
  3
CONCEPTUAL
350
34
  3
DIM
350
35
  3
EDGECOLOROFF
350
3D
  3
FACEPATTERN
350
39
  3
FLAT
350
2B
  3
FLATWITHEDGES
350
2C
  3
GOURAUD
350
2D
  3
GOURAUDWITHEDGES
350
2E
  3
HIDDEN
350
31
  3
JITTEROFF
350
3B
  3
LINEPATTERN
350
38
  3
OVERHANGOFF
350
3C
  3
REALISTIC
350
33
  3
SHADED
350
42
  3
SHADED_WITH_EDGES
350
41
  3
SHADES_OF_GRAY
350
3E
  3
SKETCHY
350
3F
  3
THICKEN
350
37
  3
WIREFRAME
350
30
  3
X-RAY
350
40
  0
DICTIONARY
  5
173
102
{ACAD_REACTORS
330
C
102
}
330
C
100
AcDbDictionary
  3
CEPSNTYPE
350
17C
  3
DIMSTYLEDATA
350
192
  3
FINGERPRINTGUID
350
17D
  3
HYPERLINKBASE
350
176
  3
INSUNITS
350
17B
  3
LAYOUTDICT
350
178
  3
LWETCUNION
350
17A
  3
PLOTSETDICT
350
179
  3
PSVPSCALE
350
17F
  3
PUCSBASE
350
182
  3
PUCSORGBACK
350
188
  3
PUCSORGBOTTOM
350
184
  3
PUCSORGFRONT
350
187
  3
PUCSORGLEFT
350
185
  3
PUCSORGRIGHT
350
186
  3
PUCSORGTOP
350
183
  3
PUCSORTHOREF
350
180
  3
PUCSORTHOVIEW
350
181
  3
STYLESHEET
350
177
  3
TSTACKALIGN
350
174
  3
TSTACKSIZE
350
175
  3
UCSBASE
350
18B
  3
UCSORGBACK
350
191
  3
UCSORGBOTTOM
350
18D
  3
UCSORGFRONT
350
190
  3
UCSORGLEFT
350
18E
  3
UCSORGRIGHT
350
18F
  3
UCSORGTOP
350
18C
  3
UCSORTHOREF
350
189
  3
UCSORTHOVIEW
350
18A
  3
VERSIONGUID
350
17E
  0
DICTIONARY
  5
193
102
{ACAD_REACTORS
330
C
102
}
330
C
100
AcDbDictionary
  3
CANNOSCALE
350
19C
  3
DIMASSOC
350
196
  3
HIDETEXT
350
199
  3
MSLTSCALE
350
19D
  0
XRECORD
  5
19B
102
{ACAD_REACTORS
330
19A
102
}
330
19A
100
AcDbXrecord
102
VTR_0.000_0.000_1.000_1.000_GRIDDISPLAY
 70
     3
102
VTR_0.000_0.000_1.000_1.000_GRIDMAJOR
 70
     5
102
VTR_0.000_0.000_1.000_1.000_DEFAULTLIGHTING
280
     1
102
VTR_0.000_0.000_1.000_1.000_DEFAULTLIGHTINGTYPE
 70
     1
102
VTR_0.000_0.000_1.000_1.000_BRIGHTNESS
141
0.0
102
VTR_0.000_0.000_1.000_1.000_CONTRAST
142
0.0
  0
MATERIAL
  5
45
102
{ACAD_REACTORS
330
43
102
}
102
{ACAD_XDICTIONARY
360
1A0
102
}
330
43
100
AcDbMaterial
  1
BYBLOCK
  0
MATERIAL
  5
44
102
{ACAD_REACTORS
330
43
102
}
102
{ACAD_XDICTIONARY
360
19E
102
}
330
43
100
AcDbMaterial
  1
BYLAYER
  0
MATERIAL
  5
46
102
{ACAD_REACTORS
330
43
102
}
102
{ACAD_XDICTIONARY
360
1A2
102
}
330
43
100
AcDbMaterial
  1
GLOBAL
  0
MLINESTYLE
  5
18
102
{ACAD_REACTORS
330
17
102
}
330
17
100
AcDbMlineStyle
  2
Standard
 70
     0
  3

 62
   256
 51
90.0
 52
90.0
 71
     2
 49
0.5
 62
   256
  6
BYLAYER
 49
-0.5
 62
   256
  6
BYLAYER
  0
ACAD_PROXY_OBJECT
  5
48
102
{ACAD_REACTORS
330
47
102
}
330
47
100
AcDbProxyObject
 90
      499
 91
      503
 93
       41
310
903313A31580
  0
ACAD_PROXY_OBJECT
  5
49
102
{ACAD_REACTORS
330
47
102
}
330
47
100
AcDbProxyObject
 90
      499
 91
      503
 93
      105
310
903313A324000000000000004000
  0
ACAD_PROXY_OBJECT
  5
4A
102
{ACAD_REACTORS
330
47
102
}
330
47
100
AcDbProxyObject
 90
      499
 91
      503
 93
      105
310
903313A344000000000000104000
  0
ACAD_PROXY_OBJECT
  5
4B
102
{ACAD_REACTORS
330
47
102
}
330
47
100
AcDbProxyObject
 90
      499
 91
      503
 93
      105
310
903313A354000000000000144000
  0
ACAD_PROXY_OBJECT
  5
4C
102
{ACAD_REACTORS
330
47
102
}
330
47
100
AcDbProxyObject
 90
      499
 91
      503
 93
      105
310
903313A384000000000000204000
  0
ACAD_PROXY_OBJECT
  5
4D
102
{ACAD_REACTORS
330
47
102
}
330
47
100
AcDbProxyObject
 90
      499
 91
      503
 93
      113
310
904313A31304000000000000244000
  0
ACAD_PROXY_OBJECT
  5
4E
102
{ACAD_REACTORS
330
47
102
}
330
47
100
AcDbProxyObject
 90
      499
 91
      503
 93
      113
310
904313A31364000000000000304000
  0
ACAD_PROXY_OBJECT
  5
4F
102
{ACAD_REACTORS
330
47
102
}
330
47
100
AcDbProxyObject
 90
      499
 91
      503
 93
      113
310
904313A32304000000000000344000
  0
ACAD_PROXY_OBJECT
  5
50
102
{ACAD_REACTORS
330
47
102
}
330
47
100
AcDbProxyObject
 90
      499
 91
      503
 93
      113
310
904313A333040000000000003E4000
  0
ACAD_PROXY_OBJECT
  5
51
102
{ACAD_REACTORS
330
47
102
}
330
47
100
AcDbProxyObject
 90
      499
 91
      503
 93
      113
310
904313A34304000000000000444000
  0
ACAD_PROXY_OBJECT
  5
52
102
{ACAD_REACTORS
330
47
102
}
330
47
100
AcDbProxyObject
 90
      499
 91
      503
 93
      113
310
904313A35304000000000000494000
  0
ACAD_PROXY_OBJECT
  5
53
102
{ACAD_REACTORS
330
47
102
}
330
47
100
AcDbProxyObject
 90
      499
 91
      503
 93
      121
310
905313A3130304000000000000594000
  0
ACAD_PROXY_OBJECT
  5
54
102
{ACAD_REACTORS
330
47
102
}
330
47
100
AcDbProxyObject
 90
      499
 91
      503
 93
      105
310
903323A310000000000000010100
  0
ACAD_PROXY_OBJECT
  5
55
102
{ACAD_REACTORS
330
47
102
}
330
47
100
AcDbProxyObject
 90
      499
 91
      503
 93
      105
310
903343A310000000000000410100
  0
ACAD_PROXY_OBJECT
  5
56
102
{ACAD_REACTORS
330
47
102
}
330
47
100
AcDbProxyObject
 90
      499
 91
      503
 93
      105
310
903383A310000000000000810100
  0
ACAD_PROXY_OBJECT
  5
57
102
{ACAD_REACTORS
330
47
102
}
330
47
100
AcDbProxyObject
 90
      499
 91
      503
 93
      113
310
90431303A310000000000000910100
  0
ACAD_PROXY_OBJECT
  5
58
102
{ACAD_REACTORS
330
47
102
}
330
47
100
AcDbProxyObject
 90
      499
 91
      503
 93
      121
310
9053130303A310000000000001650100
  0
ACAD_PROXY_OBJECT
  5
59
102
{ACAD_REACTORS
330
47
102
}
330
47
100
AcDbProxyObject
 90
      499
 91
      503
 93
      257
310
90E312F31323822203D2031272D3022000000000000200FC000000000000284000
  0
ACAD_PROXY_OBJECT
  5
5A
102
{ACAD_REACTORS
330
47
102
}
330
47
100
AcDbProxyObject
 90
      499
 91
      503
 93
      249
310
90D312F363422203D2031272D3022000000000000240FC000000000000284000
  0
ACAD_PROXY_OBJECT
  5
5B
102
{ACAD_REACTORS
330
47
102
}
330
47
100
AcDbProxyObject
 90
      499
 91
      503
 93
      249
310
90D312F333222203D2031272D3022000000000000280FC000000000000284000
  0
ACAD_PROXY_OBJECT
  5
5C
102
{ACAD_REACTORS
330
47
102
}
330
47
100
AcDbProxyObject
 90
      499
 91
      503
 93
      249
310
90D312F313622203D2031272D30220000000000002C0FC000000000000284000
  0
ACAD_PROXY_OBJECT
  5
5D
102
{ACAD_REACTORS
330
47
102
}
330
47
100
AcDbProxyObject
 90
      499
 91
      503
 93
      249
310
90D332F333222203D2031272D30220000000000002E0FC000000000000284000
  0
ACAD_PROXY_OBJECT
  5
5E
102
{ACAD_REACTORS
330
47
102
}
330
47
100
AcDbProxyObject
 90
      499
 91
      503
 93
      241
310
90C312F3822203D2031272D3022000000000000300FC000000000000284000
  0
ACAD_PROXY_OBJECT
  5
5F
102
{ACAD_REACTORS
330
47
102
}
330
47
100
AcDbProxyObject
 90
      499
 91
      503
 93
      249
310
90D332F313622203D2031272D3022000000000000320FC000000000000284000
  0
ACAD_PROXY_OBJECT
  5
60
102
{ACAD_REACTORS
330
47
102
}
330
47
100
AcDbProxyObject
 90
      499
 91
      503
 93
      241
310
90C312F3422203D2031272D3022000000000000340FC000000000000284000
  0
ACAD_PROXY_OBJECT
  5
61
102
{ACAD_REACTORS
330
47
102
}
330
47
100
AcDbProxyObject
 90
      499
 91
      503
 93
      241
310
90C332F3822203D2031272D3022000000000000360FC000000000000284000
  0
ACAD_PROXY_OBJECT
  5
62
102
{ACAD_REACTORS
330
47
102
}
330
47
100
AcDbProxyObject
 90
      499
 91
      503
 93
      241
310
90C312F3222203D2031272D3022000000000000380FC000000000000284000
  0
ACAD_PROXY_OBJECT
  5
63
102
{ACAD_REACTORS
330
47
102
}
330
47
100
AcDbProxyObject
 90
      499
 91
      503
 93
      241
310
90C332F3422203D2031272D30220000000000003A0FC000000000000284000
  0
ACAD_PROXY_OBJECT
  5
64
102
{ACAD_REACTORS
330
47
102
}
330
47
100
AcDbProxyObject
 90
      499
 91
      503
 93
      161
310
90A3122203D2031272D30224000000000000284000
  0
ACAD_PROXY_OBJECT
  5
65
102
{ACAD_REACTORS
330
47
102
}
330
47
100
AcDbProxyObject
 90
      499
 91
      503
 93
      257
310
90E312D312F3222203D2031272D30220000000000003E0FC000000000000284000
  0
ACAD_PROXY_OBJECT
  5
66
102
{ACAD_REACTORS
330
47
102
}
330
47
100
AcDbProxyObject
 90
      499
 91
      503
 93
      225
310
90A3322203D2031272D302200000000000002100000000000000284000
  0
ACAD_PROXY_OBJECT
  5
67
102
{ACAD_REACTORS
330
47
102
}
330
47
100
AcDbProxyObject
 90
      499
 91
      503
 93
      225
310
90A3622203D2031272D302200000000000006100000000000000284000
  0
ACAD_PROXY_OBJECT
  5
68
102
{ACAD_REACTORS
330
47
102
}
330
47
100
AcDbProxyObject
 90
      499
 91
      503
 93
      249
310
90D31272D3022203D2031272D30220000000000000A100000000000000284000
  0
ACAD_PROXY_OBJECT
  5
2F
102
{ACAD_REACTORS
330
2A
102
}
330
2A
100
AcDbProxyObject
 90
      499
 91
      501
 93
      436
310
42CC9915DA5C99599C985B595049028333333333333E33F0000000000000F90107901411070040501600405405064090741402480A0340
1001
ACAD
1000
AcDbSavedByObjectVersion
1070
     0
  0
ACAD_PROXY_OBJECT
  5
32
102
{ACAD_REACTORS
330
2A
102
}
330
2A
100
AcDbProxyObject
 90
      499
 91
      501
 93
      388
310
4150985CDA58D07406404333333333333E33F0000000000000F90107A41107004050150841D405064090741402480A0350
1001
ACAD
1000
AcDbSavedByObjectVersion
1070
     0
  0
ACAD_PROXY_OBJECT
  5
36
102
{ACAD_REACTORS
330
2A
102
}
330
2A
100
AcDbProxyObject
 90
      499
 91
      501
 93
      428
310
42109C9A59DA1D195B90C409028333333333333E33F0000000000000F9010790141107004050150841D405064090741402480A029950
1001
ACAD
1000
AcDbSavedByObjectVersion
1070
     0
  0
ACAD_PROXY_OBJECT
  5
3A
102
{ACAD_REACTORS
330
2A
102
}
330
2A
100
AcDbProxyObject
 90
      499
 91
      501
 93
      452
310
42D0DBDB1BDC90DA185B99D95104090240C333333333333E33F0000000000000F90108901411070040501508421405064090741402480A0350
1001
ACAD
1000
AcDbSavedByObjectVersion
1070
     0
  0
ACAD_PROXY_OBJECT
  5
34
102
{ACAD_REACTORS
330
2A
102
}
330
2A
100
AcDbProxyObject
 90
      499
 91
      501
 93
      500
310
4290DBDB98D95C1D1D585B10940D028333333333333E33F0000000000000F90107902409070040501000000000018199010841D405064090740C02480A0340
1001
ACAD
1000
AcDbSavedByObjectVersion
1070
     0
  0
ACAD_PROXY_OBJECT
  5
35
102
{ACAD_REACTORS
330
2A
102
}
330
2A
100
AcDbProxyObject
 90
      499
 91
      501
 93
      412
310
40D11A5B50B409028333333333333E33F0000000000000F9010790141107004050150841D405064090741402480A02677FFFFFD0
1001
ACAD
1000
AcDbSavedByObjectVersion
1070
     0
  0
ACAD_PROXY_OBJECT
  5
3D
102
{ACAD_REACTORS
330
2A
102
}
330
2A
100
AcDbProxyObject
 90
      499
 91
      501
 93
      452
310
43115919D950DBDB1BDC93D999916409028333333333333E33F0000000000000F9010790141107004050150841D405064090741402480A0350
1001
ACAD
1000
AcDbSavedByObjectVersion
1070
     0
  0
ACAD_PROXY_OBJECT
  5
39
102
{ACAD_REACTORS
330
2A
102
}
330
2A
100
AcDbProxyObject
 90
      499
 91
      501
 93
      444
310
42D19858D95C185D1D195C9B90F409028333333333333E33F0000000000000F9010790141107004050150841D405064090741402480A0350
1001
ACAD
1000
AcDbSavedByObjectVersion
1070
     0
  0
ACAD_PROXY_OBJECT
  5
2B
102
{ACAD_REACTORS
330
2A
102
}
330
2A
100
AcDbProxyObject
 90
      499
 91
      501
 93
      380
310
41119B185D240901404333333333333E33F0000000000000F9010740A907004050150841D405064090741402480A1B50
1001
ACAD
1000
AcDbSavedByObjectVersion
1070
     0
  0
ACAD_PROXY_OBJECT
  5
2C
102
{ACAD_REACTORS
330
2A
102
}
330
2A
100
AcDbProxyObject
 90
      499
 91
      501
 93
      468
310
43519B185D15DA5D1A115919D95CD0140901404333333333333E33F0000000000000F90107409019070040501600405405064090741402480A1B50
1001
ACAD
1000
AcDbSavedByObjectVersion
1070
     0
  0
ACAD_PROXY_OBJECT
  5
2D
102
{ACAD_REACTORS
330
2A
102
}
330
2A
100
AcDbProxyObject
 90
      499
 91
      501
 93
      404
310
41D1DBDD5C985D5910240902404333333333333E33F0000000000000F9010740A9070040501641D405064090741402480A1B50
1001
ACAD
1000
AcDbSavedByObjectVersion
1070
     0
  0
ACAD_PROXY_OBJECT
  5
2E
102
{ACAD_REACTORS
330
2A
102
}
330
2A
100
AcDbProxyObject
 90
      499
 91
      501
 93
      492
310
4411DBDD5C985D5915DA5D1A115919D95CD0340902404333333333333E33F0000000000000F90107409019070040501600405405064090741402480A1B50
1001
ACAD
1000
AcDbSavedByObjectVersion
1070
     0
  0
ACAD_PROXY_OBJECT
  5
31
102
{ACAD_REACTORS
330
2A
102
}
330
2A
100
AcDbProxyObject
 90
      499
 91
      501
 93
      476
310
41921A5919195B90640502408333333333333E33F0000000000000F901079024090700405020000000000001110200405405064090740C02480A0340
1001
ACAD
1000
AcDbSavedByObjectVersion
1070
     0
  0
ACAD_PROXY_OBJECT
  5
3B
102
{ACAD_REACTORS
330
2A
102
}
330
2A
100
AcDbProxyObject
 90
      499
 91
      501
 93
      428
310
42529A5D1D195C93D999914409028333333333333E33F0000000000000F9010790141107004050150A41D405064090741402480A0350
1001
ACAD
1000
AcDbSavedByObjectVersion
1070
     0
  0
ACAD_PROXY_OBJECT
  5
38
102
{ACAD_REACTORS
330
2A
102
}
330
2A
100
AcDbProxyObject
 90
      499
 91
      501
 93
      444
310
42D31A5B995C185D1D195C9B90E409028333333333333E33F0000000000000F9010790141107004050750841D405064090741402483A0350
1001
ACAD
1000
AcDbSavedByObjectVersion
1070
     0
  0
ACAD_PROXY_OBJECT
  5
3C
102
{ACAD_REACTORS
330
2A
102
}
330
2A
100
AcDbProxyObject
 90
      499
 91
      501
 93
      444
310
42D3DD995C9A185B99D3D999915409028333333333333E33F0000000000000F9010790141107004050150941D405064090741402480A0350
1001
ACAD
1000
AcDbSavedByObjectVersion
1070
     0
  0
ACAD_PROXY_OBJECT
  5
33
102
{ACAD_REACTORS
330
2A
102
}
330
2A
100
AcDbProxyObject
 90
      499
 91
      501
 93
      428
310
425499585B1A5CDD1A58D08409038333333333333E33F0000000000000F9010740A907004050150800405405064090740C02480A1B40
1001
ACAD
1000
AcDbSavedByObjectVersion
1070
     0
  0
ACAD_PROXY_OBJECT
  5
42
102
{ACAD_REACTORS
330
2A
102
}
330
2A
100
AcDbProxyObject
 90
      499
 91
      501
 93
      420
310
4194DA1859195911B40902404333333333333E33F0000000000000F9010740A41107004050150800405405064090840C02480A0B40
1001
ACAD
1000
AcDbSavedByObjectVersion
1070
     0
  0
ACAD_PROXY_OBJECT
  5
41
102
{ACAD_REACTORS
330
2A
102
}
330
2A
100
AcDbProxyObject
 90
      499
 91
      501
 93
      516
310
4454DA18591959081DDA5D1A08195919D95CD1A40902404333333333333E33F0000000000000F901074090142907004050250800405405064090740C02480A0B40
1001
ACAD
1000
AcDbSavedByObjectVersion
1070
     0
  0
ACAD_PROXY_OBJECT
  5
3E
102
{ACAD_REACTORS
330
2A
102
}
330
2A
100
AcDbProxyObject
 90
      499
 91
      501
 93
      532
310
4394DA1859195CC81BD98811DC985E5174090240C333333333333E33F0000000000000F901079024090741D01000000000000111010841D405064090740C02480A0340
1001
ACAD
1000
AcDbSavedByObjectVersion
1070
     0
  0
ACAD_PROXY_OBJECT
  5
3F
102
{ACAD_REACTORS
330
2A
102
}
330
2A
100
AcDbProxyObject
 90
      499
 91
      501
 93
      476
310
41D4DAD95D18DA1E51840502408333333333333E33F0000000000000F901079024090741D01000000000000111010B41D405064090741802480A0340
1001
ACAD
1000
AcDbSavedByObjectVersion
1070
     0
  0
ACAD_PROXY_OBJECT
  5
37
102
{ACAD_REACTORS
330
2A
102
}
330
2A
100
AcDbProxyObject
 90
      499
 91
      501
 93
      412
310
41D51A1A58DAD95B90D409028333333333333E33F0000000000000F9010790141107004050150C41D405064090741402480A0350
1001
ACAD
1000
AcDbSavedByObjectVersion
1070
     0
  0
ACAD_PROXY_OBJECT
  5
30
102
{ACAD_REACTORS
330
2A
102
}
330
2A
100
AcDbProxyObject
 90
      499
 91
      501
 93
      420
310
4255DA5C99599C985B595059028333333333333E33F0000000000000F90107901411070040501600405405064090740C02480A0340
1001
ACAD
1000
AcDbSavedByObjectVersion
1070
     0
  0
ACAD_PROXY_OBJECT
  5
40
102
{ACAD_REACTORS
330
2A
102
}
330
2A
100
AcDbProxyObject
 90
      499
 91
      501
 93
      404
310
41560B54985E51940902404000000000000E03F0000000000000F9010740501907004050150841D405064090740C02480A1B40
1001
ACAD
1000
AcDbSavedByObjectVersion
1070
     0
  0
XRECORD
  5
17C
102
{ACAD_REACTORS
330
173
102
}
330
173
100
AcDbXrecord
 90
        0
  0
XRECORD
  5
192
102
{ACAD_REACTORS
330
173
102
}
330
173
100
AcDbXrecord
1000
DSTYLE
1002
{
1070
   171
 70
     2
1070
   143
 40
25.4
1070
   274
 70
     2
1070
    41
 40
4.0
1070
   289
 70
     2
1070
   141
 40
0.09
1070
    43
 40
10.0
1070
   278
 70
    46
1070
    44
 40
2.0
1070
    42
 40
1.0
1070
   147
 40
0.09
1070
    77
 70
     3
1070
   272
 70
     4
1070
   146
 40
0.5
1070
   279
 70
     2
1070
   283
 70
     1
1070
   145
 40
0.7
1070
   340
340
11
1070
   140
 40
4.0
1070
   288
 70
     1
1002
}
  0
XRECORD
  5
17D
102
{ACAD_REACTORS
330
173
102
}
330
173
100
AcDbXrecord
  1
{3556E02F-EE8A-423B-B94A-EE4D2927E25A}
  0
XRECORD
  5
176
102
{ACAD_REACTORS
330
173
102
}
330
173
100
AcDbXrecord
  1

  0
XRECORD
  5
17B
102
{ACAD_REACTORS
330
173
102
}
330
173
100
AcDbXrecord
 90
        4
  0
XRECORD
  5
178
102
{ACAD_REACTORS
330
173
102
}
330
173
100
AcDbXrecord
340
1A
  0
XRECORD
  5
17A
102
{ACAD_REACTORS
330
173
102
}
330
173
100
AcDbXrecord
 90
    10781
  0
XRECORD
  5
179
102
{ACAD_REACTORS
330
173
102
}
330
173
100
AcDbXrecord
340
19
  0
XRECORD
  5
17F
102
{ACAD_REACTORS
330
173
102
}
330
173
100
AcDbXrecord
 40
0.0
  0
XRECORD
  5
182
102
{ACAD_REACTORS
330
173
102
}
330
173
100
AcDbXrecord
340
0
  0
XRECORD
  5
188
102
{ACAD_REACTORS
330
173
102
}
330
173
100
AcDbXrecord
 10
0.0
 20
0.0
 30
0.0
  0
XRECORD
  5
184
102
{ACAD_REACTORS
330
173
102
}
330
173
100
AcDbXrecord
 10
0.0
 20
0.0
 30
0.0
  0
XRECORD
  5
187
102
{ACAD_REACTORS
330
173
102
}
330
173
100
AcDbXrecord
 10
0.0
 20
0.0
 30
0.0
  0
XRECORD
  5
185
102
{ACAD_REACTORS
330
173
102
}
330
173
100
AcDbXrecord
 10
0.0
 20
0.0
 30
0.0
  0
XRECORD
  5
186
102
{ACAD_REACTORS
330
173
102
}
330
173
100
AcDbXrecord
 10
0.0
 20
0.0
 30
0.0
  0
XRECORD
  5
183
102
{ACAD_REACTORS
330
173
102
}
330
173
100
AcDbXrecord
 10
0.0
 20
0.0
 30
0.0
  0
XRECORD
  5
180
102
{ACAD_REACTORS
330
173
102
}
330
173
100
AcDbXrecord
340
0
  0
XRECORD
  5
181
102
{ACAD_REACTORS
330
173
102
}
330
173
100
AcDbXrecord
 70
     0
  0
XRECORD
  5
177
102
{ACAD_REACTORS
330
173
102
}
330
173
100
AcDbXrecord
  1

  0
XRECORD
  5
174
102
{ACAD_REACTORS
330
173
102
}
330
173
100
AcDbXrecord
 90
        1
  0
XRECORD
  5
175
102
{ACAD_REACTORS
330
173
102
}
330
173
100
AcDbXrecord
 90
       70
  0
XRECORD
  5
18B
102
{ACAD_REACTORS
330
173
102
}
330
173
100
AcDbXrecord
340
0
  0
XRECORD
  5
191
102
{ACAD_REACTORS
330
173
102
}
330
173
100
AcDbXrecord
 10
0.0
 20
0.0
 30
0.0
  0
XRECORD
  5
18D
102
{ACAD_REACTORS
330
173
102
}
330
173
100
AcDbXrecord
 10
0.0
 20
0.0
 30
0.0
  0
XRECORD
  5
190
102
{ACAD_REACTORS
330
173
102
}
330
173
100
AcDbXrecord
 10
0.0
 20
0.0
 30
0.0
  0
XRECORD
  5
18E
102
{ACAD_REACTORS
330
173
102
}
330
173
100
AcDbXrecord
 10
0.0
 20
0.0
 30
0.0
  0
XRECORD
  5
18F
102
{ACAD_REACTORS
330
173
102
}
330
173
100
AcDbXrecord
 10
0.0
 20
0.0
 30
0.0
  0
XRECORD
  5
18C
102
{ACAD_REACTORS
330
173
102
}
330
173
100
AcDbXrecord
 10
0.0
 20
0.0
 30
0.0
  0
XRECORD
  5
189
102
{ACAD_REACTORS
330
173
102
}
330
173
100
AcDbXrecord
340
0
  0
XRECORD
  5
18A
102
{ACAD_REACTORS
330
173
102
}
330
173
100
AcDbXrecord
 70
     0
  0
XRECORD
  5
17E
102
{ACAD_REACTORS
330
173
102
}
330
173
100
AcDbXrecord
  1
{FAEB1C32-E019-11D5-929B-00C0DF256EC4}
  0
DICTIONARYVAR
  5
19C
102
{ACAD_REACTORS
330
193
102
}
330
193
100
DictionaryVariables
280
     0
  1
1:1
  0
DICTIONARYVAR
  5
196
102
{ACAD_REACTORS
330
193
102
}
330
193
100
DictionaryVariables
280
     0
  1
1
  0
DICTIONARYVAR
  5
199
102
{ACAD_REACTORS
330
193
102
}
330
193
100
DictionaryVariables
280
     0
  1
1
  0
DICTIONARYVAR
  5
19D
102
{ACAD_REACTORS
330
193
102
}
330
193
100
DictionaryVariables
280
     0
  1
1
  0
DICTIONARY
  5
1A0
330
45
100
AcDbDictionary
280
     1
  3
ACAD_XREC_ROUNDTRIP
360
1A1
  0
DICTIONARY
  5
19E
330
44
100
AcDbDictionary
280
     1
  3
ACAD_XREC_ROUNDTRIP
360
19F
  0
DICTIONARY
  5
1A2
330
46
100
AcDbDictionary
280
     1
  3
ACAD_XREC_ROUNDTRIP
360
1A3
  0
XRECORD
  5
1A1
102
{ACAD_REACTORS
330
1A0
102
}
330
1A0
100
AcDbXrecord
102
MATERIAL
148
0.0
149
0.0
149
0.0
 93
        0
 94
      127
282
     0
 72
     1
 77
     1
171
     1
175
     1
179
     1
273
     0
  0
XRECORD
  5
19F
102
{ACAD_REACTORS
330
19E
102
}
330
19E
100
AcDbXrecord
102
MATERIAL
148
0.0
149
0.0
149
0.0
 93
        0
 94
      127
282
     0
 72
     1
 77
     1
171
     1
175
     1
179
     1
273
     0
  0
XRECORD
  5
1A3
102
{ACAD_REACTORS
330
1A2
102
}
330
1A2
100
AcDbXrecord
102
MATERIAL
148
0.0
149
0.0
149
0.0
 93
        0
 94
      127
282
     0
 72
     1
 77
     1
171
     1
175
     1
179
     1
273
     0
  0
ENDSEC
  0
EOF
