  0
SECTION
  2
HEADER
  9
$ACADVER
  1
AC1014
  9
$ACADMAINTVER
 70
     0
  9
$DWGCODEPAGE
  3
DOS932
  9
$INSBASE
 10
0.0
 20
0.0
 30
0.0
  9
$EXTMIN
 10
0.0
 20
0.0
 30
0.0
  9
$EXTMAX
 10
420.0
 20
297.0
 30
0.0
  9
$LIMMIN
 10
0.0
 20
0.0
  9
$LIMMAX
 10
420.0
 20
297.0
  9
$ORTHOMODE
 70
     0
  9
$REGENMODE
 70
     1
  9
$FILLMODE
 70
     1
  9
$QTEXTMODE
 70
     0
  9
$MIRRTEXT
 70
     1
  9
$DRAGMODE
 70
     2
  9
$LTSCALE
 40
0.25
  9
$OSMODE
 70
     0
  9
$ATTMODE
 70
     1
  9
$TEXTSIZE
 40
3.0
  9
$TRACEWID
 40
0.05
  9
$TEXTSTYLE
  7
STANDARD
  9
$CLAYER
  8
0
  9
$CELTYPE
  6
CONTINUOUS
  9
$CECOLOR
 62
   256
  9
$CELTSCALE
 40
1.0
  9
$DELOBJ
 70
     1
  9
$DISPSILH
 70
     0
  9
$DIMSCALE
 40
1.0
  9
$DIMASZ
 40
4.0
  9
$DIMEXO
 40
0.0
  9
$DIMDLI
 40
10.0
  9
$DIMRND
 40
0.0
  9
$DIMDLE
 40
0.0
  9
$DIMEXE
 40
2.0
  9
$DIMTP
 40
0.0
  9
$DIMTM
 40
0.0
  9
$DIMTXT
 40
4.0
  9
$DIMCEN
 40
0.09
  9
$DIMTSZ
 40
0.0
  9
$DIMTOL
 70
     0
  9
$DIMLIM
 70
     0
  9
$DIMTIH
 70
     0
  9
$DIMTOH
 70
     0
  9
$DIMSE1
 70
     0
  9
$DIMSE2
 70
     0
  9
$DIMTAD
 70
     3
  9
$DIMZIN
 70
     0
  9
$DIMBLK
  1

  9
$DIMASO
 70
     1
  9
$DIMSHO
 70
     1
  9
$DIMPOST
  1

  9
$DIMAPOST
  1

  9
$DIMALT
 70
     0
  9
$DIMALTD
 70
     2
  9
$DIMALTF
 40
25.4
  9
$DIMLFAC
 40
1.0
  9
$DIMTOFL
 70
     1
  9
$DIMTVP
 40
0.7
  9
$DIMTIX
 70
     0
  9
$DIMSOXD
 70
     0
  9
$DIMSAH
 70
     0
  9
$DIMBLK1
  1

  9
$DIMBLK2
  1

  9
$DIMSTYLE
  2
STANDARD
  9
$DIMCLRD
 70
     0
  9
$DIMCLRE
 70
     0
  9
$DIMCLRT
 70
     0
  9
$DIMTFAC
 40
0.5
  9
$DIMGAP
 40
0.0
  9
$DIMJUST
 70
     0
  9
$DIMSD1
 70
     0
  9
$DIMSD2
 70
     0
  9
$DIMTOLJ
 70
     1
  9
$DIMTZIN
 70
     0
  9
$DIMALTZ
 70
     0
  9
$DIMALTTZ
 70
     0
  9
$DIMFIT
 70
     3
  9
$DIMUPT
 70
     0
  9
$DIMUNIT
 70
     2
  9
$DIMDEC
 70
     5
  9
$DIMTDEC
 70
     4
  9
$DIMALTU
 70
     2
  9
$DIMALTTD
 70
     2
  9
$DIMTXSTY
  7
STANDARD
  9
$DIMAUNIT
 70
     0
  9
$LUNITS
 70
     2
  9
$LUPREC
 70
     4
  9
$SKETCHINC
 40
0.1
  9
$FILLETRAD
 40
0.0
  9
$AUNITS
 70
     0
  9
$AUPREC
 70
     0
  9
$MENU
  1
acad
  9
$ELEVATION
 40
0.0
  9
$PELEVATION
 40
0.0
  9
$THICKNESS
 40
0.0
  9
$LIMCHECK
 70
     0
  9
$BLIPMODE
 70
     1
  9
$CHAMFERA
 40
0.0
  9
$CHAMFERB
 40
0.0
  9
$CHAMFERC
 40
0.0
  9
$CHAMFERD
 40
0.0
  9
$SKPOLY
 70
     0
  9
$TDCREATE
 40
2453662.414108797
  9
$TDUPDATE
 40
2453662.414108797
  9
$TDINDWG
 40
0.0000000000
  9
$TDUSRTIMER
 40
0.0000000000
  9
$USRTIMER
 70
     1
  9
$ANGBASE
 50
0.0
  9
$ANGDIR
 70
     0
  9
$PDMODE
 70
     0
  9
$PDSIZE
 40
0.0
  9
$PLINEWID
 40
0.0
  9
$COORDS
 70
     0
  9
$SPLFRAME
 70
     0
  9
$SPLINETYPE
 70
     6
  9
$SPLINESEGS
 70
     8
  9
$ATTDIA
 70
     0
  9
$ATTREQ
 70
     1
  9
$HANDLING
 70
     1
  9
$HANDSEED
  5
AF
  9
$SURFTAB1
 70
     6
  9
$SURFTAB2
 70
     6
  9
$SURFTYPE
 70
     6
  9
$SURFU
 70
     6
  9
$SURFV
 70
     6
  9
$UCSNAME
  2

  9
$UCSORG
 10
0.0
 20
0.0
 30
0.0
  9
$UCSXDIR
 10
1.0
 20
0.0
 30
0.0
  9
$UCSYDIR
 10
0.0
 20
1.0
 30
0.0
  9
$PUCSNAME
  2

  9
$PUCSORG
 10
0.0
 20
0.0
 30
0.0
  9
$PUCSXDIR
 10
1.0
 20
0.0
 30
0.0
  9
$PUCSYDIR
 10
0.0
 20
1.0
 30
0.0
  9
$USERI1
 70
     0
  9
$USERI2
 70
     0
  9
$USERI3
 70
     0
  9
$USERI4
 70
     0
  9
$USERI5
 70
     0
  9
$USERR1
 40
0.0
  9
$USERR2
 40
0.0
  9
$USERR3
 40
0.0
  9
$USERR4
 40
0.0
  9
$USERR5
 40
0.0
  9
$WORLDVIEW
 70
     1
  9
$SHADEDGE
 70
     3
  9
$SHADEDIF
 70
    70
  9
$TILEMODE
 70
     1
  9
$MAXACTVP
 70
    16
  9
$PINSBASE
 10
0.0
 20
0.0
 30
0.0
  9
$PLIMCHECK
 70
     0
  9
$PEXTMIN
 10
0.0
 20
0.0
 30
0.0
  9
$PEXTMAX
 10
420.0
 20
297.0
 30
0.0
  9
$PLIMMIN
 10
0.0
 20
0.0
  9
$PLIMMAX
 10
420.0
 20
297.0
  9
$UNITMODE
 70
     0
  9
$VISRETAIN
 70
     0
  9
$PLINEGEN
 70
     1
  9
$PSLTSCALE
 70
     0
  9
$TREEDEPTH
 70
  3020
  9
$PICKSTYLE
 70
     1
  9
$CMLSTYLE
  2
STANDARD
  9
$CMLJUST
 70
     0
  9
$CMLSCALE
 40
1.0
  9
$PROXYGRAPHICS
 70
     0
  9
$MEASUREMENT
 70
     0
  0
ENDSEC
  0
SECTION
  2
CLASSES
  0
CLASS
  1
LWPOLYLINE
  2
AcDbPolyline
  3
"AutoCAD"
 90
        0
280
     0
281
     1
  0
CLASS
  1
IMAGE
  2
AcDbRasterImage
  3
ISM
 90
      127
280
     0
281
     1
  0
CLASS
  1
OLE2FRAME
  2
AcDbOle2Frame
  3
""
 90
        0
280
     0
281
     1
  0
CLASS
  1
HATCH
  2
AcDbHatch
  3
"ACAD_SEDONA"
 90
        0
280
     0
281
     1
  0
CLASS
  1
DICTIONARYVAR
  2
AcDbDictionaryVar
  3
"AutoCAD"
 90
        0
280
     0
281
     0
  0
CLASS
  1
RASTERVARIABLES
  2
AcDbRasterVariables
  3
ISM
 90
        0
280
     0
281
     0
  0
CLASS
  1
IMAGEDEF
  2
AcDbRasterImageDef
  3
ISM
 90
        0
280
     0
281
     0
  0
CLASS
  1
IMAGEDEF_REACTOR
  2
AcDbRasterImageDefReactor
  3
ISM
 90
        1
280
     0
281
     0
  0
CLASS
  1
IDBUFFER
  2
AcDbIdBuffer
  3
"Acad"
 90
        0
280
     0
281
     0
  0
CLASS
  1
SPATIAL_FILTER
  2
AcDbSpatialFilter
  3
"Acad"
 90
        0
280
     0
281
     0
  0
CLASS
  1
XRECORD
  2
AcDbXrecord
  3
"<Built In>"
 90
        0
280
     0
281
     0
  0
CLASS
  1
SORTENTSTABLE
  2
AcDbSortentsTable
  3
"AutoCAD"
 90
        0
280
     0
281
     0
  0
CLASS
  1
LAYER_INDEX
  2
AcDbLayerIndex
  3
"Acad"
 90
        0
280
     0
281
     0
  0
CLASS
  1
SPATIAL_INDEX
  2
AcDbSpatialIndex
  3
"Acad"
 90
        0
280
     0
281
     0
  0
CLASS
  1
OBJECT_PTR
  2
CAseDLPNTableRecord
  3
"ASE-LPNTableRecord"
 90
        1
280
     0
281
     0
  0
CLASS
  1
LAYOUT
  2
AcDbLayout
  3
"AutoCAD 2000"
 90
        1
280
     0
281
     0
  0
CLASS
  1
PLOTSETTINGS
  2
AcDbPlotSettings
  3
"AutoCAD 2000"
 90
        1
280
     0
281
     0
  0
CLASS
  1
ACDBDICTIONARYWDFLT
  2
AcDbDictionaryWithDefault
  3
"AutoCAD 2000"
 90
        1
280
     0
281
     0
  0
CLASS
  1
ACDBPLACEHOLDER
  2
AcDbPlaceHolder
  3
"AutoCAD 2000"
 90
        1
280
     0
281
     0
  0
CLASS
  1
VBA_PROJECT
  2
AcDbVbaProject
  3
"acadvba"
 90
        1
280
     0
281
     0
  0
CLASS
  1
WIPEOUT
  2
AcDbWipeout
  3
WipeOut|AutoCAD Express Tool|expresstools@autodesk.com
 90
      127
280
     0
281
     1
  0
CLASS
  1
WIPEOUTVARIABLES
  2
AcDbWipeoutVariables
  3
WipeOut|AutoCAD Express Tool|expresstools@autodesk.com
 90
        0
280
     0
281
     0
  0
CLASS
  1
RTEXT
  2
RText
  3
RText|AutoCAD Express Tool|expresstools@autodesk.com
 90
        0
280
     0
281
     1
  0
CLASS
  1
ARCALIGNEDTEXT
  2
AcDbArcAlignedText
  3
ATEXT|AutoCAD Express Tool|expresstools@autodesk.com
 90
        0
280
     0
281
     1
  0
ENDSEC
  0
SECTION
  2
TABLES
  0
TABLE
  2
VPORT
  5
7
100
AcDbSymbolTable
 70
     1
  0
VPORT
  5
15
100
AcDbSymbolTableRecord
100
AcDbViewportTableRecord
  2
*ACTIVE
 70
     0
 10
0.0
 20
0.0
 11
1.0
 21
1.0
 12
6.591288
 22
4.579184
 13
0.0
 23
0.0
 14
1.0
 24
1.0
 15
0.0
 25
0.0
 16
0.0
 26
0.0
 36
1.0
 17
0.0
 27
0.0
 37
0.0
 40
9.158369
 41
0.688564
 42
50.0
 43
0.0
 44
0.0
 50
0.0
 51
0.0
 71
     0
 72
   100
 73
     1
 74
     1
 75
     0
 76
     0
 77
     0
 78
     0
  0
ENDTAB
  0
TABLE
  2
LTYPE
  5
4
100
AcDbSymbolTable
 70
     9
  0
LTYPE
  5
11
100
AcDbSymbolTableRecord
100
AcDbLinetypeTableRecord
  2
BYBLOCK
 70
    64
  3

 72
    65
 73
     0
 40
0.0
  0
LTYPE
  5
12
100
AcDbSymbolTableRecord
100
AcDbLinetypeTableRecord
  2
BYLAYER
 70
    64
  3

 72
    65
 73
     0
 40
0.0
  0
LTYPE
  5
13
100
AcDbSymbolTableRecord
100
AcDbLinetypeTableRecord
  2
CONTINUOUS
 70
    64
  3
Solid line
 72
    65
 73
     0
 40
0.0
  0
LTYPE
  5
1E
100
AcDbSymbolTableRecord
100
AcDbLinetypeTableRecord
  2
HIDDEN
 70
    64
  3
- - - - - - - - 
 72
    65
 73
     2
 40
12.6
 49
8.4
 74
     0
 49
-4.2
 74
     0
  0
LTYPE
  5
1F
100
AcDbSymbolTableRecord
100
AcDbLinetypeTableRecord
  2
DOT
 70
    64
  3
･ ･ ･ ･ ･ ･ ･ ･ 
 72
    65
 73
     2
 40
8.0
 49
6.0
 74
     0
 49
-2.0
 74
     0
  0
LTYPE
  5
20
100
AcDbSymbolTableRecord
100
AcDbLinetypeTableRecord
  2
CENTER
 70
    64
  3
- ･ - ･ - ･ - ･ 
 72
    65
 73
     4
 40
50.5
 49
30.0
 74
     0
 49
-9.0
 74
     0
 49
2.5
 74
     0
 49
-9.0
 74
     0
  0
LTYPE
  5
21
100
AcDbSymbolTableRecord
100
AcDbLinetypeTableRecord
  2
PHANTOM
 70
    64
  3
- ･･ - ･･ - ･･ - ･･ 
 72
    65
 73
     6
 40
58.0
 49
30.0
 74
     0
 49
-9.0
 74
     0
 49
2.5
 74
     0
 49
-5.0
 74
     0
 49
2.5
 74
     0
 49
-9.0
 74
     0
  0
LTYPE
  5
22
100
AcDbSymbolTableRecord
100
AcDbLinetypeTableRecord
  2
ACAD_ISO06W100
 70
    64
  3
____ ... ____ ... ____
 72
    65
 73
     8
 40
37.5
 49
24.0
 74
     0
 49
-3.0
 74
     0
 49
0.5
 74
     0
 49
-3.0
 74
     0
 49
0.5
 74
     0
 49
-3.0
 74
     0
 49
0.5
 74
     0
 49
-3.0
 74
     0
  0
LTYPE
  5
23
100
AcDbSymbolTableRecord
100
AcDbLinetypeTableRecord
  2
ACAD_ISO14W100
 70
    64
  3
__ . . . __ . . . __ . . . 
 72
    65
 73
     8
 40
25.5
 49
12.0
 74
     0
 49
-3.0
 74
     0
 49
0.5
 74
     0
 49
-3.0
 74
     0
 49
0.5
 74
     0
 49
-3.0
 74
     0
 49
0.5
 74
     0
 49
-3.0
 74
     0
  0
ENDTAB
  0
TABLE
  2
LAYER
  5
2
100
AcDbSymbolTable
 70
    22
  0
LAYER
  5
14
100
AcDbSymbolTableRecord
100
AcDbLayerTableRecord
  2
0
 70
     0
 62
     7
  6
CONTINUOUS
  0
LAYER
  5
24
100
AcDbSymbolTableRecord
100
AcDbLayerTableRecord
  2
1
 70
     0
 62
     7
  6
CONTINUOUS
  0
LAYER
  5
25
100
AcDbSymbolTableRecord
100
AcDbLayerTableRecord
  2
2
 70
     0
 62
   134
  6
CONTINUOUS
  0
LAYER
  5
26
100
AcDbSymbolTableRecord
100
AcDbLayerTableRecord
  2
3
 70
     0
 62
   214
  6
CONTINUOUS
  0
LAYER
  5
27
100
AcDbSymbolTableRecord
100
AcDbLayerTableRecord
  2
4
 70
     0
 62
    54
  6
CONTINUOUS
  0
LAYER
  5
28
100
AcDbSymbolTableRecord
100
AcDbLayerTableRecord
  2
5
 70
     0
 62
    94
  6
CONTINUOUS
  0
LAYER
  5
29
100
AcDbSymbolTableRecord
100
AcDbLayerTableRecord
  2
6
 70
     0
 62
    14
  6
CONTINUOUS
  0
LAYER
  5
2A
100
AcDbSymbolTableRecord
100
AcDbLayerTableRecord
  2
7
 70
     0
 62
     4
  6
CONTINUOUS
  0
LAYER
  5
2B
100
AcDbSymbolTableRecord
100
AcDbLayerTableRecord
  2
8
 70
     0
 62
     6
  6
CONTINUOUS
  0
LAYER
  5
2C
100
AcDbSymbolTableRecord
100
AcDbLayerTableRecord
  2
9
 70
     0
 62
     2
  6
CONTINUOUS
  0
LAYER
  5
2D
100
AcDbSymbolTableRecord
100
AcDbLayerTableRecord
  2
10
 70
     0
 62
     3
  6
CONTINUOUS
  0
LAYER
  5
2E
100
AcDbSymbolTableRecord
100
AcDbLayerTableRecord
  2
11
 70
     0
 62
   251
  6
CONTINUOUS
  0
LAYER
  5
2F
100
AcDbSymbolTableRecord
100
AcDbLayerTableRecord
  2
12
 70
     0
 62
   136
  6
CONTINUOUS
  0
LAYER
  5
30
100
AcDbSymbolTableRecord
100
AcDbLayerTableRecord
  2
13
 70
     0
 62
   216
  6
CONTINUOUS
  0
LAYER
  5
31
100
AcDbSymbolTableRecord
100
AcDbLayerTableRecord
  2
14
 70
     0
 62
    56
  6
CONTINUOUS
  0
LAYER
  5
32
100
AcDbSymbolTableRecord
100
AcDbLayerTableRecord
  2
15
 70
     0
 62
    96
  6
CONTINUOUS
  0
LAYER
  5
33
100
AcDbSymbolTableRecord
100
AcDbLayerTableRecord
  2
16
 70
     0
 62
    16
  6
CONTINUOUS
  0
LAYER
  5
34
100
AcDbSymbolTableRecord
100
AcDbLayerTableRecord
  2
17
 70
     0
 62
   132
  6
CONTINUOUS
  0
LAYER
  5
35
100
AcDbSymbolTableRecord
100
AcDbLayerTableRecord
  2
18
 70
     0
 62
   212
  6
CONTINUOUS
  0
LAYER
  5
36
100
AcDbSymbolTableRecord
100
AcDbLayerTableRecord
  2
19
 70
     0
 62
    52
  6
CONTINUOUS
  0
LAYER
  5
37
100
AcDbSymbolTableRecord
100
AcDbLayerTableRecord
  2
20
 70
     0
 62
   250
  6
CONTINUOUS
  0
LAYER
  5
38
100
AcDbSymbolTableRecord
100
AcDbLayerTableRecord
  2
128
 70
     0
 62
     7
  6
CONTINUOUS
  0
ENDTAB
  0
TABLE
  2
STYLE
  5
3
100
AcDbSymbolTable
 70
     2
  0
STYLE
  5
17
100
AcDbSymbolTableRecord
100
AcDbTextStyleTableRecord
  2
STANDARD
 70
     0
 40
0.0
 41
1.0
 50
0.0
 71
     0
 42
0.0
  3
txt
  4
bigfont
  0
STYLE
  5
1D
100
AcDbSymbolTableRecord
100
AcDbTextStyleTableRecord
  2
T_STANDARD
 70
    68
 40
10.0
 41
1.0
 50
0.0
 71
     0
 42
10.0
  3
txt
  4
bigfont
  0
ENDTAB
  0
TABLE
  2
VIEW
  5
5
100
AcDbSymbolTable
 70
     0
  0
ENDTAB
  0
TABLE
  2
UCS
  5
6
100
AcDbSymbolTable
 70
     0
  0
ENDTAB
  0
TABLE
  2
APPID
  5
8
100
AcDbSymbolTable
 70
     1
  0
APPID
  5
16
100
AcDbSymbolTableRecord
100
AcDbRegAppTableRecord
  2
ACAD
 70
     0
  0
ENDTAB
  0
TABLE
  2
DIMSTYLE
  5
9
100
AcDbSymbolTable
 70
     1
  0
DIMSTYLE
105
18
100
AcDbSymbolTableRecord
100
AcDbDimStyleTableRecord
  2
STANDARD
 70
     0
  3

  4

  5

  6

  7

 40
1.0
 41
0.18
 42
0.0625
 43
0.38
 44
0.18
 45
0.0
 46
0.0
 47
0.0
 48
0.0
 71
     0
 72
     0
 73
     1
 74
     1
 75
     0
 76
     0
 77
     0
 78
     0
140
0.18
141
0.09
142
0.0
143
25.4
144
1.0
145
0.0
146
1.0
147
0.09
170
     0
171
     2
172
     0
173
     0
174
     0
175
     0
176
     0
177
     0
178
     0
270
     2
271
     4
272
     4
273
     2
274
     2
275
     0
280
     0
281
     0
282
     0
283
     1
284
     0
285
     0
286
     0
287
     0
288
     0
340
17
  0
ENDTAB
  0
TABLE
  2
BLOCK_RECORD
  5
1
100
AcDbSymbolTable
 70
     3
  0
BLOCK_RECORD
  5
A
100
AcDbSymbolTableRecord
100
AcDbBlockTableRecord
  2
*MODEL_SPACE
  0
BLOCK_RECORD
  5
B
100
AcDbSymbolTableRecord
100
AcDbBlockTableRecord
  2
*PAPER_SPACE
  0
BLOCK_RECORD
  5
39
100
AcDbSymbolTableRecord
100
AcDbBlockTableRecord
  2
*G0
  0
BLOCK_RECORD
  5
78
100
AcDbSymbolTableRecord
100
AcDbBlockTableRecord
  2
*D1
  0
BLOCK_RECORD
  5
A1
100
AcDbSymbolTableRecord
100
AcDbBlockTableRecord
  2
*D2
  0
ENDTAB
  0
ENDSEC
  0
SECTION
  2
BLOCKS
  0
BLOCK
  5
D
100
AcDbEntity
  8
0
100
AcDbBlockBegin
  2
*MODEL_SPACE
 70
     0
 10
0.0
 20
0.0
 30
0.0
  3
*MODEL_SPACE
  1

  0
ENDBLK
  5
E
100
AcDbEntity
  8
0
100
AcDbBlockEnd
  0
BLOCK
  5
F
100
AcDbEntity
 67
     1
  8
0
100
AcDbBlockBegin
  2
*PAPER_SPACE
 70
     0
 10
0.0
 20
0.0
 30
0.0
  3
*PAPER_SPACE
  1

  0
ENDBLK
  5
10
100
AcDbEntity
 67
     1
  8
0
100
AcDbBlockEnd
  0
BLOCK
  5
3A
100
AcDbEntity
  8
0
  6
CONTINUOUS
 62
     7
100
AcDbBlockBegin
  2
*G0
 70
     0
 10
0.0
 20
0.0
 30
0.0
  3
*G0
  1

  0
ENDBLK
  5
3B
100
AcDbEntity
  8
0
100
AcDbBlockEnd
  0
BLOCK
  5
79
100
AcDbEntity
  8
2
  6
CONTINUOUS
 62
   134
100
AcDbBlockBegin
  2
*D1
 70
     0
 10
0.0
 20
0.0
 30
0.0
  3
*D1
  1

  0
LINE
  5
7A
100
AcDbEntity
  8
2
  6
CONTINUOUS
 62
   134
100
AcDbLine
 10
176.055694
 20
263.875829
 30
0.0
 11
176.055694
 21
219.875829
 31
0.0
  0
LINE
  5
7B
100
AcDbEntity
  8
2
  6
CONTINUOUS
 62
   134
100
AcDbLine
 10
174.055694
 20
263.875829
 30
0.0
 11
188.555694
 21
263.875829
 31
0.0
  0
LINE
  5
7C
100
AcDbEntity
  8
2
  6
CONTINUOUS
 62
   134
100
AcDbLine
 10
174.055694
 20
219.875829
 30
0.0
 11
188.555694
 21
219.875829
 31
0.0
  0
LINE
  5
7D
100
AcDbEntity
  8
2
  6
CONTINUOUS
 62
   134
100
AcDbLine
 10
176.055694
 20
263.875829
 30
0.0
 11
177.09097
 21
260.012125
 31
0.0
  0
LINE
  5
7E
100
AcDbEntity
  8
2
  6
CONTINUOUS
 62
   134
100
AcDbLine
 10
176.055694
 20
263.875829
 30
0.0
 11
175.020418
 21
260.012125
 31
0.0
  0
LINE
  5
7F
100
AcDbEntity
  8
2
  6
CONTINUOUS
 62
   134
100
AcDbLine
 10
176.055694
 20
219.875829
 30
0.0
 11
175.020418
 21
223.739532
 31
0.0
  0
LINE
  5
80
100
AcDbEntity
  8
2
  6
CONTINUOUS
 62
   134
100
AcDbLine
 10
176.055694
 20
219.875829
 30
0.0
 11
177.09097
 21
223.739532
 31
0.0
  0
TEXT
  5
81
100
AcDbEntity
  8
2
  6
CONTINUOUS
 62
   134
100
AcDbText
 10
176.055694
 20
237.875829
 30
0.0
 40
4.0
  1
%%c44
 50
90.0
 41
0.666667
 11
176.055694
 21
237.875829
 31
0.0
100
AcDbText
 73
     1
  0
ENDBLK
  5
82
100
AcDbEntity
  8
2
  6
CONTINUOUS
 62
   134
100
AcDbBlockEnd
  0
BLOCK
  5
A2
100
AcDbEntity
  8
2
  6
CONTINUOUS
 62
   134
100
AcDbBlockBegin
  2
*D2
 70
     0
 10
0.0
 20
0.0
 30
0.0
  3
*D2
  1

  0
LINE
  5
A3
100
AcDbEntity
  8
2
  6
CONTINUOUS
 62
   134
100
AcDbLine
 10
188.055694
 20
275.875829
 30
0.0
 11
375.655694
 21
275.875829
 31
0.0
  0
LINE
  5
A4
100
AcDbEntity
  8
2
  6
CONTINUOUS
 62
   134
100
AcDbLine
 10
188.055694
 20
277.875829
 30
0.0
 11
188.055694
 21
250.375829
 31
0.0
  0
LINE
  5
A5
100
AcDbEntity
  8
2
  6
CONTINUOUS
 62
   134
100
AcDbLine
 10
375.655694
 20
277.875829
 30
0.0
 11
375.655694
 21
250.375829
 31
0.0
  0
LINE
  5
A6
100
AcDbEntity
  8
2
  6
CONTINUOUS
 62
   134
100
AcDbLine
 10
188.055694
 20
275.875829
 30
0.0
 11
191.919397
 21
276.911105
 31
0.0
  0
LINE
  5
A7
100
AcDbEntity
  8
2
  6
CONTINUOUS
 62
   134
100
AcDbLine
 10
188.055694
 20
275.875829
 30
0.0
 11
191.919397
 21
274.840552
 31
0.0
  0
LINE
  5
A8
100
AcDbEntity
  8
2
  6
CONTINUOUS
 62
   134
100
AcDbLine
 10
375.655694
 20
275.875829
 30
0.0
 11
371.79199
 21
274.840552
 31
0.0
  0
LINE
  5
A9
100
AcDbEntity
  8
2
  6
CONTINUOUS
 62
   134
100
AcDbLine
 10
375.655694
 20
275.875829
 30
0.0
 11
371.79199
 21
276.911105
 31
0.0
  0
TEXT
  5
AA
100
AcDbEntity
  8
2
  6
CONTINUOUS
 62
   134
100
AcDbText
 10
276.855694
 20
275.875829
 30
0.0
 40
4.0
  1
187.6
 41
0.543478
 11
276.855694
 21
275.875829
 31
0.0
100
AcDbText
 73
     1
  0
ENDBLK
  5
AB
100
AcDbEntity
  8
2
  6
CONTINUOUS
 62
   134
100
AcDbBlockEnd
  0
ENDSEC
  0
SECTION
  2
ENTITIES
  0
INSERT
  5
3C
100
AcDbEntity
  8
0
  6
CONTINUOUS
 62
     7
100
AcDbBlockReference
  2
*G0
 10
0.0
 20
0.0
 30
0.0
  0
LINE
  5
3D
100
AcDbEntity
  8
3
  6
CENTER
 62
   214
100
AcDbLine
 10
83.090318
 20
68.719797
 30
0.0
 11
133.082406
 21
68.719797
 31
0.0
  0
LINE
  5
3E
100
AcDbEntity
  8
3
  6
CENTER
 62
   214
100
AcDbLine
 10
108.469296
 20
93.717534
 30
0.0
 11
108.469296
 21
43.724771
 31
0.0
  0
CIRCLE
  5
3F
100
AcDbEntity
  8
3
  6
CONTINUOUS
 62
   214
100
AcDbCircle
 10
108.469296
 20
68.719797
 30
0.0
 40
22.0
  0
CIRCLE
  5
40
100
AcDbEntity
  8
3
  6
CONTINUOUS
 62
   214
100
AcDbCircle
 10
108.469296
 20
68.719797
 30
0.0
 40
5.1
  0
CIRCLE
  5
41
100
AcDbEntity
  8
3
  6
HIDDEN
 62
   214
100
AcDbCircle
 10
108.469296
 20
68.719797
 30
0.0
 40
18.0
  0
ARC
  5
42
100
AcDbEntity
  8
3
  6
CONTINUOUS
 62
   214
100
AcDbCircle
 10
122.26399
 20
58.719797
 30
0.0
 40
35.0
100
AcDbArc
 50
90.0
 51
113.909517
  0
ARC
  5
43
100
AcDbEntity
  8
3
  6
HIDDEN
 62
   214
100
AcDbCircle
 10
122.26399
 20
58.719797
 30
0.0
 40
35.0
100
AcDbArc
 50
113.909517
 51
141.317813
  0
ARC
  5
44
100
AcDbEntity
  8
3
  6
CONTINUOUS
 62
   214
100
AcDbCircle
 10
122.26399
 20
58.619797
 30
0.0
 40
35.0
100
AcDbArc
 50
90.0
 51
113.490378
  0
LINE
  5
45
100
AcDbEntity
  8
3
  6
CONTINUOUS
 62
   214
100
AcDbLine
 10
150.469296
 20
93.719797
 30
0.0
 11
150.469296
 21
93.619797
 31
0.0
  0
LINE
  5
46
100
AcDbEntity
  8
3
  6
CONTINUOUS
 62
   214
100
AcDbLine
 10
122.26399
 20
93.719797
 30
0.0
 11
150.469296
 21
93.719797
 31
0.0
  0
LINE
  5
47
100
AcDbEntity
  8
3
  6
CONTINUOUS
 62
   214
100
AcDbLine
 10
150.469296
 20
93.619797
 30
0.0
 11
122.26399
 21
93.619797
 31
0.0
  0
LINE
  5
48
100
AcDbEntity
  8
3
  6
CENTER
 62
   214
100
AcDbLine
 10
143.469296
 20
96.719797
 30
0.0
 11
143.469296
 21
90.619797
 31
0.0
  0
LINE
  5
49
100
AcDbEntity
  8
3
  6
CENTER
 62
   214
100
AcDbLine
 10
281.855694
 20
98.527761
 30
0.0
 11
281.855694
 21
43.173304
 31
0.0
  0
LINE
  5
4A
100
AcDbEntity
  8
3
  6
CENTER
 62
   214
100
AcDbLine
 10
281.855694
 20
264.483375
 30
0.0
 11
281.855694
 21
195.142139
 31
0.0
  0
LINE
  5
4B
100
AcDbEntity
  8
3
  6
CENTER
 62
   214
100
AcDbLine
 10
285.651326
 20
206.875829
 30
0.0
 11
278.060061
 21
206.875829
 31
0.0
  0
TEXT
  5
4C
100
AcDbEntity
  8
10
  6
CONTINUOUS
 62
     3
100
AcDbText
 10
140.32458
 20
19.317884
 30
0.0
 40
10.0
  1
カバー用コンストン巾180mm用
 41
0.741758
 11
140.32458
 21
19.317884
 31
0.0
100
AcDbText
 73
     1
  0
LINE
  5
4D
100
AcDbEntity
  8
3
  6
CONTINUOUS
 62
   214
100
AcDbLine
 10
372.955694
 20
90.719797
 30
0.0
 11
372.355694
 21
84.719797
 31
0.0
  0
LINE
  5
4E
100
AcDbEntity
  8
3
  6
CONTINUOUS
 62
   214
100
AcDbLine
 10
372.955694
 20
46.719797
 30
0.0
 11
372.355694
 21
52.719797
 31
0.0
  0
LINE
  5
4F
100
AcDbEntity
  8
3
  6
CONTINUOUS
 62
   214
100
AcDbLine
 10
374.655694
 20
90.719797
 30
0.0
 11
372.955694
 21
90.719797
 31
0.0
  0
LINE
  5
50
100
AcDbEntity
  8
3
  6
CONTINUOUS
 62
   214
100
AcDbLine
 10
374.655694
 20
46.719797
 30
0.0
 11
372.955694
 21
46.719797
 31
0.0
  0
LINE
  5
51
100
AcDbEntity
  8
3
  6
CONTINUOUS
 62
   214
100
AcDbLine
 10
371.855694
 20
84.719797
 30
0.0
 11
372.355694
 21
84.719797
 31
0.0
  0
LINE
  5
52
100
AcDbEntity
  8
3
  6
CONTINUOUS
 62
   214
100
AcDbLine
 10
371.855694
 20
52.719797
 30
0.0
 11
372.355694
 21
52.719797
 31
0.0
  0
LINE
  5
53
100
AcDbEntity
  8
3
  6
CONTINUOUS
 62
   214
100
AcDbLine
 10
374.655694
 20
90.719797
 30
0.0
 11
374.655694
 21
46.719797
 31
0.0
  0
LINE
  5
54
100
AcDbEntity
  8
3
  6
CONTINUOUS
 62
   214
100
AcDbLine
 10
372.955694
 20
46.719797
 30
0.0
 11
372.955694
 21
90.719797
 31
0.0
  0
LINE
  5
55
100
AcDbEntity
  8
3
  6
CONTINUOUS
 62
   214
100
AcDbLine
 10
372.355694
 20
84.719797
 30
0.0
 11
372.355694
 21
52.719797
 31
0.0
  0
LINE
  5
56
100
AcDbEntity
  8
3
  6
CONTINUOUS
 62
   214
100
AcDbLine
 10
371.855694
 20
50.719797
 30
0.0
 11
371.855694
 21
93.719797
 31
0.0
  0
LINE
  5
57
100
AcDbEntity
  8
3
  6
CONTINUOUS
 62
   214
100
AcDbLine
 10
190.755694
 20
90.719797
 30
0.0
 11
191.355694
 21
84.719797
 31
0.0
  0
LINE
  5
58
100
AcDbEntity
  8
3
  6
CONTINUOUS
 62
   214
100
AcDbLine
 10
190.755694
 20
46.719797
 30
0.0
 11
191.355694
 21
52.719797
 31
0.0
  0
LINE
  5
59
100
AcDbEntity
  8
3
  6
CONTINUOUS
 62
   214
100
AcDbLine
 10
189.055694
 20
90.719797
 30
0.0
 11
190.755694
 21
90.719797
 31
0.0
  0
LINE
  5
5A
100
AcDbEntity
  8
3
  6
CONTINUOUS
 62
   214
100
AcDbLine
 10
189.055694
 20
46.719797
 30
0.0
 11
190.755694
 21
46.719797
 31
0.0
  0
LINE
  5
5B
100
AcDbEntity
  8
3
  6
CONTINUOUS
 62
   214
100
AcDbLine
 10
191.355694
 20
84.719797
 30
0.0
 11
191.855694
 21
84.719797
 31
0.0
  0
LINE
  5
5C
100
AcDbEntity
  8
3
  6
CONTINUOUS
 62
   214
100
AcDbLine
 10
191.355694
 20
52.719797
 30
0.0
 11
191.855694
 21
52.719797
 31
0.0
  0
LINE
  5
5D
100
AcDbEntity
  8
3
  6
CONTINUOUS
 62
   214
100
AcDbLine
 10
189.055694
 20
90.719797
 30
0.0
 11
189.055694
 21
46.719797
 31
0.0
  0
LINE
  5
5E
100
AcDbEntity
  8
3
  6
CONTINUOUS
 62
   214
100
AcDbLine
 10
190.755694
 20
46.719797
 30
0.0
 11
190.755694
 21
90.719797
 31
0.0
  0
LINE
  5
5F
100
AcDbEntity
  8
3
  6
CONTINUOUS
 62
   214
100
AcDbLine
 10
191.355694
 20
84.719797
 30
0.0
 11
191.355694
 21
52.719797
 31
0.0
  0
LINE
  5
60
100
AcDbEntity
  8
3
  6
CONTINUOUS
 62
   214
100
AcDbLine
 10
191.855694
 20
93.719797
 30
0.0
 11
191.855694
 21
50.719797
 31
0.0
  0
LINE
  5
61
100
AcDbEntity
  8
3
  6
HIDDEN
 62
   214
100
AcDbLine
 10
188.055694
 20
73.819797
 30
0.0
 11
375.655694
 21
73.819797
 31
0.0
  0
LINE
  5
62
100
AcDbEntity
  8
3
  6
HIDDEN
 62
   214
100
AcDbLine
 10
188.055694
 20
63.619797
 30
0.0
 11
375.655694
 21
63.619797
 31
0.0
  0
LINE
  5
63
100
AcDbEntity
  8
3
  6
CENTER
 62
   214
100
AcDbLine
 10
185.055694
 20
68.719797
 30
0.0
 11
378.655694
 21
68.719797
 31
0.0
  0
LINE
  5
64
100
AcDbEntity
  8
3
  6
CONTINUOUS
 62
   214
100
AcDbLine
 10
371.855694
 20
93.719797
 30
0.0
 11
191.855694
 21
93.719797
 31
0.0
  0
LINE
  5
65
100
AcDbEntity
  8
3
  6
CONTINUOUS
 62
   214
100
AcDbLine
 10
191.855694
 20
93.619797
 30
0.0
 11
371.855694
 21
93.619797
 31
0.0
  0
LINE
  5
66
100
AcDbEntity
  8
3
  6
CONTINUOUS
 62
   214
100
AcDbLine
 10
191.855694
 20
50.719797
 30
0.0
 11
371.855694
 21
50.719797
 31
0.0
  0
LINE
  5
67
100
AcDbEntity
  8
3
  6
CONTINUOUS
 62
   214
100
AcDbLine
 10
191.855694
 20
86.719797
 30
0.0
 11
371.855694
 21
86.719797
 31
0.0
  0
LINE
  5
68
100
AcDbEntity
  8
3
  6
CONTINUOUS
 62
   214
100
AcDbLine
 10
372.955694
 20
219.875829
 30
0.0
 11
372.355694
 21
225.875829
 31
0.0
  0
LINE
  5
69
100
AcDbEntity
  8
3
  6
CONTINUOUS
 62
   214
100
AcDbLine
 10
372.955694
 20
263.875829
 30
0.0
 11
372.355694
 21
257.875829
 31
0.0
  0
LINE
  5
6A
100
AcDbEntity
  8
3
  6
CONTINUOUS
 62
   214
100
AcDbLine
 10
374.655694
 20
219.875829
 30
0.0
 11
372.955694
 21
219.875829
 31
0.0
  0
LINE
  5
6B
100
AcDbEntity
  8
3
  6
CONTINUOUS
 62
   214
100
AcDbLine
 10
374.655694
 20
263.875829
 30
0.0
 11
372.955694
 21
263.875829
 31
0.0
  0
LINE
  5
6C
100
AcDbEntity
  8
3
  6
CONTINUOUS
 62
   214
100
AcDbLine
 10
372.355694
 20
225.875829
 30
0.0
 11
371.855694
 21
225.875829
 31
0.0
  0
LINE
  5
6D
100
AcDbEntity
  8
3
  6
CONTINUOUS
 62
   214
100
AcDbLine
 10
372.355694
 20
257.875829
 30
0.0
 11
371.855694
 21
257.875829
 31
0.0
  0
LINE
  5
6E
100
AcDbEntity
  8
3
  6
CONTINUOUS
 62
   214
100
AcDbLine
 10
374.655694
 20
263.875829
 30
0.0
 11
374.655694
 21
219.875829
 31
0.0
  0
LINE
  5
6F
100
AcDbEntity
  8
3
  6
CONTINUOUS
 62
   214
100
AcDbLine
 10
372.955694
 20
219.875829
 30
0.0
 11
372.955694
 21
263.875829
 31
0.0
  0
LINE
  5
70
100
AcDbEntity
  8
3
  6
CONTINUOUS
 62
   214
100
AcDbLine
 10
372.355694
 20
257.875829
 30
0.0
 11
372.355694
 21
225.875829
 31
0.0
  0
LINE
  5
71
100
AcDbEntity
  8
3
  6
CONTINUOUS
 62
   214
100
AcDbLine
 10
371.855694
 20
199.875829
 30
0.0
 11
371.855694
 21
259.875829
 31
0.0
  0
LINE
  5
72
100
AcDbEntity
  8
3
  6
CONTINUOUS
 62
   214
100
AcDbLine
 10
190.755694
 20
219.875829
 30
0.0
 11
191.355694
 21
225.875829
 31
0.0
  0
LINE
  5
73
100
AcDbEntity
  8
3
  6
CONTINUOUS
 62
   214
100
AcDbLine
 10
190.755694
 20
263.875829
 30
0.0
 11
191.355694
 21
257.875829
 31
0.0
  0
LINE
  5
74
100
AcDbEntity
  8
3
  6
CONTINUOUS
 62
   214
100
AcDbLine
 10
189.055694
 20
219.875829
 30
0.0
 11
190.755694
 21
219.875829
 31
0.0
  0
LINE
  5
75
100
AcDbEntity
  8
3
  6
CONTINUOUS
 62
   214
100
AcDbLine
 10
189.055694
 20
263.875829
 30
0.0
 11
190.755694
 21
263.875829
 31
0.0
  0
LINE
  5
76
100
AcDbEntity
  8
3
  6
CONTINUOUS
 62
   214
100
AcDbLine
 10
191.855694
 20
225.875829
 30
0.0
 11
191.355694
 21
225.875829
 31
0.0
  0
LINE
  5
77
100
AcDbEntity
  8
3
  6
CONTINUOUS
 62
   214
100
AcDbLine
 10
191.855694
 20
257.875829
 30
0.0
 11
191.355694
 21
257.875829
 31
0.0
  0
DIMENSION
  5
83
100
AcDbEntity
  8
2
  6
CONTINUOUS
 62
   134
100
AcDbDimension
  2
*D1
 10
176.055694
 20
263.875829
 30
0.0
 11
176.055694
 21
241.875829
 31
0.0
  1
φ44
100
AcDbAlignedDimension
 13
188.555694
 23
263.875829
 33
0.0
 14
188.555694
 24
219.875829
 34
0.0
 50
90.0
100
AcDbRotatedDimension
  0
LINE
  5
84
100
AcDbEntity
  8
3
  6
CONTINUOUS
 62
   214
100
AcDbLine
 10
189.055694
 20
219.875829
 30
0.0
 11
189.055694
 21
263.875829
 31
0.0
  0
LINE
  5
85
100
AcDbEntity
  8
3
  6
CONTINUOUS
 62
   214
100
AcDbLine
 10
190.755694
 20
219.875829
 30
0.0
 11
190.755694
 21
263.875829
 31
0.0
  0
LINE
  5
86
100
AcDbEntity
  8
3
  6
CONTINUOUS
 62
   214
100
AcDbLine
 10
191.355694
 20
225.875829
 30
0.0
 11
191.355694
 21
257.875829
 31
0.0
  0
LINE
  5
87
100
AcDbEntity
  8
3
  6
CONTINUOUS
 62
   214
100
AcDbLine
 10
191.855694
 20
259.875829
 30
0.0
 11
191.855694
 21
199.875829
 31
0.0
  0
LINE
  5
88
100
AcDbEntity
  8
3
  6
HIDDEN
 62
   214
100
AcDbLine
 10
375.655694
 20
236.775829
 30
0.0
 11
188.055694
 21
236.775829
 31
0.0
  0
LINE
  5
89
100
AcDbEntity
  8
3
  6
HIDDEN
 62
   214
100
AcDbLine
 10
375.655694
 20
246.975829
 30
0.0
 11
188.055694
 21
246.975829
 31
0.0
  0
LINE
  5
8A
100
AcDbEntity
  8
3
  6
CENTER
 62
   214
100
AcDbLine
 10
378.655694
 20
241.875829
 30
0.0
 11
185.055694
 21
241.875829
 31
0.0
  0
LINE
  5
8B
100
AcDbEntity
  8
3
  6
CONTINUOUS
 62
   214
100
AcDbLine
 10
371.855694
 20
259.875829
 30
0.0
 11
191.855694
 21
259.875829
 31
0.0
  0
LINE
  5
8C
100
AcDbEntity
  8
3
  6
CONTINUOUS
 62
   214
100
AcDbLine
 10
191.855694
 20
199.875829
 30
0.0
 11
371.855694
 21
199.875829
 31
0.0
  0
LINE
  5
8D
100
AcDbEntity
  8
3
  6
CENTER
 62
   214
100
AcDbLine
 10
341.855694
 20
96.719797
 30
0.0
 11
341.855694
 21
90.619797
 31
0.0
  0
LINE
  5
8E
100
AcDbEntity
  8
3
  6
CENTER
 62
   214
100
AcDbLine
 10
341.855694
 20
210.671461
 30
0.0
 11
341.855694
 21
203.080196
 31
0.0
  0
LINE
  5
8F
100
AcDbEntity
  8
3
  6
CENTER
 62
   214
100
AcDbLine
 10
345.651326
 20
206.875829
 30
0.0
 11
338.060061
 21
206.875829
 31
0.0
  0
LINE
  5
90
100
AcDbEntity
  8
3
  6
CENTER
 62
   214
100
AcDbLine
 10
221.855694
 20
96.719797
 30
0.0
 11
221.855694
 21
90.619797
 31
0.0
  0
LINE
  5
91
100
AcDbEntity
  8
3
  6
CENTER
 62
   214
100
AcDbLine
 10
221.855694
 20
210.671461
 30
0.0
 11
221.855694
 21
203.080196
 31
0.0
  0
LINE
  5
92
100
AcDbEntity
  8
3
  6
CENTER
 62
   214
100
AcDbLine
 10
225.651326
 20
206.875829
 30
0.0
 11
218.060061
 21
206.875829
 31
0.0
  0
CIRCLE
  5
93
100
AcDbEntity
  8
3
  6
CONTINUOUS
 62
   214
100
AcDbCircle
 10
341.855694
 20
206.875829
 30
0.0
 40
2.75
  0
CIRCLE
  5
94
100
AcDbEntity
  8
3
  6
CONTINUOUS
 62
   214
100
AcDbCircle
 10
281.855694
 20
206.875829
 30
0.0
 40
2.75
  0
CIRCLE
  5
95
100
AcDbEntity
  8
3
  6
CONTINUOUS
 62
   214
100
AcDbCircle
 10
221.855694
 20
206.875829
 30
0.0
 40
2.75
  0
LINE
  5
96
100
AcDbEntity
  8
3
  6
CONTINUOUS
 62
   214
100
AcDbLine
 10
188.055694
 20
76.719797
 30
0.0
 11
189.055694
 21
76.719797
 31
0.0
  0
LINE
  5
97
100
AcDbEntity
  8
3
  6
CONTINUOUS
 62
   214
100
AcDbLine
 10
188.055694
 20
60.719797
 30
0.0
 11
189.055694
 21
60.719797
 31
0.0
  0
LINE
  5
98
100
AcDbEntity
  8
3
  6
CONTINUOUS
 62
   214
100
AcDbLine
 10
188.055694
 20
60.719797
 30
0.0
 11
188.055694
 21
76.719797
 31
0.0
  0
LINE
  5
99
100
AcDbEntity
  8
3
  6
CONTINUOUS
 62
   214
100
AcDbLine
 10
375.655694
 20
76.719797
 30
0.0
 11
374.655694
 21
76.719797
 31
0.0
  0
LINE
  5
9A
100
AcDbEntity
  8
3
  6
CONTINUOUS
 62
   214
100
AcDbLine
 10
375.655694
 20
60.719797
 30
0.0
 11
374.655694
 21
60.719797
 31
0.0
  0
LINE
  5
9B
100
AcDbEntity
  8
3
  6
CONTINUOUS
 62
   214
100
AcDbLine
 10
375.655694
 20
60.719797
 30
0.0
 11
375.655694
 21
76.719797
 31
0.0
  0
CIRCLE
  5
9C
100
AcDbEntity
  8
3
  6
CONTINUOUS
 62
   214
100
AcDbCircle
 10
108.469296
 20
68.719797
 30
0.0
 40
8.0
  0
LINE
  5
9D
100
AcDbEntity
  8
3
  6
CONTINUOUS
 62
   214
100
AcDbLine
 10
188.055694
 20
233.875829
 30
0.0
 11
189.055694
 21
233.875829
 31
0.0
  0
LINE
  5
9E
100
AcDbEntity
  8
3
  6
CONTINUOUS
 62
   214
100
AcDbLine
 10
188.055694
 20
249.875829
 30
0.0
 11
189.055694
 21
249.875829
 31
0.0
  0
LINE
  5
9F
100
AcDbEntity
  8
3
  6
CONTINUOUS
 62
   214
100
AcDbLine
 10
188.055694
 20
233.875829
 30
0.0
 11
188.055694
 21
249.875829
 31
0.0
  0
LINE
  5
A0
100
AcDbEntity
  8
3
  6
CONTINUOUS
 62
   214
100
AcDbLine
 10
375.655694
 20
249.875829
 30
0.0
 11
374.655694
 21
249.875829
 31
0.0
  0
DIMENSION
  5
AC
100
AcDbEntity
  8
2
  6
CONTINUOUS
 62
   134
100
AcDbDimension
  2
*D2
 10
188.055694
 20
275.875829
 30
0.0
 11
281.855694
 21
275.875829
 31
0.0
  1
187.6
100
AcDbAlignedDimension
 13
188.055694
 23
250.375829
 33
0.0
 14
375.655694
 24
250.375829
 34
0.0
100
AcDbRotatedDimension
  0
LINE
  5
AD
100
AcDbEntity
  8
3
  6
CONTINUOUS
 62
   214
100
AcDbLine
 10
375.655694
 20
233.875829
 30
0.0
 11
374.655694
 21
233.875829
 31
0.0
  0
LINE
  5
AE
100
AcDbEntity
  8
3
  6
CONTINUOUS
 62
   214
100
AcDbLine
 10
375.655694
 20
233.875829
 30
0.0
 11
375.655694
 21
249.875829
 31
0.0
  0
ENDSEC
  0
SECTION
  2
OBJECTS
  0
DICTIONARY
  5
19
100
AcDbDictionary
  3
ACAD_GROUP
350
1A
  3
ACAD_MLINESTYLE
350
1B
  0
DICTIONARY
  5
1A
102
{ACAD_REACTORS
330
19
102
}
100
AcDbDictionary
  0
DICTIONARY
  5
1B
102
{ACAD_REACTORS
330
19
102
}
100
AcDbDictionary
  3
STANDARD
350
1C
  0
MLINESTYLE
  5
1C
102
{ACAD_REACTORS
330
1B
102
}
100
AcDbMlineStyle
  2
STANDARD
 70
     0
  3

 62
     0
 51
90.0
 52
90.0
 71
     2
 49
0.5
 62
   256
  6
BYLAYER
 49
-0.5
 62
   256
  6
BYLAYER
  0
ENDSEC
  0
EOF
