  0
SECTION
  2
HEADER
  9
$ACADVER
  1
AC1014
  9
$ACADMAINTVER
 70
     0
  9
$DWGCODEPAGE
  3
DOS932
  9
$INSBASE
 10
0.0
 20
0.0
 30
0.0
  9
$EXTMIN
 10
0.0
 20
0.0
 30
0.0
  9
$EXTMAX
 10
841.0
 20
594.0
 30
0.0
  9
$LIMMIN
 10
0.0
 20
0.0
  9
$LIMMAX
 10
841.0
 20
594.0
  9
$ORTHOMODE
 70
     0
  9
$REGENMODE
 70
     1
  9
$FILLMODE
 70
     1
  9
$QTEXTMODE
 70
     0
  9
$MIRRTEXT
 70
     1
  9
$DRAGMODE
 70
     2
  9
$LTSCALE
 40
0.25
  9
$OSMODE
 70
     0
  9
$ATTMODE
 70
     1
  9
$TEXTSIZE
 40
4.0
  9
$TRACEWID
 40
0.05
  9
$TEXTSTYLE
  7
STANDARD
  9
$CLAYER
  8
0
  9
$CELTYPE
  6
CONTINUOUS
  9
$CECOLOR
 62
   256
  9
$CELTSCALE
 40
1.0
  9
$DELOBJ
 70
     1
  9
$DISPSILH
 70
     0
  9
$DIMSCALE
 40
1.0
  9
$DIMASZ
 40
4.0
  9
$DIMEXO
 40
0.5
  9
$DIMDLI
 40
10.0
  9
$DIMRND
 40
0.0
  9
$DIMDLE
 40
0.0
  9
$DIMEXE
 40
2.0
  9
$DIMTP
 40
0.0
  9
$DIMTM
 40
0.0
  9
$DIMTXT
 40
4.0
  9
$DIMCEN
 40
0.09
  9
$DIMTSZ
 40
0.0
  9
$DIMTOL
 70
     0
  9
$DIMLIM
 70
     0
  9
$DIMTIH
 70
     0
  9
$DIMTOH
 70
     0
  9
$DIMSE1
 70
     0
  9
$DIMSE2
 70
     0
  9
$DIMTAD
 70
     3
  9
$DIMZIN
 70
     0
  9
$DIMBLK
  1

  9
$DIMASO
 70
     1
  9
$DIMSHO
 70
     1
  9
$DIMPOST
  1

  9
$DIMAPOST
  1

  9
$DIMALT
 70
     0
  9
$DIMALTD
 70
     2
  9
$DIMALTF
 40
25.4
  9
$DIMLFAC
 40
1.0
  9
$DIMTOFL
 70
     1
  9
$DIMTVP
 40
0.7
  9
$DIMTIX
 70
     0
  9
$DIMSOXD
 70
     0
  9
$DIMSAH
 70
     0
  9
$DIMBLK1
  1

  9
$DIMBLK2
  1

  9
$DIMSTYLE
  2
STANDARD
  9
$DIMCLRD
 70
     0
  9
$DIMCLRE
 70
     0
  9
$DIMCLRT
 70
     0
  9
$DIMTFAC
 40
0.5
  9
$DIMGAP
 40
0.0
  9
$DIMJUST
 70
     0
  9
$DIMSD1
 70
     0
  9
$DIMSD2
 70
     0
  9
$DIMTOLJ
 70
     1
  9
$DIMTZIN
 70
     0
  9
$DIMALTZ
 70
     0
  9
$DIMALTTZ
 70
     0
  9
$DIMFIT
 70
     3
  9
$DIMUPT
 70
     0
  9
$DIMUNIT
 70
     2
  9
$DIMDEC
 70
     2
  9
$DIMTDEC
 70
     4
  9
$DIMALTU
 70
     2
  9
$DIMALTTD
 70
     2
  9
$DIMTXSTY
  7
STANDARD
  9
$DIMAUNIT
 70
     0
  9
$LUNITS
 70
     2
  9
$LUPREC
 70
     4
  9
$SKETCHINC
 40
0.1
  9
$FILLETRAD
 40
0.0
  9
$AUNITS
 70
     0
  9
$AUPREC
 70
     0
  9
$MENU
  1
acad
  9
$ELEVATION
 40
0.0
  9
$PELEVATION
 40
0.0
  9
$THICKNESS
 40
0.0
  9
$LIMCHECK
 70
     0
  9
$BLIPMODE
 70
     1
  9
$CHAMFERA
 40
0.0
  9
$CHAMFERB
 40
0.0
  9
$CHAMFERC
 40
0.0
  9
$CHAMFERD
 40
0.0
  9
$SKPOLY
 70
     0
  9
$TDCREATE
 40
2453433.598506944
  9
$TDUPDATE
 40
2453433.598506944
  9
$TDINDWG
 40
0.0000000000
  9
$TDUSRTIMER
 40
0.0000000000
  9
$USRTIMER
 70
     1
  9
$ANGBASE
 50
0.0
  9
$ANGDIR
 70
     0
  9
$PDMODE
 70
     0
  9
$PDSIZE
 40
0.0
  9
$PLINEWID
 40
0.0
  9
$COORDS
 70
     0
  9
$SPLFRAME
 70
     0
  9
$SPLINETYPE
 70
     6
  9
$SPLINESEGS
 70
     8
  9
$ATTDIA
 70
     0
  9
$ATTREQ
 70
     1
  9
$HANDLING
 70
     1
  9
$HANDSEED
  5
22F
  9
$SURFTAB1
 70
     6
  9
$SURFTAB2
 70
     6
  9
$SURFTYPE
 70
     6
  9
$SURFU
 70
     6
  9
$SURFV
 70
     6
  9
$UCSNAME
  2

  9
$UCSORG
 10
0.0
 20
0.0
 30
0.0
  9
$UCSXDIR
 10
1.0
 20
0.0
 30
0.0
  9
$UCSYDIR
 10
0.0
 20
1.0
 30
0.0
  9
$PUCSNAME
  2

  9
$PUCSORG
 10
0.0
 20
0.0
 30
0.0
  9
$PUCSXDIR
 10
1.0
 20
0.0
 30
0.0
  9
$PUCSYDIR
 10
0.0
 20
1.0
 30
0.0
  9
$USERI1
 70
     0
  9
$USERI2
 70
     0
  9
$USERI3
 70
     0
  9
$USERI4
 70
     0
  9
$USERI5
 70
     0
  9
$USERR1
 40
0.0
  9
$USERR2
 40
0.0
  9
$USERR3
 40
0.0
  9
$USERR4
 40
0.0
  9
$USERR5
 40
0.0
  9
$WORLDVIEW
 70
     1
  9
$SHADEDGE
 70
     3
  9
$SHADEDIF
 70
    70
  9
$TILEMODE
 70
     1
  9
$MAXACTVP
 70
    16
  9
$PINSBASE
 10
0.0
 20
0.0
 30
0.0
  9
$PLIMCHECK
 70
     0
  9
$PEXTMIN
 10
0.0
 20
0.0
 30
0.0
  9
$PEXTMAX
 10
841.0
 20
594.0
 30
0.0
  9
$PLIMMIN
 10
0.0
 20
0.0
  9
$PLIMMAX
 10
841.0
 20
594.0
  9
$UNITMODE
 70
     0
  9
$VISRETAIN
 70
     0
  9
$PLINEGEN
 70
     1
  9
$PSLTSCALE
 70
     0
  9
$TREEDEPTH
 70
  3020
  9
$PICKSTYLE
 70
     1
  9
$CMLSTYLE
  2
STANDARD
  9
$CMLJUST
 70
     0
  9
$CMLSCALE
 40
1.0
  9
$PROXYGRAPHICS
 70
     0
  9
$MEASUREMENT
 70
     0
  0
ENDSEC
  0
SECTION
  2
CLASSES
  0
CLASS
  1
LWPOLYLINE
  2
AcDbPolyline
  3
"AutoCAD"
 90
        0
280
     0
281
     1
  0
CLASS
  1
IMAGE
  2
AcDbRasterImage
  3
ISM
 90
      127
280
     0
281
     1
  0
CLASS
  1
OLE2FRAME
  2
AcDbOle2Frame
  3
""
 90
        0
280
     0
281
     1
  0
CLASS
  1
HATCH
  2
AcDbHatch
  3
"ACAD_SEDONA"
 90
        0
280
     0
281
     1
  0
CLASS
  1
DICTIONARYVAR
  2
AcDbDictionaryVar
  3
"AutoCAD"
 90
        0
280
     0
281
     0
  0
CLASS
  1
RASTERVARIABLES
  2
AcDbRasterVariables
  3
ISM
 90
        0
280
     0
281
     0
  0
CLASS
  1
IMAGEDEF
  2
AcDbRasterImageDef
  3
ISM
 90
        0
280
     0
281
     0
  0
CLASS
  1
IMAGEDEF_REACTOR
  2
AcDbRasterImageDefReactor
  3
ISM
 90
        1
280
     0
281
     0
  0
CLASS
  1
IDBUFFER
  2
AcDbIdBuffer
  3
"Acad"
 90
        0
280
     0
281
     0
  0
CLASS
  1
SPATIAL_FILTER
  2
AcDbSpatialFilter
  3
"Acad"
 90
        0
280
     0
281
     0
  0
CLASS
  1
XRECORD
  2
AcDbXrecord
  3
"<Built In>"
 90
        0
280
     0
281
     0
  0
CLASS
  1
SORTENTSTABLE
  2
AcDbSortentsTable
  3
"AutoCAD"
 90
        0
280
     0
281
     0
  0
CLASS
  1
LAYER_INDEX
  2
AcDbLayerIndex
  3
"Acad"
 90
        0
280
     0
281
     0
  0
CLASS
  1
SPATIAL_INDEX
  2
AcDbSpatialIndex
  3
"Acad"
 90
        0
280
     0
281
     0
  0
CLASS
  1
OBJECT_PTR
  2
CAseDLPNTableRecord
  3
"ASE-LPNTableRecord"
 90
        1
280
     0
281
     0
  0
CLASS
  1
LAYOUT
  2
AcDbLayout
  3
"AutoCAD 2000"
 90
        1
280
     0
281
     0
  0
CLASS
  1
PLOTSETTINGS
  2
AcDbPlotSettings
  3
"AutoCAD 2000"
 90
        1
280
     0
281
     0
  0
CLASS
  1
ACDBDICTIONARYWDFLT
  2
AcDbDictionaryWithDefault
  3
"AutoCAD 2000"
 90
        1
280
     0
281
     0
  0
CLASS
  1
ACDBPLACEHOLDER
  2
AcDbPlaceHolder
  3
"AutoCAD 2000"
 90
        1
280
     0
281
     0
  0
CLASS
  1
VBA_PROJECT
  2
AcDbVbaProject
  3
"acadvba"
 90
        1
280
     0
281
     0
  0
CLASS
  1
WIPEOUT
  2
AcDbWipeout
  3
WipeOut|AutoCAD Express Tool|expresstools@autodesk.com
 90
      127
280
     0
281
     1
  0
CLASS
  1
WIPEOUTVARIABLES
  2
AcDbWipeoutVariables
  3
WipeOut|AutoCAD Express Tool|expresstools@autodesk.com
 90
        0
280
     0
281
     0
  0
CLASS
  1
RTEXT
  2
RText
  3
RText|AutoCAD Express Tool|expresstools@autodesk.com
 90
        0
280
     0
281
     1
  0
CLASS
  1
ARCALIGNEDTEXT
  2
AcDbArcAlignedText
  3
ATEXT|AutoCAD Express Tool|expresstools@autodesk.com
 90
        0
280
     0
281
     1
  0
ENDSEC
  0
SECTION
  2
TABLES
  0
TABLE
  2
VPORT
  5
7
100
AcDbSymbolTable
 70
     1
  0
VPORT
  5
15
100
AcDbSymbolTableRecord
100
AcDbViewportTableRecord
  2
*ACTIVE
 70
     0
 10
0.0
 20
0.0
 11
1.0
 21
1.0
 12
6.591288
 22
4.579184
 13
0.0
 23
0.0
 14
1.0
 24
1.0
 15
0.0
 25
0.0
 16
0.0
 26
0.0
 36
1.0
 17
0.0
 27
0.0
 37
0.0
 40
9.158369
 41
0.688564
 42
50.0
 43
0.0
 44
0.0
 50
0.0
 51
0.0
 71
     0
 72
   100
 73
     1
 74
     1
 75
     0
 76
     0
 77
     0
 78
     0
  0
ENDTAB
  0
TABLE
  2
LTYPE
  5
4
100
AcDbSymbolTable
 70
     9
  0
LTYPE
  5
11
100
AcDbSymbolTableRecord
100
AcDbLinetypeTableRecord
  2
BYBLOCK
 70
    64
  3

 72
    65
 73
     0
 40
0.0
  0
LTYPE
  5
12
100
AcDbSymbolTableRecord
100
AcDbLinetypeTableRecord
  2
BYLAYER
 70
    64
  3

 72
    65
 73
     0
 40
0.0
  0
LTYPE
  5
13
100
AcDbSymbolTableRecord
100
AcDbLinetypeTableRecord
  2
CONTINUOUS
 70
    64
  3
Solid line
 72
    65
 73
     0
 40
0.0
  0
LTYPE
  5
1E
100
AcDbSymbolTableRecord
100
AcDbLinetypeTableRecord
  2
HIDDEN
 70
    64
  3
- - - - - - - - 
 72
    65
 73
     2
 40
12.6
 49
8.4
 74
     0
 49
-4.2
 74
     0
  0
LTYPE
  5
1F
100
AcDbSymbolTableRecord
100
AcDbLinetypeTableRecord
  2
DOT
 70
    64
  3
･ ･ ･ ･ ･ ･ ･ ･ 
 72
    65
 73
     2
 40
8.0
 49
6.0
 74
     0
 49
-2.0
 74
     0
  0
LTYPE
  5
20
100
AcDbSymbolTableRecord
100
AcDbLinetypeTableRecord
  2
CENTER
 70
    64
  3
- ･ - ･ - ･ - ･ 
 72
    65
 73
     4
 40
50.5
 49
30.0
 74
     0
 49
-9.0
 74
     0
 49
2.5
 74
     0
 49
-9.0
 74
     0
  0
LTYPE
  5
21
100
AcDbSymbolTableRecord
100
AcDbLinetypeTableRecord
  2
PHANTOM
 70
    64
  3
- ･･ - ･･ - ･･ - ･･ 
 72
    65
 73
     6
 40
58.0
 49
30.0
 74
     0
 49
-9.0
 74
     0
 49
2.5
 74
     0
 49
-5.0
 74
     0
 49
2.5
 74
     0
 49
-9.0
 74
     0
  0
LTYPE
  5
22
100
AcDbSymbolTableRecord
100
AcDbLinetypeTableRecord
  2
ACAD_ISO06W100
 70
    64
  3
____ ... ____ ... ____
 72
    65
 73
     8
 40
37.5
 49
24.0
 74
     0
 49
-3.0
 74
     0
 49
0.5
 74
     0
 49
-3.0
 74
     0
 49
0.5
 74
     0
 49
-3.0
 74
     0
 49
0.5
 74
     0
 49
-3.0
 74
     0
  0
LTYPE
  5
23
100
AcDbSymbolTableRecord
100
AcDbLinetypeTableRecord
  2
ACAD_ISO14W100
 70
    64
  3
__ . . . __ . . . __ . . . 
 72
    65
 73
     8
 40
25.5
 49
12.0
 74
     0
 49
-3.0
 74
     0
 49
0.5
 74
     0
 49
-3.0
 74
     0
 49
0.5
 74
     0
 49
-3.0
 74
     0
 49
0.5
 74
     0
 49
-3.0
 74
     0
  0
ENDTAB
  0
TABLE
  2
LAYER
  5
2
100
AcDbSymbolTable
 70
    22
  0
LAYER
  5
14
100
AcDbSymbolTableRecord
100
AcDbLayerTableRecord
  2
0
 70
     0
 62
     7
  6
CONTINUOUS
  0
LAYER
  5
24
100
AcDbSymbolTableRecord
100
AcDbLayerTableRecord
  2
1
 70
     0
 62
     7
  6
CONTINUOUS
  0
LAYER
  5
25
100
AcDbSymbolTableRecord
100
AcDbLayerTableRecord
  2
2
 70
     0
 62
   134
  6
CONTINUOUS
  0
LAYER
  5
26
100
AcDbSymbolTableRecord
100
AcDbLayerTableRecord
  2
3
 70
     0
 62
   214
  6
CONTINUOUS
  0
LAYER
  5
27
100
AcDbSymbolTableRecord
100
AcDbLayerTableRecord
  2
4
 70
     0
 62
    54
  6
CONTINUOUS
  0
LAYER
  5
28
100
AcDbSymbolTableRecord
100
AcDbLayerTableRecord
  2
5
 70
     0
 62
    94
  6
CONTINUOUS
  0
LAYER
  5
29
100
AcDbSymbolTableRecord
100
AcDbLayerTableRecord
  2
6
 70
     0
 62
    14
  6
CONTINUOUS
  0
LAYER
  5
2A
100
AcDbSymbolTableRecord
100
AcDbLayerTableRecord
  2
7
 70
     0
 62
     4
  6
CONTINUOUS
  0
LAYER
  5
2B
100
AcDbSymbolTableRecord
100
AcDbLayerTableRecord
  2
8
 70
     0
 62
     6
  6
CONTINUOUS
  0
LAYER
  5
2C
100
AcDbSymbolTableRecord
100
AcDbLayerTableRecord
  2
9
 70
     0
 62
     2
  6
CONTINUOUS
  0
LAYER
  5
2D
100
AcDbSymbolTableRecord
100
AcDbLayerTableRecord
  2
10
 70
     0
 62
     3
  6
CONTINUOUS
  0
LAYER
  5
2E
100
AcDbSymbolTableRecord
100
AcDbLayerTableRecord
  2
11
 70
     0
 62
   251
  6
CONTINUOUS
  0
LAYER
  5
2F
100
AcDbSymbolTableRecord
100
AcDbLayerTableRecord
  2
12
 70
     0
 62
   136
  6
CONTINUOUS
  0
LAYER
  5
30
100
AcDbSymbolTableRecord
100
AcDbLayerTableRecord
  2
13
 70
     0
 62
   216
  6
CONTINUOUS
  0
LAYER
  5
31
100
AcDbSymbolTableRecord
100
AcDbLayerTableRecord
  2
14
 70
     0
 62
    56
  6
CONTINUOUS
  0
LAYER
  5
32
100
AcDbSymbolTableRecord
100
AcDbLayerTableRecord
  2
15
 70
     0
 62
    96
  6
CONTINUOUS
  0
LAYER
  5
33
100
AcDbSymbolTableRecord
100
AcDbLayerTableRecord
  2
16
 70
     0
 62
    16
  6
CONTINUOUS
  0
LAYER
  5
34
100
AcDbSymbolTableRecord
100
AcDbLayerTableRecord
  2
17
 70
     0
 62
   132
  6
CONTINUOUS
  0
LAYER
  5
35
100
AcDbSymbolTableRecord
100
AcDbLayerTableRecord
  2
18
 70
     0
 62
   212
  6
CONTINUOUS
  0
LAYER
  5
36
100
AcDbSymbolTableRecord
100
AcDbLayerTableRecord
  2
19
 70
     0
 62
    52
  6
CONTINUOUS
  0
LAYER
  5
37
100
AcDbSymbolTableRecord
100
AcDbLayerTableRecord
  2
20
 70
     0
 62
   250
  6
CONTINUOUS
  0
LAYER
  5
38
100
AcDbSymbolTableRecord
100
AcDbLayerTableRecord
  2
21
 70
     0
 62
     7
  6
CONTINUOUS
  0
ENDTAB
  0
TABLE
  2
STYLE
  5
3
100
AcDbSymbolTable
 70
     2
  0
STYLE
  5
17
100
AcDbSymbolTableRecord
100
AcDbTextStyleTableRecord
  2
STANDARD
 70
     0
 40
0.0
 41
1.0
 50
0.0
 71
     0
 42
0.0
  3
txt
  4
bigfont
  0
STYLE
  5
1D
100
AcDbSymbolTableRecord
100
AcDbTextStyleTableRecord
  2
T_STANDARD
 70
    68
 40
10.0
 41
1.0
 50
0.0
 71
     0
 42
10.0
  3
txt
  4
bigfont
  0
ENDTAB
  0
TABLE
  2
VIEW
  5
5
100
AcDbSymbolTable
 70
     0
  0
ENDTAB
  0
TABLE
  2
UCS
  5
6
100
AcDbSymbolTable
 70
     0
  0
ENDTAB
  0
TABLE
  2
APPID
  5
8
100
AcDbSymbolTable
 70
     1
  0
APPID
  5
16
100
AcDbSymbolTableRecord
100
AcDbRegAppTableRecord
  2
ACAD
 70
     0
  0
ENDTAB
  0
TABLE
  2
DIMSTYLE
  5
9
100
AcDbSymbolTable
 70
     1
  0
DIMSTYLE
105
18
100
AcDbSymbolTableRecord
100
AcDbDimStyleTableRecord
  2
STANDARD
 70
     0
  3

  4

  5

  6

  7

 40
1.0
 41
0.18
 42
0.0625
 43
0.38
 44
0.18
 45
0.0
 46
0.0
 47
0.0
 48
0.0
 71
     0
 72
     0
 73
     1
 74
     1
 75
     0
 76
     0
 77
     0
 78
     0
140
0.18
141
0.09
142
0.0
143
25.4
144
1.0
145
0.0
146
1.0
147
0.09
170
     0
171
     2
172
     0
173
     0
174
     0
175
     0
176
     0
177
     0
178
     0
270
     2
271
     4
272
     4
273
     2
274
     2
275
     0
280
     0
281
     0
282
     0
283
     1
284
     0
285
     0
286
     0
287
     0
288
     0
340
17
  0
ENDTAB
  0
TABLE
  2
BLOCK_RECORD
  5
1
100
AcDbSymbolTable
 70
    14
  0
BLOCK_RECORD
  5
A
100
AcDbSymbolTableRecord
100
AcDbBlockTableRecord
  2
*MODEL_SPACE
  0
BLOCK_RECORD
  5
B
100
AcDbSymbolTableRecord
100
AcDbBlockTableRecord
  2
*PAPER_SPACE
  0
BLOCK_RECORD
  5
39
100
AcDbSymbolTableRecord
100
AcDbBlockTableRecord
  2
*G0
  0
BLOCK_RECORD
  5
103
100
AcDbSymbolTableRecord
100
AcDbBlockTableRecord
  2
*G1
  0
BLOCK_RECORD
  5
105
100
AcDbSymbolTableRecord
100
AcDbBlockTableRecord
  2
*G2
  0
BLOCK_RECORD
  5
116
100
AcDbSymbolTableRecord
100
AcDbBlockTableRecord
  2
*G3
  0
BLOCK_RECORD
  5
118
100
AcDbSymbolTableRecord
100
AcDbBlockTableRecord
  2
*G4
  0
BLOCK_RECORD
  5
129
100
AcDbSymbolTableRecord
100
AcDbBlockTableRecord
  2
*G5
  0
BLOCK_RECORD
  5
12B
100
AcDbSymbolTableRecord
100
AcDbBlockTableRecord
  2
*G6
  0
BLOCK_RECORD
  5
13B
100
AcDbSymbolTableRecord
100
AcDbBlockTableRecord
  2
*G7
  0
BLOCK_RECORD
  5
13D
100
AcDbSymbolTableRecord
100
AcDbBlockTableRecord
  2
*G8
  0
BLOCK_RECORD
  5
14E
100
AcDbSymbolTableRecord
100
AcDbBlockTableRecord
  2
*G9
  0
BLOCK_RECORD
  5
150
100
AcDbSymbolTableRecord
100
AcDbBlockTableRecord
  2
*G10
  0
BLOCK_RECORD
  5
1FB
100
AcDbSymbolTableRecord
100
AcDbBlockTableRecord
  2
*D11
  0
BLOCK_RECORD
  5
207
100
AcDbSymbolTableRecord
100
AcDbBlockTableRecord
  2
*D12
  0
BLOCK_RECORD
  5
213
100
AcDbSymbolTableRecord
100
AcDbBlockTableRecord
  2
*D13
  0
ENDTAB
  0
ENDSEC
  0
SECTION
  2
BLOCKS
  0
BLOCK
  5
D
100
AcDbEntity
  8
0
100
AcDbBlockBegin
  2
*MODEL_SPACE
 70
     0
 10
0.0
 20
0.0
 30
0.0
  3
*MODEL_SPACE
  1

  0
ENDBLK
  5
E
100
AcDbEntity
  8
0
100
AcDbBlockEnd
  0
BLOCK
  5
F
100
AcDbEntity
 67
     1
  8
0
100
AcDbBlockBegin
  2
*PAPER_SPACE
 70
     0
 10
0.0
 20
0.0
 30
0.0
  3
*PAPER_SPACE
  1

  0
ENDBLK
  5
10
100
AcDbEntity
 67
     1
  8
0
100
AcDbBlockEnd
  0
BLOCK
  5
3A
100
AcDbEntity
  8
0
  6
CONTINUOUS
 62
     7
100
AcDbBlockBegin
  2
*G0
 70
     0
 10
0.0
 20
0.0
 30
0.0
  3
*G0
  1

  0
ENDBLK
  5
3B
100
AcDbEntity
  8
0
100
AcDbBlockEnd
  0
BLOCK
  5
104
100
AcDbEntity
  8
0
  6
CONTINUOUS
 62
   214
100
AcDbBlockBegin
  2
*G1
 70
     0
 10
0.0
 20
0.0
 30
0.0
  3
*G1
  1

  0
INSERT
  5
10E
100
AcDbEntity
  8
0
  6
CONTINUOUS
 62
   214
100
AcDbBlockReference
  2
*G2
 10
0.0
 20
0.0
 30
0.0
  0
CIRCLE
  5
10F
100
AcDbEntity
  8
3
  6
CONTINUOUS
 62
   214
100
AcDbCircle
 10
157.025795
 20
380.73166
 30
0.0
 40
2.0
  0
CIRCLE
  5
110
100
AcDbEntity
  8
3
  6
CONTINUOUS
 62
   214
100
AcDbCircle
 10
157.025795
 20
380.73166
 30
0.0
 40
1.65
  0
CIRCLE
  5
111
100
AcDbEntity
  8
3
  6
CONTINUOUS
 62
   214
100
AcDbCircle
 10
157.025795
 20
380.73166
 30
0.0
 40
3.464707
  0
ENDBLK
  5
112
100
AcDbEntity
  8
0
100
AcDbBlockEnd
  0
BLOCK
  5
106
100
AcDbEntity
  8
0
  6
CONTINUOUS
 62
   214
100
AcDbBlockBegin
  2
*G2
 70
     0
 10
0.0
 20
0.0
 30
0.0
  3
*G2
  1

  0
LINE
  5
107
100
AcDbEntity
  8
3
  6
CONTINUOUS
 62
   214
100
AcDbLine
 10
157.025795
 20
384.73166
 30
0.0
 11
153.561693
 21
382.73166
 31
0.0
  0
LINE
  5
108
100
AcDbEntity
  8
3
  6
CONTINUOUS
 62
   214
100
AcDbLine
 10
153.561693
 20
382.73166
 30
0.0
 11
153.561693
 21
378.73166
 31
0.0
  0
LINE
  5
109
100
AcDbEntity
  8
3
  6
CONTINUOUS
 62
   214
100
AcDbLine
 10
153.561693
 20
378.73166
 30
0.0
 11
157.025795
 21
376.73166
 31
0.0
  0
LINE
  5
10A
100
AcDbEntity
  8
3
  6
CONTINUOUS
 62
   214
100
AcDbLine
 10
157.025795
 20
376.73166
 30
0.0
 11
160.489896
 21
378.73166
 31
0.0
  0
LINE
  5
10B
100
AcDbEntity
  8
3
  6
CONTINUOUS
 62
   214
100
AcDbLine
 10
160.489896
 20
378.73166
 30
0.0
 11
160.489896
 21
382.73166
 31
0.0
  0
LINE
  5
10C
100
AcDbEntity
  8
3
  6
CONTINUOUS
 62
   214
100
AcDbLine
 10
160.489896
 20
382.73166
 30
0.0
 11
157.025795
 21
384.73166
 31
0.0
  0
ENDBLK
  5
10D
100
AcDbEntity
  8
0
100
AcDbBlockEnd
  0
BLOCK
  5
117
100
AcDbEntity
  8
0
  6
CONTINUOUS
 62
   214
100
AcDbBlockBegin
  2
*G3
 70
     0
 10
0.0
 20
0.0
 30
0.0
  3
*G3
  1

  0
INSERT
  5
121
100
AcDbEntity
  8
0
  6
CONTINUOUS
 62
   214
100
AcDbBlockReference
  2
*G4
 10
0.0
 20
0.0
 30
0.0
  0
CIRCLE
  5
122
100
AcDbEntity
  8
3
  6
CONTINUOUS
 62
   214
100
AcDbCircle
 10
227.025795
 20
380.73166
 30
0.0
 40
2.0
  0
CIRCLE
  5
123
100
AcDbEntity
  8
3
  6
CONTINUOUS
 62
   214
100
AcDbCircle
 10
227.025795
 20
380.73166
 30
0.0
 40
1.65
  0
CIRCLE
  5
124
100
AcDbEntity
  8
3
  6
CONTINUOUS
 62
   214
100
AcDbCircle
 10
227.025795
 20
380.73166
 30
0.0
 40
3.464707
  0
ENDBLK
  5
125
100
AcDbEntity
  8
0
100
AcDbBlockEnd
  0
BLOCK
  5
119
100
AcDbEntity
  8
0
  6
CONTINUOUS
 62
   214
100
AcDbBlockBegin
  2
*G4
 70
     0
 10
0.0
 20
0.0
 30
0.0
  3
*G4
  1

  0
LINE
  5
11A
100
AcDbEntity
  8
3
  6
CONTINUOUS
 62
   214
100
AcDbLine
 10
227.025795
 20
384.73166
 30
0.0
 11
223.561693
 21
382.73166
 31
0.0
  0
LINE
  5
11B
100
AcDbEntity
  8
3
  6
CONTINUOUS
 62
   214
100
AcDbLine
 10
223.561693
 20
382.73166
 30
0.0
 11
223.561693
 21
378.73166
 31
0.0
  0
LINE
  5
11C
100
AcDbEntity
  8
3
  6
CONTINUOUS
 62
   214
100
AcDbLine
 10
223.561693
 20
378.73166
 30
0.0
 11
227.025795
 21
376.73166
 31
0.0
  0
LINE
  5
11D
100
AcDbEntity
  8
3
  6
CONTINUOUS
 62
   214
100
AcDbLine
 10
227.025795
 20
376.73166
 30
0.0
 11
230.489896
 21
378.73166
 31
0.0
  0
LINE
  5
11E
100
AcDbEntity
  8
3
  6
CONTINUOUS
 62
   214
100
AcDbLine
 10
230.489896
 20
378.73166
 30
0.0
 11
230.489896
 21
382.73166
 31
0.0
  0
LINE
  5
11F
100
AcDbEntity
  8
3
  6
CONTINUOUS
 62
   214
100
AcDbLine
 10
230.489896
 20
382.73166
 30
0.0
 11
227.025795
 21
384.73166
 31
0.0
  0
ENDBLK
  5
120
100
AcDbEntity
  8
0
100
AcDbBlockEnd
  0
BLOCK
  5
12A
100
AcDbEntity
  8
0
  6
CONTINUOUS
 62
   214
100
AcDbBlockBegin
  2
*G5
 70
     0
 10
0.0
 20
0.0
 30
0.0
  3
*G5
  1

  0
INSERT
  5
134
100
AcDbEntity
  8
0
  6
CONTINUOUS
 62
   214
100
AcDbBlockReference
  2
*G6
 10
0.0
 20
0.0
 30
0.0
  0
CIRCLE
  5
135
100
AcDbEntity
  8
3
  6
CONTINUOUS
 62
   214
100
AcDbCircle
 10
287.025795
 20
380.73166
 30
0.0
 40
2.0
  0
CIRCLE
  5
136
100
AcDbEntity
  8
3
  6
CONTINUOUS
 62
   214
100
AcDbCircle
 10
287.025795
 20
380.73166
 30
0.0
 40
1.65
  0
CIRCLE
  5
137
100
AcDbEntity
  8
3
  6
CONTINUOUS
 62
   214
100
AcDbCircle
 10
287.025795
 20
380.73166
 30
0.0
 40
3.464707
  0
ENDBLK
  5
138
100
AcDbEntity
  8
0
100
AcDbBlockEnd
  0
BLOCK
  5
12C
100
AcDbEntity
  8
0
  6
CONTINUOUS
 62
   214
100
AcDbBlockBegin
  2
*G6
 70
     0
 10
0.0
 20
0.0
 30
0.0
  3
*G6
  1

  0
LINE
  5
12D
100
AcDbEntity
  8
3
  6
CONTINUOUS
 62
   214
100
AcDbLine
 10
287.025795
 20
384.73166
 30
0.0
 11
283.561693
 21
382.73166
 31
0.0
  0
LINE
  5
12E
100
AcDbEntity
  8
3
  6
CONTINUOUS
 62
   214
100
AcDbLine
 10
283.561693
 20
382.73166
 30
0.0
 11
283.561693
 21
378.73166
 31
0.0
  0
LINE
  5
12F
100
AcDbEntity
  8
3
  6
CONTINUOUS
 62
   214
100
AcDbLine
 10
283.561693
 20
378.73166
 30
0.0
 11
287.025795
 21
376.73166
 31
0.0
  0
LINE
  5
130
100
AcDbEntity
  8
3
  6
CONTINUOUS
 62
   214
100
AcDbLine
 10
287.025795
 20
376.73166
 30
0.0
 11
290.489896
 21
378.73166
 31
0.0
  0
LINE
  5
131
100
AcDbEntity
  8
3
  6
CONTINUOUS
 62
   214
100
AcDbLine
 10
290.489896
 20
378.73166
 30
0.0
 11
290.489896
 21
382.73166
 31
0.0
  0
LINE
  5
132
100
AcDbEntity
  8
3
  6
CONTINUOUS
 62
   214
100
AcDbLine
 10
290.489896
 20
382.73166
 30
0.0
 11
287.025795
 21
384.73166
 31
0.0
  0
ENDBLK
  5
133
100
AcDbEntity
  8
0
100
AcDbBlockEnd
  0
BLOCK
  5
13C
100
AcDbEntity
  8
0
  6
CONTINUOUS
 62
   214
100
AcDbBlockBegin
  2
*G7
 70
     0
 10
0.0
 20
0.0
 30
0.0
  3
*G7
  1

  0
INSERT
  5
146
100
AcDbEntity
  8
0
  6
CONTINUOUS
 62
   214
100
AcDbBlockReference
  2
*G8
 10
0.0
 20
0.0
 30
0.0
  0
CIRCLE
  5
147
100
AcDbEntity
  8
3
  6
CONTINUOUS
 62
   214
100
AcDbCircle
 10
347.025795
 20
380.73166
 30
0.0
 40
2.0
  0
CIRCLE
  5
148
100
AcDbEntity
  8
3
  6
CONTINUOUS
 62
   214
100
AcDbCircle
 10
347.025795
 20
380.73166
 30
0.0
 40
1.65
  0
CIRCLE
  5
149
100
AcDbEntity
  8
3
  6
CONTINUOUS
 62
   214
100
AcDbCircle
 10
347.025795
 20
380.73166
 30
0.0
 40
3.464707
  0
ENDBLK
  5
14A
100
AcDbEntity
  8
0
100
AcDbBlockEnd
  0
BLOCK
  5
13E
100
AcDbEntity
  8
0
  6
CONTINUOUS
 62
   214
100
AcDbBlockBegin
  2
*G8
 70
     0
 10
0.0
 20
0.0
 30
0.0
  3
*G8
  1

  0
LINE
  5
13F
100
AcDbEntity
  8
3
  6
CONTINUOUS
 62
   214
100
AcDbLine
 10
347.025795
 20
384.73166
 30
0.0
 11
343.561693
 21
382.73166
 31
0.0
  0
LINE
  5
140
100
AcDbEntity
  8
3
  6
CONTINUOUS
 62
   214
100
AcDbLine
 10
343.561693
 20
382.73166
 30
0.0
 11
343.561693
 21
378.73166
 31
0.0
  0
LINE
  5
141
100
AcDbEntity
  8
3
  6
CONTINUOUS
 62
   214
100
AcDbLine
 10
343.561693
 20
378.73166
 30
0.0
 11
347.025795
 21
376.73166
 31
0.0
  0
LINE
  5
142
100
AcDbEntity
  8
3
  6
CONTINUOUS
 62
   214
100
AcDbLine
 10
347.025795
 20
376.73166
 30
0.0
 11
350.489896
 21
378.73166
 31
0.0
  0
LINE
  5
143
100
AcDbEntity
  8
3
  6
CONTINUOUS
 62
   214
100
AcDbLine
 10
350.489896
 20
378.73166
 30
0.0
 11
350.489896
 21
382.73166
 31
0.0
  0
LINE
  5
144
100
AcDbEntity
  8
3
  6
CONTINUOUS
 62
   214
100
AcDbLine
 10
350.489896
 20
382.73166
 30
0.0
 11
347.025795
 21
384.73166
 31
0.0
  0
ENDBLK
  5
145
100
AcDbEntity
  8
0
100
AcDbBlockEnd
  0
BLOCK
  5
14F
100
AcDbEntity
  8
0
  6
CONTINUOUS
 62
   214
100
AcDbBlockBegin
  2
*G9
 70
     0
 10
0.0
 20
0.0
 30
0.0
  3
*G9
  1

  0
INSERT
  5
159
100
AcDbEntity
  8
0
  6
CONTINUOUS
 62
   214
100
AcDbBlockReference
  2
*G10
 10
0.0
 20
0.0
 30
0.0
  0
CIRCLE
  5
15A
100
AcDbEntity
  8
3
  6
CONTINUOUS
 62
   214
100
AcDbCircle
 10
417.025795
 20
380.73166
 30
0.0
 40
2.0
  0
CIRCLE
  5
15B
100
AcDbEntity
  8
3
  6
CONTINUOUS
 62
   214
100
AcDbCircle
 10
417.025795
 20
380.73166
 30
0.0
 40
1.65
  0
CIRCLE
  5
15C
100
AcDbEntity
  8
3
  6
CONTINUOUS
 62
   214
100
AcDbCircle
 10
417.025795
 20
380.73166
 30
0.0
 40
3.464707
  0
ENDBLK
  5
15D
100
AcDbEntity
  8
0
100
AcDbBlockEnd
  0
BLOCK
  5
151
100
AcDbEntity
  8
0
  6
CONTINUOUS
 62
   214
100
AcDbBlockBegin
  2
*G10
 70
     0
 10
0.0
 20
0.0
 30
0.0
  3
*G10
  1

  0
LINE
  5
152
100
AcDbEntity
  8
3
  6
CONTINUOUS
 62
   214
100
AcDbLine
 10
417.025795
 20
384.73166
 30
0.0
 11
413.561693
 21
382.73166
 31
0.0
  0
LINE
  5
153
100
AcDbEntity
  8
3
  6
CONTINUOUS
 62
   214
100
AcDbLine
 10
413.561693
 20
382.73166
 30
0.0
 11
413.561693
 21
378.73166
 31
0.0
  0
LINE
  5
154
100
AcDbEntity
  8
3
  6
CONTINUOUS
 62
   214
100
AcDbLine
 10
413.561693
 20
378.73166
 30
0.0
 11
417.025795
 21
376.73166
 31
0.0
  0
LINE
  5
155
100
AcDbEntity
  8
3
  6
CONTINUOUS
 62
   214
100
AcDbLine
 10
417.025795
 20
376.73166
 30
0.0
 11
420.489896
 21
378.73166
 31
0.0
  0
LINE
  5
156
100
AcDbEntity
  8
3
  6
CONTINUOUS
 62
   214
100
AcDbLine
 10
420.489896
 20
378.73166
 30
0.0
 11
420.489896
 21
382.73166
 31
0.0
  0
LINE
  5
157
100
AcDbEntity
  8
3
  6
CONTINUOUS
 62
   214
100
AcDbLine
 10
420.489896
 20
382.73166
 30
0.0
 11
417.025795
 21
384.73166
 31
0.0
  0
ENDBLK
  5
158
100
AcDbEntity
  8
0
100
AcDbBlockEnd
  0
BLOCK
  5
1FC
100
AcDbEntity
  8
2
  6
CONTINUOUS
 62
   134
100
AcDbBlockBegin
  2
*D11
 70
     0
 10
0.0
 20
0.0
 30
0.0
  3
*D11
  1

  0
LINE
  5
1FD
100
AcDbEntity
  8
2
  6
CONTINUOUS
 62
   134
100
AcDbLine
 10
476.525795
 20
207.012026
 30
0.0
 11
97.525795
 21
207.012026
 31
0.0
  0
LINE
  5
1FE
100
AcDbEntity
  8
2
  6
CONTINUOUS
 62
   134
100
AcDbLine
 10
476.525795
 20
205.012026
 30
0.0
 11
476.525795
 21
218.512026
 31
0.0
  0
LINE
  5
1FF
100
AcDbEntity
  8
2
  6
CONTINUOUS
 62
   134
100
AcDbLine
 10
97.525795
 20
205.012026
 30
0.0
 11
97.525795
 21
218.512026
 31
0.0
  0
LINE
  5
200
100
AcDbEntity
  8
2
  6
CONTINUOUS
 62
   134
100
AcDbLine
 10
476.525795
 20
207.012026
 30
0.0
 11
472.662091
 21
205.97675
 31
0.0
  0
LINE
  5
201
100
AcDbEntity
  8
2
  6
CONTINUOUS
 62
   134
100
AcDbLine
 10
476.525795
 20
207.012026
 30
0.0
 11
472.662091
 21
208.047303
 31
0.0
  0
LINE
  5
202
100
AcDbEntity
  8
2
  6
CONTINUOUS
 62
   134
100
AcDbLine
 10
97.525795
 20
207.012026
 30
0.0
 11
101.389498
 21
208.047303
 31
0.0
  0
LINE
  5
203
100
AcDbEntity
  8
2
  6
CONTINUOUS
 62
   134
100
AcDbLine
 10
97.525795
 20
207.012026
 30
0.0
 11
101.389498
 21
205.97675
 31
0.0
  0
TEXT
  5
204
100
AcDbEntity
  8
2
  6
CONTINUOUS
 62
   134
100
AcDbText
 10
284.025795
 20
207.012026
 30
0.0
 40
4.0
  1
379
 41
0.5
 11
284.025795
 21
207.012026
 31
0.0
100
AcDbText
 73
     1
  0
ENDBLK
  5
205
100
AcDbEntity
  8
2
  6
CONTINUOUS
 62
   134
100
AcDbBlockEnd
  0
BLOCK
  5
208
100
AcDbEntity
  8
2
  6
CONTINUOUS
 62
   134
100
AcDbBlockBegin
  2
*D12
 70
     0
 10
0.0
 20
0.0
 30
0.0
  3
*D12
  1

  0
LINE
  5
209
100
AcDbEntity
  8
2
  6
CONTINUOUS
 62
   134
100
AcDbLine
 10
488.525795
 20
219.012026
 30
0.0
 11
488.525795
 21
293.012026
 31
0.0
  0
LINE
  5
20A
100
AcDbEntity
  8
2
  6
CONTINUOUS
 62
   134
100
AcDbLine
 10
490.525795
 20
219.012026
 30
0.0
 11
477.025795
 21
219.012026
 31
0.0
  0
LINE
  5
20B
100
AcDbEntity
  8
2
  6
CONTINUOUS
 62
   134
100
AcDbLine
 10
490.525795
 20
293.012026
 30
0.0
 11
457.025795
 21
293.012026
 31
0.0
  0
LINE
  5
20C
100
AcDbEntity
  8
2
  6
CONTINUOUS
 62
   134
100
AcDbLine
 10
488.525795
 20
219.012026
 30
0.0
 11
487.490518
 21
222.87573
 31
0.0
  0
LINE
  5
20D
100
AcDbEntity
  8
2
  6
CONTINUOUS
 62
   134
100
AcDbLine
 10
488.525795
 20
219.012026
 30
0.0
 11
489.561071
 21
222.87573
 31
0.0
  0
LINE
  5
20E
100
AcDbEntity
  8
2
  6
CONTINUOUS
 62
   134
100
AcDbLine
 10
488.525795
 20
293.012026
 30
0.0
 11
489.561071
 21
289.148323
 31
0.0
  0
LINE
  5
20F
100
AcDbEntity
  8
2
  6
CONTINUOUS
 62
   134
100
AcDbLine
 10
488.525795
 20
293.012026
 30
0.0
 11
487.490518
 21
289.148323
 31
0.0
  0
TEXT
  5
210
100
AcDbEntity
  8
2
  6
CONTINUOUS
 62
   134
100
AcDbText
 10
488.525795
 20
254.012026
 30
0.0
 40
4.0
  1
74
 50
90.0
 41
0.5
 11
488.525795
 21
254.012026
 31
0.0
100
AcDbText
 73
     1
  0
ENDBLK
  5
211
100
AcDbEntity
  8
2
  6
CONTINUOUS
 62
   134
100
AcDbBlockEnd
  0
BLOCK
  5
214
100
AcDbEntity
  8
2
  6
CONTINUOUS
 62
   134
100
AcDbBlockBegin
  2
*D13
 70
     0
 10
0.0
 20
0.0
 30
0.0
  3
*D13
  1

  0
LINE
  5
215
100
AcDbEntity
  8
2
  6
CONTINUOUS
 62
   134
100
AcDbLine
 10
642.240962
 20
207.012026
 30
0.0
 11
702.240962
 21
207.012026
 31
0.0
  0
LINE
  5
216
100
AcDbEntity
  8
2
  6
CONTINUOUS
 62
   134
100
AcDbLine
 10
642.240962
 20
205.012026
 30
0.0
 11
642.240962
 21
218.512026
 31
0.0
  0
LINE
  5
217
100
AcDbEntity
  8
2
  6
CONTINUOUS
 62
   134
100
AcDbLine
 10
702.240962
 20
205.012026
 30
0.0
 11
702.240962
 21
218.512026
 31
0.0
  0
LINE
  5
218
100
AcDbEntity
  8
2
  6
CONTINUOUS
 62
   134
100
AcDbLine
 10
642.240962
 20
207.012026
 30
0.0
 11
646.104665
 21
208.047303
 31
0.0
  0
LINE
  5
219
100
AcDbEntity
  8
2
  6
CONTINUOUS
 62
   134
100
AcDbLine
 10
642.240962
 20
207.012026
 30
0.0
 11
646.104665
 21
205.97675
 31
0.0
  0
LINE
  5
21A
100
AcDbEntity
  8
2
  6
CONTINUOUS
 62
   134
100
AcDbLine
 10
702.240962
 20
207.012026
 30
0.0
 11
698.377259
 21
205.97675
 31
0.0
  0
LINE
  5
21B
100
AcDbEntity
  8
2
  6
CONTINUOUS
 62
   134
100
AcDbLine
 10
702.240962
 20
207.012026
 30
0.0
 11
698.377259
 21
208.047303
 31
0.0
  0
TEXT
  5
21C
100
AcDbEntity
  8
2
  6
CONTINUOUS
 62
   134
100
AcDbText
 10
670.240962
 20
207.012026
 30
0.0
 40
4.0
  1
60
 41
0.5
 11
670.240962
 21
207.012026
 31
0.0
100
AcDbText
 73
     1
  0
ENDBLK
  5
21D
100
AcDbEntity
  8
2
  6
CONTINUOUS
 62
   134
100
AcDbBlockEnd
  0
ENDSEC
  0
SECTION
  2
ENTITIES
  0
INSERT
  5
3C
100
AcDbEntity
  8
0
  6
CONTINUOUS
 62
     7
100
AcDbBlockReference
  2
*G0
 10
0.0
 20
0.0
 30
0.0
  0
LINE
  5
3D
100
AcDbEntity
  8
3
  6
CONTINUOUS
 62
   214
100
AcDbLine
 10
157.425795
 20
488.75445
 30
0.0
 11
156.625795
 21
488.75445
 31
0.0
  0
LINE
  5
3E
100
AcDbEntity
  8
3
  6
CONTINUOUS
 62
   214
100
AcDbLine
 10
153.525795
 20
486.685003
 30
0.0
 11
153.525795
 21
486.45445
 31
0.0
  0
ARC
  5
3F
100
AcDbEntity
  8
3
  6
CONTINUOUS
 62
   214
100
AcDbCircle
 10
157.025795
 20
485.087783
 30
0.0
 40
3.966667
100
AcDbArc
 50
95.787563
 51
147.425982
  0
ARC
  5
40
100
AcDbEntity
  8
3
  6
CONTINUOUS
 62
   214
100
AcDbCircle
 10
154.525795
 20
486.685003
 30
0.0
 40
1.0
100
AcDbArc
 50
147.425982
 51
180.0
  0
ARC
  5
41
100
AcDbEntity
  8
3
  6
CONTINUOUS
 62
   214
100
AcDbCircle
 10
157.025795
 20
485.087783
 30
0.0
 40
3.966667
100
AcDbArc
 50
32.574018
 51
84.212437
  0
LINE
  5
42
100
AcDbEntity
  8
3
  6
CONTINUOUS
 62
   214
100
AcDbLine
 10
160.525795
 20
486.685003
 30
0.0
 11
160.525795
 21
486.45445
 31
0.0
  0
ARC
  5
43
100
AcDbEntity
  8
3
  6
CONTINUOUS
 62
   214
100
AcDbCircle
 10
159.525795
 20
486.685003
 30
0.0
 40
1.0
100
AcDbArc
 50
0.0
 51
32.574018
  0
LINE
  5
44
100
AcDbEntity
  8
3
  6
CONTINUOUS
 62
   214
100
AcDbLine
 10
157.425795
 20
489.03423
 30
0.0
 11
157.425795
 21
488.75445
 31
0.0
  0
LINE
  5
45
100
AcDbEntity
  8
3
  6
CONTINUOUS
 62
   214
100
AcDbLine
 10
156.625795
 20
489.03423
 30
0.0
 11
156.625795
 21
488.75445
 31
0.0
  0
LINE
  5
46
100
AcDbEntity
  8
3
  6
CONTINUOUS
 62
   214
100
AcDbLine
 10
161.025794
 20
482.95445
 30
0.0
 11
161.025794
 21
479.75445
 31
0.0
  0
LINE
  5
47
100
AcDbEntity
  8
3
  6
CONTINUOUS
 62
   214
100
AcDbLine
 10
161.025794
 20
479.75445
 30
0.0
 11
153.025794
 21
479.75445
 31
0.0
  0
LINE
  5
48
100
AcDbEntity
  8
3
  6
CONTINUOUS
 62
   214
100
AcDbLine
 10
153.025794
 20
479.75445
 30
0.0
 11
153.025794
 21
482.95445
 31
0.0
  0
LINE
  5
49
100
AcDbEntity
  8
3
  6
CONTINUOUS
 62
   214
100
AcDbLine
 10
155.025795
 20
478.45445
 30
0.0
 11
155.025795
 21
482.95445
 31
0.0
  0
LINE
  5
4A
100
AcDbEntity
  8
3
  6
CONTINUOUS
 62
   214
100
AcDbLine
 10
158.775795
 20
479.75445
 30
0.0
 11
158.775795
 21
478.45445
 31
0.0
  0
LINE
  5
4B
100
AcDbEntity
  8
3
  6
CONTINUOUS
 62
   214
100
AcDbLine
 10
155.275795
 20
478.45445
 30
0.0
 11
155.275795
 21
479.75445
 31
0.0
  0
LINE
  5
4C
100
AcDbEntity
  8
3
  6
CENTER
 62
   214
100
AcDbLine
 10
157.025795
 20
477.724936
 30
0.0
 11
157.025795
 21
490.323112
 31
0.0
  0
LINE
  5
4D
100
AcDbEntity
  8
3
  6
CONTINUOUS
 62
   214
100
AcDbLine
 10
159.025795
 20
482.95445
 30
0.0
 11
159.025795
 21
478.45445
 31
0.0
  0
LINE
  5
4E
100
AcDbEntity
  8
3
  6
CONTINUOUS
 62
   214
100
AcDbLine
 10
159.025795
 20
478.45445
 30
0.0
 11
155.025795
 21
478.45445
 31
0.0
  0
LINE
  5
4F
100
AcDbEntity
  8
3
  6
CONTINUOUS
 62
   214
100
AcDbLine
 10
227.425795
 20
488.75445
 30
0.0
 11
226.625795
 21
488.75445
 31
0.0
  0
LINE
  5
50
100
AcDbEntity
  8
3
  6
CONTINUOUS
 62
   214
100
AcDbLine
 10
223.525795
 20
486.685003
 30
0.0
 11
223.525795
 21
486.45445
 31
0.0
  0
ARC
  5
51
100
AcDbEntity
  8
3
  6
CONTINUOUS
 62
   214
100
AcDbCircle
 10
227.025795
 20
485.087783
 30
0.0
 40
3.966667
100
AcDbArc
 50
95.787563
 51
147.425982
  0
ARC
  5
52
100
AcDbEntity
  8
3
  6
CONTINUOUS
 62
   214
100
AcDbCircle
 10
224.525795
 20
486.685003
 30
0.0
 40
1.0
100
AcDbArc
 50
147.425982
 51
180.0
  0
ARC
  5
53
100
AcDbEntity
  8
3
  6
CONTINUOUS
 62
   214
100
AcDbCircle
 10
227.025795
 20
485.087783
 30
0.0
 40
3.966667
100
AcDbArc
 50
32.574018
 51
84.212437
  0
LINE
  5
54
100
AcDbEntity
  8
3
  6
CONTINUOUS
 62
   214
100
AcDbLine
 10
230.525795
 20
486.685003
 30
0.0
 11
230.525795
 21
486.45445
 31
0.0
  0
ARC
  5
55
100
AcDbEntity
  8
3
  6
CONTINUOUS
 62
   214
100
AcDbCircle
 10
229.525795
 20
486.685003
 30
0.0
 40
1.0
100
AcDbArc
 50
0.0
 51
32.574018
  0
LINE
  5
56
100
AcDbEntity
  8
3
  6
CONTINUOUS
 62
   214
100
AcDbLine
 10
227.425795
 20
489.03423
 30
0.0
 11
227.425795
 21
488.75445
 31
0.0
  0
LINE
  5
57
100
AcDbEntity
  8
3
  6
CONTINUOUS
 62
   214
100
AcDbLine
 10
226.625795
 20
489.03423
 30
0.0
 11
226.625795
 21
488.75445
 31
0.0
  0
LINE
  5
58
100
AcDbEntity
  8
3
  6
CONTINUOUS
 62
   214
100
AcDbLine
 10
231.025794
 20
482.95445
 30
0.0
 11
231.025794
 21
479.75445
 31
0.0
  0
LINE
  5
59
100
AcDbEntity
  8
3
  6
CONTINUOUS
 62
   214
100
AcDbLine
 10
231.025794
 20
479.75445
 30
0.0
 11
223.025794
 21
479.75445
 31
0.0
  0
LINE
  5
5A
100
AcDbEntity
  8
3
  6
CONTINUOUS
 62
   214
100
AcDbLine
 10
223.025794
 20
479.75445
 30
0.0
 11
223.025794
 21
482.95445
 31
0.0
  0
LINE
  5
5B
100
AcDbEntity
  8
3
  6
CONTINUOUS
 62
   214
100
AcDbLine
 10
225.025795
 20
478.45445
 30
0.0
 11
225.025795
 21
482.95445
 31
0.0
  0
LINE
  5
5C
100
AcDbEntity
  8
3
  6
CONTINUOUS
 62
   214
100
AcDbLine
 10
228.775795
 20
479.75445
 30
0.0
 11
228.775795
 21
478.45445
 31
0.0
  0
LINE
  5
5D
100
AcDbEntity
  8
3
  6
CONTINUOUS
 62
   214
100
AcDbLine
 10
225.275795
 20
478.45445
 30
0.0
 11
225.275795
 21
479.75445
 31
0.0
  0
LINE
  5
5E
100
AcDbEntity
  8
3
  6
CENTER
 62
   214
100
AcDbLine
 10
227.025795
 20
477.724936
 30
0.0
 11
227.025795
 21
490.323112
 31
0.0
  0
LINE
  5
5F
100
AcDbEntity
  8
3
  6
CONTINUOUS
 62
   214
100
AcDbLine
 10
229.025795
 20
482.95445
 30
0.0
 11
229.025795
 21
478.45445
 31
0.0
  0
LINE
  5
60
100
AcDbEntity
  8
3
  6
CONTINUOUS
 62
   214
100
AcDbLine
 10
229.025795
 20
478.45445
 30
0.0
 11
225.025795
 21
478.45445
 31
0.0
  0
LINE
  5
61
100
AcDbEntity
  8
3
  6
CONTINUOUS
 62
   214
100
AcDbLine
 10
347.425795
 20
488.75445
 30
0.0
 11
346.625795
 21
488.75445
 31
0.0
  0
LINE
  5
62
100
AcDbEntity
  8
3
  6
CONTINUOUS
 62
   214
100
AcDbLine
 10
343.525795
 20
486.685003
 30
0.0
 11
343.525795
 21
486.45445
 31
0.0
  0
ARC
  5
63
100
AcDbEntity
  8
3
  6
CONTINUOUS
 62
   214
100
AcDbCircle
 10
347.025795
 20
485.087783
 30
0.0
 40
3.966667
100
AcDbArc
 50
95.787563
 51
147.425982
  0
ARC
  5
64
100
AcDbEntity
  8
3
  6
CONTINUOUS
 62
   214
100
AcDbCircle
 10
344.525795
 20
486.685003
 30
0.0
 40
1.0
100
AcDbArc
 50
147.425982
 51
180.0
  0
ARC
  5
65
100
AcDbEntity
  8
3
  6
CONTINUOUS
 62
   214
100
AcDbCircle
 10
347.025795
 20
485.087783
 30
0.0
 40
3.966667
100
AcDbArc
 50
32.574018
 51
84.212437
  0
LINE
  5
66
100
AcDbEntity
  8
3
  6
CONTINUOUS
 62
   214
100
AcDbLine
 10
350.525795
 20
486.685003
 30
0.0
 11
350.525795
 21
486.45445
 31
0.0
  0
ARC
  5
67
100
AcDbEntity
  8
3
  6
CONTINUOUS
 62
   214
100
AcDbCircle
 10
349.525795
 20
486.685003
 30
0.0
 40
1.0
100
AcDbArc
 50
0.0
 51
32.574018
  0
LINE
  5
68
100
AcDbEntity
  8
3
  6
CONTINUOUS
 62
   214
100
AcDbLine
 10
347.425795
 20
489.03423
 30
0.0
 11
347.425795
 21
488.75445
 31
0.0
  0
LINE
  5
69
100
AcDbEntity
  8
3
  6
CONTINUOUS
 62
   214
100
AcDbLine
 10
346.625795
 20
489.03423
 30
0.0
 11
346.625795
 21
488.75445
 31
0.0
  0
LINE
  5
6A
100
AcDbEntity
  8
3
  6
CONTINUOUS
 62
   214
100
AcDbLine
 10
351.025794
 20
482.95445
 30
0.0
 11
351.025794
 21
479.75445
 31
0.0
  0
LINE
  5
6B
100
AcDbEntity
  8
3
  6
CONTINUOUS
 62
   214
100
AcDbLine
 10
351.025794
 20
479.75445
 30
0.0
 11
343.025794
 21
479.75445
 31
0.0
  0
LINE
  5
6C
100
AcDbEntity
  8
3
  6
CONTINUOUS
 62
   214
100
AcDbLine
 10
343.025794
 20
479.75445
 30
0.0
 11
343.025794
 21
482.95445
 31
0.0
  0
LINE
  5
6D
100
AcDbEntity
  8
3
  6
CONTINUOUS
 62
   214
100
AcDbLine
 10
345.025795
 20
478.45445
 30
0.0
 11
345.025795
 21
482.95445
 31
0.0
  0
LINE
  5
6E
100
AcDbEntity
  8
3
  6
CONTINUOUS
 62
   214
100
AcDbLine
 10
348.775795
 20
479.75445
 30
0.0
 11
348.775795
 21
478.45445
 31
0.0
  0
LINE
  5
6F
100
AcDbEntity
  8
3
  6
CONTINUOUS
 62
   214
100
AcDbLine
 10
345.275795
 20
478.45445
 30
0.0
 11
345.275795
 21
479.75445
 31
0.0
  0
LINE
  5
70
100
AcDbEntity
  8
3
  6
CENTER
 62
   214
100
AcDbLine
 10
347.025795
 20
477.724936
 30
0.0
 11
347.025795
 21
490.323112
 31
0.0
  0
LINE
  5
71
100
AcDbEntity
  8
3
  6
CONTINUOUS
 62
   214
100
AcDbLine
 10
349.025795
 20
482.95445
 30
0.0
 11
349.025795
 21
478.45445
 31
0.0
  0
LINE
  5
72
100
AcDbEntity
  8
3
  6
CONTINUOUS
 62
   214
100
AcDbLine
 10
349.025795
 20
478.45445
 30
0.0
 11
345.025795
 21
478.45445
 31
0.0
  0
LINE
  5
73
100
AcDbEntity
  8
3
  6
CONTINUOUS
 62
   214
100
AcDbLine
 10
417.425795
 20
488.75445
 30
0.0
 11
416.625795
 21
488.75445
 31
0.0
  0
LINE
  5
74
100
AcDbEntity
  8
3
  6
CONTINUOUS
 62
   214
100
AcDbLine
 10
413.525795
 20
486.685003
 30
0.0
 11
413.525795
 21
486.45445
 31
0.0
  0
ARC
  5
75
100
AcDbEntity
  8
3
  6
CONTINUOUS
 62
   214
100
AcDbCircle
 10
417.025795
 20
485.087783
 30
0.0
 40
3.966667
100
AcDbArc
 50
95.787563
 51
147.425982
  0
ARC
  5
76
100
AcDbEntity
  8
3
  6
CONTINUOUS
 62
   214
100
AcDbCircle
 10
414.525795
 20
486.685003
 30
0.0
 40
1.0
100
AcDbArc
 50
147.425982
 51
180.0
  0
ARC
  5
77
100
AcDbEntity
  8
3
  6
CONTINUOUS
 62
   214
100
AcDbCircle
 10
417.025795
 20
485.087783
 30
0.0
 40
3.966667
100
AcDbArc
 50
32.574018
 51
84.212437
  0
LINE
  5
78
100
AcDbEntity
  8
3
  6
CONTINUOUS
 62
   214
100
AcDbLine
 10
420.525795
 20
486.685003
 30
0.0
 11
420.525795
 21
486.45445
 31
0.0
  0
ARC
  5
79
100
AcDbEntity
  8
3
  6
CONTINUOUS
 62
   214
100
AcDbCircle
 10
419.525795
 20
486.685003
 30
0.0
 40
1.0
100
AcDbArc
 50
0.0
 51
32.574018
  0
LINE
  5
7A
100
AcDbEntity
  8
3
  6
CONTINUOUS
 62
   214
100
AcDbLine
 10
417.425795
 20
489.03423
 30
0.0
 11
417.425795
 21
488.75445
 31
0.0
  0
LINE
  5
7B
100
AcDbEntity
  8
3
  6
CONTINUOUS
 62
   214
100
AcDbLine
 10
416.625795
 20
489.03423
 30
0.0
 11
416.625795
 21
488.75445
 31
0.0
  0
LINE
  5
7C
100
AcDbEntity
  8
3
  6
CONTINUOUS
 62
   214
100
AcDbLine
 10
421.025794
 20
482.95445
 30
0.0
 11
421.025794
 21
479.75445
 31
0.0
  0
LINE
  5
7D
100
AcDbEntity
  8
3
  6
CONTINUOUS
 62
   214
100
AcDbLine
 10
421.025794
 20
479.75445
 30
0.0
 11
413.025794
 21
479.75445
 31
0.0
  0
LINE
  5
7E
100
AcDbEntity
  8
3
  6
CONTINUOUS
 62
   214
100
AcDbLine
 10
413.025794
 20
479.75445
 30
0.0
 11
413.025794
 21
482.95445
 31
0.0
  0
LINE
  5
7F
100
AcDbEntity
  8
3
  6
CONTINUOUS
 62
   214
100
AcDbLine
 10
415.025795
 20
478.45445
 30
0.0
 11
415.025795
 21
482.95445
 31
0.0
  0
LINE
  5
80
100
AcDbEntity
  8
3
  6
CONTINUOUS
 62
   214
100
AcDbLine
 10
418.775795
 20
479.75445
 30
0.0
 11
418.775795
 21
478.45445
 31
0.0
  0
LINE
  5
81
100
AcDbEntity
  8
3
  6
CONTINUOUS
 62
   214
100
AcDbLine
 10
415.275795
 20
478.45445
 30
0.0
 11
415.275795
 21
479.75445
 31
0.0
  0
LINE
  5
82
100
AcDbEntity
  8
3
  6
CENTER
 62
   214
100
AcDbLine
 10
417.025795
 20
477.724936
 30
0.0
 11
417.025795
 21
490.323112
 31
0.0
  0
LINE
  5
83
100
AcDbEntity
  8
3
  6
CONTINUOUS
 62
   214
100
AcDbLine
 10
419.025795
 20
482.95445
 30
0.0
 11
419.025795
 21
478.45445
 31
0.0
  0
LINE
  5
84
100
AcDbEntity
  8
3
  6
CONTINUOUS
 62
   214
100
AcDbLine
 10
419.025795
 20
478.45445
 30
0.0
 11
415.025795
 21
478.45445
 31
0.0
  0
LINE
  5
85
100
AcDbEntity
  8
3
  6
CONTINUOUS
 62
   214
100
AcDbLine
 10
127.025795
 20
561.704449
 30
0.0
 11
447.025795
 21
561.704449
 31
0.0
  0
LINE
  5
86
100
AcDbEntity
  8
3
  6
HIDDEN
 62
   214
100
AcDbLine
 10
453.025795
 20
493.704449
 30
0.0
 11
121.025795
 21
493.704449
 31
0.0
  0
LINE
  5
87
100
AcDbEntity
  8
3
  6
HIDDEN
 62
   214
100
AcDbLine
 10
453.025795
 20
553.704449
 30
0.0
 11
121.025795
 21
553.704449
 31
0.0
  0
LINE
  5
88
100
AcDbEntity
  8
3
  6
CENTER
 62
   214
100
AcDbLine
 10
461.480342
 20
523.704449
 30
0.0
 11
107.049505
 21
523.704449
 31
0.0
  0
LINE
  5
89
100
AcDbEntity
  8
3
  6
CONTINUOUS
 62
   214
100
AcDbLine
 10
112.025795
 20
484.454449
 30
0.0
 11
462.025795
 21
484.454449
 31
0.0
  0
LINE
  5
8A
100
AcDbEntity
  8
3
  6
CONTINUOUS
 62
   214
100
AcDbLine
 10
462.025795
 20
486.454449
 30
0.0
 11
112.025795
 21
486.454449
 31
0.0
  0
LINE
  5
8B
100
AcDbEntity
  8
3
  6
CONTINUOUS
 62
   214
100
AcDbLine
 10
462.025795
 20
482.954449
 30
0.0
 11
112.025795
 21
482.954449
 31
0.0
  0
LINE
  5
8C
100
AcDbEntity
  8
3
  6
CONTINUOUS
 62
   214
100
AcDbLine
 10
99.525795
 20
553.704449
 30
0.0
 11
97.525795
 21
551.704449
 31
0.0
  0
LINE
  5
8D
100
AcDbEntity
  8
3
  6
CONTINUOUS
 62
   214
100
AcDbLine
 10
97.525795
 20
551.704449
 30
0.0
 11
97.525795
 21
495.704449
 31
0.0
  0
LINE
  5
8E
100
AcDbEntity
  8
3
  6
CONTINUOUS
 62
   214
100
AcDbLine
 10
99.525795
 20
493.704449
 30
0.0
 11
97.525795
 21
495.704449
 31
0.0
  0
LINE
  5
8F
100
AcDbEntity
  8
3
  6
CENTER
 62
   214
100
AcDbLine
 10
100.616032
 20
501.704449
 30
0.0
 11
110.435557
 21
501.704449
 31
0.0
  0
LINE
  5
90
100
AcDbEntity
  8
3
  6
CENTER
 62
   214
100
AcDbLine
 10
105.525795
 20
506.614212
 30
0.0
 11
105.525795
 21
496.794687
 31
0.0
  0
CIRCLE
  5
91
100
AcDbEntity
  8
3
  6
CONTINUOUS
 62
   214
100
AcDbCircle
 10
105.525795
 20
501.704449
 30
0.0
 40
3.25
  0
LINE
  5
92
100
AcDbEntity
  8
3
  6
CENTER
 62
   214
100
AcDbLine
 10
100.616032
 20
545.704449
 30
0.0
 11
110.435557
 21
545.704449
 31
0.0
  0
LINE
  5
93
100
AcDbEntity
  8
3
  6
CENTER
 62
   214
100
AcDbLine
 10
105.525795
 20
550.614212
 30
0.0
 11
105.525795
 21
540.794687
 31
0.0
  0
CIRCLE
  5
94
100
AcDbEntity
  8
3
  6
CONTINUOUS
 62
   214
100
AcDbCircle
 10
105.525795
 20
545.704449
 30
0.0
 40
3.25
  0
LINE
  5
95
100
AcDbEntity
  8
3
  6
CONTINUOUS
 62
   214
100
AcDbLine
 10
121.025795
 20
487.204449
 30
0.0
 11
125.525795
 21
487.204449
 31
0.0
  0
LINE
  5
96
100
AcDbEntity
  8
3
  6
CONTINUOUS
 62
   214
100
AcDbLine
 10
125.525795
 20
560.204449
 30
0.0
 11
121.025795
 21
560.204449
 31
0.0
  0
LINE
  5
97
100
AcDbEntity
  8
3
  6
CONTINUOUS
 62
   214
100
AcDbLine
 10
125.525795
 20
487.204449
 30
0.0
 11
127.025795
 21
491.704449
 31
0.0
  0
LINE
  5
98
100
AcDbEntity
  8
3
  6
CONTINUOUS
 62
   214
100
AcDbLine
 10
127.025795
 20
555.704449
 30
0.0
 11
125.525795
 21
560.204449
 31
0.0
  0
LINE
  5
99
100
AcDbEntity
  8
3
  6
CONTINUOUS
 62
   214
100
AcDbLine
 10
127.025795
 20
491.704449
 30
0.0
 11
127.025795
 21
493.704449
 31
0.0
  0
LINE
  5
9A
100
AcDbEntity
  8
3
  6
CONTINUOUS
 62
   214
100
AcDbLine
 10
127.025795
 20
553.704449
 30
0.0
 11
127.025795
 21
555.704449
 31
0.0
  0
LINE
  5
9B
100
AcDbEntity
  8
3
  6
CONTINUOUS
 62
   214
100
AcDbLine
 10
117.525795
 20
553.704449
 30
0.0
 11
117.525795
 21
493.704449
 31
0.0
  0
LINE
  5
9C
100
AcDbEntity
  8
3
  6
CONTINUOUS
 62
   214
100
AcDbLine
 10
119.525795
 20
553.704449
 30
0.0
 11
119.525795
 21
493.704449
 31
0.0
  0
LINE
  5
9D
100
AcDbEntity
  8
3
  6
CONTINUOUS
 62
   214
100
AcDbLine
 10
121.025795
 20
560.204449
 30
0.0
 11
121.025795
 21
487.204449
 31
0.0
  0
LINE
  5
9E
100
AcDbEntity
  8
3
  6
CONTINUOUS
 62
   214
100
AcDbLine
 10
125.525795
 20
487.204449
 30
0.0
 11
125.525795
 21
560.204449
 31
0.0
  0
LINE
  5
9F
100
AcDbEntity
  8
3
  6
CONTINUOUS
 62
   214
100
AcDbLine
 10
121.025795
 20
553.704449
 30
0.0
 11
99.525795
 21
553.704449
 31
0.0
  0
LINE
  5
A0
100
AcDbEntity
  8
3
  6
CONTINUOUS
 62
   214
100
AcDbLine
 10
121.025795
 20
493.704449
 30
0.0
 11
99.525795
 21
493.704449
 31
0.0
  0
LINE
  5
A1
100
AcDbEntity
  8
3
  6
CONTINUOUS
 62
   214
100
AcDbLine
 10
114.525795
 20
529.704449
 30
0.0
 11
115.925795
 21
529.704449
 31
0.0
  0
LINE
  5
A2
100
AcDbEntity
  8
3
  6
CONTINUOUS
 62
   214
100
AcDbLine
 10
115.925795
 20
529.704449
 30
0.0
 11
115.925795
 21
517.704449
 31
0.0
  0
LINE
  5
A3
100
AcDbEntity
  8
3
  6
CONTINUOUS
 62
   214
100
AcDbLine
 10
115.925795
 20
517.704449
 30
0.0
 11
114.525795
 21
517.704449
 31
0.0
  0
LINE
  5
A4
100
AcDbEntity
  8
3
  6
CONTINUOUS
 62
   214
100
AcDbLine
 10
114.525795
 20
517.704449
 30
0.0
 11
114.525795
 21
529.704449
 31
0.0
  0
LINE
  5
A5
100
AcDbEntity
  8
3
  6
CONTINUOUS
 62
   214
100
AcDbLine
 10
117.025795
 20
529.704449
 30
0.0
 11
117.525795
 21
529.704449
 31
0.0
  0
LINE
  5
A6
100
AcDbEntity
  8
3
  6
CONTINUOUS
 62
   214
100
AcDbLine
 10
117.025795
 20
517.704449
 30
0.0
 11
117.525795
 21
517.704449
 31
0.0
  0
LINE
  5
A7
100
AcDbEntity
  8
3
  6
CONTINUOUS
 62
   214
100
AcDbLine
 10
119.525795
 20
517.704449
 30
0.0
 11
120.025795
 21
517.704449
 31
0.0
  0
LINE
  5
A8
100
AcDbEntity
  8
3
  6
CONTINUOUS
 62
   214
100
AcDbLine
 10
119.525795
 20
529.704449
 30
0.0
 11
120.025795
 21
529.704449
 31
0.0
  0
LINE
  5
A9
100
AcDbEntity
  8
3
  6
CONTINUOUS
 62
   214
100
AcDbLine
 10
116.025795
 20
516.704449
 30
0.0
 11
116.025795
 21
530.704449
 31
0.0
  0
LINE
  5
AA
100
AcDbEntity
  8
3
  6
CONTINUOUS
 62
   214
100
AcDbLine
 10
117.025795
 20
530.704449
 30
0.0
 11
117.025795
 21
516.704449
 31
0.0
  0
LINE
  5
AB
100
AcDbEntity
  8
3
  6
CONTINUOUS
 62
   214
100
AcDbLine
 10
116.025795
 20
516.704449
 30
0.0
 11
117.025795
 21
516.704449
 31
0.0
  0
LINE
  5
AC
100
AcDbEntity
  8
3
  6
CONTINUOUS
 62
   214
100
AcDbLine
 10
115.925795
 20
518.304449
 30
0.0
 11
116.025795
 21
518.304449
 31
0.0
  0
LINE
  5
AD
100
AcDbEntity
  8
3
  6
CONTINUOUS
 62
   214
100
AcDbLine
 10
115.925795
 20
529.104449
 30
0.0
 11
116.025795
 21
529.104449
 31
0.0
  0
LINE
  5
AE
100
AcDbEntity
  8
3
  6
CONTINUOUS
 62
   214
100
AcDbLine
 10
116.025795
 20
530.704449
 30
0.0
 11
117.025795
 21
530.704449
 31
0.0
  0
LINE
  5
AF
100
AcDbEntity
  8
3
  6
CONTINUOUS
 62
   214
100
AcDbLine
 10
121.025795
 20
533.704449
 30
0.0
 11
120.025795
 21
533.704449
 31
0.0
  0
LINE
  5
B0
100
AcDbEntity
  8
3
  6
CONTINUOUS
 62
   214
100
AcDbLine
 10
120.025795
 20
533.704449
 30
0.0
 11
120.025795
 21
513.704449
 31
0.0
  0
LINE
  5
B1
100
AcDbEntity
  8
3
  6
CONTINUOUS
 62
   214
100
AcDbLine
 10
120.025795
 20
513.704449
 30
0.0
 11
121.025795
 21
513.704449
 31
0.0
  0
LINE
  5
B2
100
AcDbEntity
  8
3
  6
CONTINUOUS
 62
   214
100
AcDbLine
 10
112.025795
 20
482.954449
 30
0.0
 11
112.025795
 21
486.454449
 31
0.0
  0
LINE
  5
B3
100
AcDbEntity
  8
3
  6
CONTINUOUS
 62
   214
100
AcDbLine
 10
127.025795
 20
561.704449
 30
0.0
 11
127.025795
 21
486.454449
 31
0.0
  0
LINE
  5
B4
100
AcDbEntity
  8
3
  6
CONTINUOUS
 62
   214
100
AcDbLine
 10
474.525795
 20
553.704449
 30
0.0
 11
476.525795
 21
551.704449
 31
0.0
  0
LINE
  5
B5
100
AcDbEntity
  8
3
  6
CONTINUOUS
 62
   214
100
AcDbLine
 10
476.525795
 20
551.704449
 30
0.0
 11
476.525795
 21
495.704449
 31
0.0
  0
LINE
  5
B6
100
AcDbEntity
  8
3
  6
CONTINUOUS
 62
   214
100
AcDbLine
 10
476.525795
 20
495.704449
 30
0.0
 11
474.525795
 21
493.704449
 31
0.0
  0
LINE
  5
B7
100
AcDbEntity
  8
3
  6
CENTER
 62
   214
100
AcDbLine
 10
463.616032
 20
545.704449
 30
0.0
 11
473.435557
 21
545.704449
 31
0.0
  0
LINE
  5
B8
100
AcDbEntity
  8
3
  6
CENTER
 62
   214
100
AcDbLine
 10
468.525795
 20
550.614212
 30
0.0
 11
468.525795
 21
540.794687
 31
0.0
  0
CIRCLE
  5
B9
100
AcDbEntity
  8
3
  6
CONTINUOUS
 62
   214
100
AcDbCircle
 10
468.525795
 20
545.704449
 30
0.0
 40
3.25
  0
LINE
  5
BA
100
AcDbEntity
  8
3
  6
CENTER
 62
   214
100
AcDbLine
 10
463.616032
 20
501.704449
 30
0.0
 11
473.435557
 21
501.704449
 31
0.0
  0
LINE
  5
BB
100
AcDbEntity
  8
3
  6
CENTER
 62
   214
100
AcDbLine
 10
468.525795
 20
506.614212
 30
0.0
 11
468.525795
 21
496.794687
 31
0.0
  0
CIRCLE
  5
BC
100
AcDbEntity
  8
3
  6
CONTINUOUS
 62
   214
100
AcDbCircle
 10
468.525795
 20
501.704449
 30
0.0
 40
3.25
  0
LINE
  5
BD
100
AcDbEntity
  8
3
  6
CONTINUOUS
 62
   214
100
AcDbLine
 10
453.025795
 20
487.204449
 30
0.0
 11
448.525795
 21
487.204449
 31
0.0
  0
LINE
  5
BE
100
AcDbEntity
  8
3
  6
CONTINUOUS
 62
   214
100
AcDbLine
 10
448.525795
 20
560.204449
 30
0.0
 11
453.025795
 21
560.204449
 31
0.0
  0
LINE
  5
BF
100
AcDbEntity
  8
3
  6
CONTINUOUS
 62
   214
100
AcDbLine
 10
448.525795
 20
487.204449
 30
0.0
 11
447.025795
 21
491.704449
 31
0.0
  0
LINE
  5
C0
100
AcDbEntity
  8
3
  6
CONTINUOUS
 62
   214
100
AcDbLine
 10
447.025795
 20
555.704449
 30
0.0
 11
448.525795
 21
560.204449
 31
0.0
  0
LINE
  5
C1
100
AcDbEntity
  8
3
  6
CONTINUOUS
 62
   214
100
AcDbLine
 10
456.525795
 20
553.704449
 30
0.0
 11
456.525795
 21
493.704449
 31
0.0
  0
LINE
  5
C2
100
AcDbEntity
  8
3
  6
CONTINUOUS
 62
   214
100
AcDbLine
 10
454.525795
 20
493.704449
 30
0.0
 11
454.525795
 21
553.704449
 31
0.0
  0
LINE
  5
C3
100
AcDbEntity
  8
3
  6
CONTINUOUS
 62
   214
100
AcDbLine
 10
448.525795
 20
560.204449
 30
0.0
 11
448.525795
 21
487.204449
 31
0.0
  0
LINE
  5
C4
100
AcDbEntity
  8
3
  6
CONTINUOUS
 62
   214
100
AcDbLine
 10
453.025795
 20
487.204449
 30
0.0
 11
453.025795
 21
560.204449
 31
0.0
  0
LINE
  5
C5
100
AcDbEntity
  8
3
  6
CONTINUOUS
 62
   214
100
AcDbLine
 10
474.525795
 20
553.704449
 30
0.0
 11
453.025795
 21
553.704449
 31
0.0
  0
LINE
  5
C6
100
AcDbEntity
  8
3
  6
CONTINUOUS
 62
   214
100
AcDbLine
 10
474.525795
 20
493.704449
 30
0.0
 11
453.025795
 21
493.704449
 31
0.0
  0
LINE
  5
C7
100
AcDbEntity
  8
3
  6
CONTINUOUS
 62
   214
100
AcDbLine
 10
458.125795
 20
517.704449
 30
0.0
 11
459.525795
 21
517.704449
 31
0.0
  0
LINE
  5
C8
100
AcDbEntity
  8
3
  6
CONTINUOUS
 62
   214
100
AcDbLine
 10
457.025795
 20
517.704449
 30
0.0
 11
456.525795
 21
517.704449
 31
0.0
  0
LINE
  5
C9
100
AcDbEntity
  8
3
  6
CONTINUOUS
 62
   214
100
AcDbLine
 10
454.525795
 20
517.704449
 30
0.0
 11
454.025794
 21
517.704449
 31
0.0
  0
LINE
  5
CA
100
AcDbEntity
  8
3
  6
CONTINUOUS
 62
   214
100
AcDbLine
 10
454.525795
 20
529.704449
 30
0.0
 11
454.025794
 21
529.704449
 31
0.0
  0
LINE
  5
CB
100
AcDbEntity
  8
3
  6
CONTINUOUS
 62
   214
100
AcDbLine
 10
458.125795
 20
528.204449
 30
0.0
 11
458.125795
 21
517.704449
 31
0.0
  0
LINE
  5
CC
100
AcDbEntity
  8
3
  6
CONTINUOUS
 62
   214
100
AcDbLine
 10
459.525795
 20
517.704449
 30
0.0
 11
459.525795
 21
528.204449
 31
0.0
  0
LINE
  5
CD
100
AcDbEntity
  8
3
  6
CONTINUOUS
 62
   214
100
AcDbLine
 10
457.025795
 20
530.704449
 30
0.0
 11
457.025795
 21
516.704449
 31
0.0
  0
LINE
  5
CE
100
AcDbEntity
  8
3
  6
CONTINUOUS
 62
   214
100
AcDbLine
 10
457.025795
 20
530.704449
 30
0.0
 11
458.025795
 21
530.704449
 31
0.0
  0
LINE
  5
CF
100
AcDbEntity
  8
3
  6
CONTINUOUS
 62
   214
100
AcDbLine
 10
458.025795
 20
530.704449
 30
0.0
 11
458.025795
 21
516.704449
 31
0.0
  0
LINE
  5
D0
100
AcDbEntity
  8
3
  6
CONTINUOUS
 62
   214
100
AcDbLine
 10
458.025795
 20
516.704449
 30
0.0
 11
457.025795
 21
516.704449
 31
0.0
  0
LINE
  5
D1
100
AcDbEntity
  8
3
  6
CONTINUOUS
 62
   214
100
AcDbLine
 10
458.125795
 20
518.304449
 30
0.0
 11
458.025795
 21
518.304449
 31
0.0
  0
LINE
  5
D2
100
AcDbEntity
  8
3
  6
CONTINUOUS
 62
   214
100
AcDbLine
 10
459.525795
 20
528.204449
 30
0.0
 11
458.025795
 21
528.204449
 31
0.0
  0
LINE
  5
D3
100
AcDbEntity
  8
3
  6
CONTINUOUS
 62
   214
100
AcDbLine
 10
457.025795
 20
528.204449
 30
0.0
 11
456.525795
 21
528.204449
 31
0.0
  0
LINE
  5
D4
100
AcDbEntity
  8
3
  6
CONTINUOUS
 62
   214
100
AcDbLine
 10
453.025795
 20
533.704449
 30
0.0
 11
454.025795
 21
533.704449
 31
0.0
  0
LINE
  5
D5
100
AcDbEntity
  8
3
  6
CONTINUOUS
 62
   214
100
AcDbLine
 10
454.025795
 20
533.704449
 30
0.0
 11
454.025795
 21
513.704449
 31
0.0
  0
LINE
  5
D6
100
AcDbEntity
  8
3
  6
CONTINUOUS
 62
   214
100
AcDbLine
 10
454.025795
 20
513.704449
 30
0.0
 11
453.025795
 21
513.704449
 31
0.0
  0
LINE
  5
D7
100
AcDbEntity
  8
3
  6
CONTINUOUS
 62
   214
100
AcDbLine
 10
462.025795
 20
482.954449
 30
0.0
 11
462.025795
 21
486.454449
 31
0.0
  0
LINE
  5
D8
100
AcDbEntity
  8
3
  6
CONTINUOUS
 62
   214
100
AcDbLine
 10
447.025795
 20
486.454449
 30
0.0
 11
447.025795
 21
561.704449
 31
0.0
  0
LINE
  5
D9
100
AcDbEntity
  8
3
  6
CONTINUOUS
 62
   214
100
AcDbLine
 10
287.425795
 20
488.75445
 30
0.0
 11
286.625795
 21
488.75445
 31
0.0
  0
LINE
  5
DA
100
AcDbEntity
  8
3
  6
CENTER
 62
   214
100
AcDbLine
 10
287.025795
 20
477.724936
 30
0.0
 11
287.025795
 21
567.84295
 31
0.0
  0
LINE
  5
DB
100
AcDbEntity
  8
3
  6
CENTER
 62
   214
100
AcDbLine
 10
282.116032
 20
545.704449
 30
0.0
 11
291.935557
 21
545.704449
 31
0.0
  0
LINE
  5
DC
100
AcDbEntity
  8
3
  6
CENTER
 62
   214
100
AcDbLine
 10
282.116032
 20
501.704449
 30
0.0
 11
291.935557
 21
501.704449
 31
0.0
  0
CIRCLE
  5
DD
100
AcDbEntity
  8
3
  6
HIDDEN
 62
   214
100
AcDbCircle
 10
287.025795
 20
501.704449
 30
0.0
 40
3.25
  0
CIRCLE
  5
DE
100
AcDbEntity
  8
3
  6
HIDDEN
 62
   214
100
AcDbCircle
 10
287.025795
 20
545.704449
 30
0.0
 40
3.25
  0
LINE
  5
DF
100
AcDbEntity
  8
3
  6
CONTINUOUS
 62
   214
100
AcDbLine
 10
283.525795
 20
486.685003
 30
0.0
 11
283.525795
 21
486.45445
 31
0.0
  0
ARC
  5
E0
100
AcDbEntity
  8
3
  6
CONTINUOUS
 62
   214
100
AcDbCircle
 10
287.025795
 20
485.087783
 30
0.0
 40
3.966667
100
AcDbArc
 50
95.787563
 51
147.425982
  0
ARC
  5
E1
100
AcDbEntity
  8
3
  6
CONTINUOUS
 62
   214
100
AcDbCircle
 10
284.525795
 20
486.685003
 30
0.0
 40
1.0
100
AcDbArc
 50
147.425982
 51
180.0
  0
ARC
  5
E2
100
AcDbEntity
  8
3
  6
CONTINUOUS
 62
   214
100
AcDbCircle
 10
287.025795
 20
485.087783
 30
0.0
 40
3.966667
100
AcDbArc
 50
32.574018
 51
84.212437
  0
LINE
  5
E3
100
AcDbEntity
  8
3
  6
CONTINUOUS
 62
   214
100
AcDbLine
 10
290.525795
 20
486.685003
 30
0.0
 11
290.525795
 21
486.45445
 31
0.0
  0
ARC
  5
E4
100
AcDbEntity
  8
3
  6
CONTINUOUS
 62
   214
100
AcDbCircle
 10
289.525795
 20
486.685003
 30
0.0
 40
1.0
100
AcDbArc
 50
0.0
 51
32.574018
  0
LINE
  5
E5
100
AcDbEntity
  8
3
  6
CONTINUOUS
 62
   214
100
AcDbLine
 10
287.425795
 20
489.03423
 30
0.0
 11
287.425795
 21
488.75445
 31
0.0
  0
LINE
  5
E6
100
AcDbEntity
  8
3
  6
CONTINUOUS
 62
   214
100
AcDbLine
 10
286.625795
 20
489.03423
 30
0.0
 11
286.625795
 21
488.75445
 31
0.0
  0
LINE
  5
E7
100
AcDbEntity
  8
3
  6
CONTINUOUS
 62
   214
100
AcDbLine
 10
291.025794
 20
482.95445
 30
0.0
 11
291.025794
 21
479.75445
 31
0.0
  0
LINE
  5
E8
100
AcDbEntity
  8
3
  6
CONTINUOUS
 62
   214
100
AcDbLine
 10
291.025794
 20
479.75445
 30
0.0
 11
283.025794
 21
479.75445
 31
0.0
  0
LINE
  5
E9
100
AcDbEntity
  8
3
  6
CONTINUOUS
 62
   214
100
AcDbLine
 10
283.025794
 20
479.75445
 30
0.0
 11
283.025794
 21
482.95445
 31
0.0
  0
LINE
  5
EA
100
AcDbEntity
  8
3
  6
CONTINUOUS
 62
   214
100
AcDbLine
 10
285.025795
 20
478.45445
 30
0.0
 11
285.025795
 21
482.95445
 31
0.0
  0
LINE
  5
EB
100
AcDbEntity
  8
3
  6
CONTINUOUS
 62
   214
100
AcDbLine
 10
288.775795
 20
479.75445
 30
0.0
 11
288.775795
 21
478.45445
 31
0.0
  0
LINE
  5
EC
100
AcDbEntity
  8
3
  6
CONTINUOUS
 62
   214
100
AcDbLine
 10
285.275795
 20
478.45445
 30
0.0
 11
285.275795
 21
479.75445
 31
0.0
  0
LINE
  5
ED
100
AcDbEntity
  8
3
  6
CONTINUOUS
 62
   214
100
AcDbLine
 10
289.025795
 20
482.95445
 30
0.0
 11
289.025795
 21
478.45445
 31
0.0
  0
LINE
  5
EE
100
AcDbEntity
  8
3
  6
CONTINUOUS
 62
   214
100
AcDbLine
 10
289.025795
 20
478.45445
 30
0.0
 11
285.025795
 21
478.45445
 31
0.0
  0
LINE
  5
EF
100
AcDbEntity
  8
3
  6
CONTINUOUS
 62
   214
100
AcDbLine
 10
626.990962
 20
378.73166
 30
0.0
 11
626.990962
 21
382.73166
 31
0.0
  0
LINE
  5
F0
100
AcDbEntity
  8
3
  6
CONTINUOUS
 62
   214
100
AcDbLine
 10
631.490962
 20
378.73166
 30
0.0
 11
626.990962
 21
378.73166
 31
0.0
  0
LINE
  5
F1
100
AcDbEntity
  8
3
  6
CENTER
 62
   214
100
AcDbLine
 10
626.261449
 20
380.73166
 30
0.0
 11
638.859625
 21
380.73166
 31
0.0
  0
LINE
  5
F2
100
AcDbEntity
  8
3
  6
CONTINUOUS
 62
   214
100
AcDbLine
 10
626.990962
 20
382.48166
 30
0.0
 11
628.290963
 21
382.48166
 31
0.0
  0
LINE
  5
F3
100
AcDbEntity
  8
3
  6
CONTINUOUS
 62
   214
100
AcDbLine
 10
628.290963
 20
378.98166
 30
0.0
 11
626.990962
 21
378.98166
 31
0.0
  0
LINE
  5
F4
100
AcDbEntity
  8
3
  6
CONTINUOUS
 62
   214
100
AcDbLine
 10
626.990962
 20
382.73166
 30
0.0
 11
631.490962
 21
382.73166
 31
0.0
  0
LINE
  5
F5
100
AcDbEntity
  8
3
  6
CONTINUOUS
 62
   214
100
AcDbLine
 10
631.490962
 20
376.73166
 30
0.0
 11
631.490962
 21
384.73166
 31
0.0
  0
LINE
  5
F6
100
AcDbEntity
  8
3
  6
CONTINUOUS
 62
   214
100
AcDbLine
 10
628.290963
 20
384.73166
 30
0.0
 11
631.490962
 21
384.73166
 31
0.0
  0
LINE
  5
F7
100
AcDbEntity
  8
3
  6
CONTINUOUS
 62
   214
100
AcDbLine
 10
628.290963
 20
376.73166
 30
0.0
 11
628.290963
 21
384.73166
 31
0.0
  0
LINE
  5
F8
100
AcDbEntity
  8
3
  6
CONTINUOUS
 62
   214
100
AcDbLine
 10
631.490962
 20
376.73166
 30
0.0
 11
628.290963
 21
376.73166
 31
0.0
  0
LINE
  5
F9
100
AcDbEntity
  8
3
  6
CONTINUOUS
 62
   214
100
AcDbLine
 10
637.570743
 20
381.13166
 30
0.0
 11
637.290962
 21
381.13166
 31
0.0
  0
LINE
  5
FA
100
AcDbEntity
  8
3
  6
CONTINUOUS
 62
   214
100
AcDbLine
 10
637.570743
 20
380.33166
 30
0.0
 11
637.290962
 21
380.33166
 31
0.0
  0
ARC
  5
FB
100
AcDbEntity
  8
3
  6
CONTINUOUS
 62
   214
100
AcDbCircle
 10
635.221516
 20
378.23166
 30
0.0
 40
1.0
100
AcDbArc
 50
-90.0
 51
-57.425982
  0
LINE
  5
FC
100
AcDbEntity
  8
3
  6
CONTINUOUS
 62
   214
100
AcDbLine
 10
635.221516
 20
377.23166
 30
0.0
 11
634.990962
 21
377.23166
 31
0.0
  0
ARC
  5
FD
100
AcDbEntity
  8
3
  6
CONTINUOUS
 62
   214
100
AcDbCircle
 10
633.624296
 20
380.73166
 30
0.0
 40
3.966667
100
AcDbArc
 50
-57.425982
 51
-5.787563
  0
ARC
  5
FE
100
AcDbEntity
  8
3
  6
CONTINUOUS
 62
   214
100
AcDbCircle
 10
635.221516
 20
383.23166
 30
0.0
 40
1.0
100
AcDbArc
 50
57.425982
 51
90.0
  0
ARC
  5
FF
100
AcDbEntity
  8
3
  6
CONTINUOUS
 62
   214
100
AcDbCircle
 10
633.624296
 20
380.73166
 30
0.0
 40
3.966667
100
AcDbArc
 50
5.787563
 51
57.425982
  0
LINE
  5
100
100
AcDbEntity
  8
3
  6
CONTINUOUS
 62
   214
100
AcDbLine
 10
635.221516
 20
384.23166
 30
0.0
 11
634.990962
 21
384.23166
 31
0.0
  0
LINE
  5
101
100
AcDbEntity
  8
3
  6
CONTINUOUS
 62
   214
100
AcDbLine
 10
634.990962
 20
377.23166
 30
0.0
 11
634.990962
 21
384.23166
 31
0.0
  0
LINE
  5
102
100
AcDbEntity
  8
3
  6
CENTER
 62
   214
100
AcDbLine
 10
151.591669
 20
380.73166
 30
0.0
 11
162.45992
 21
380.73166
 31
0.0
  0
INSERT
  5
113
100
AcDbEntity
  8
0
  6
CONTINUOUS
 62
   214
100
AcDbBlockReference
  2
*G1
 10
0.0
 20
0.0
 30
0.0
  0
LINE
  5
114
100
AcDbEntity
  8
3
  6
CENTER
 62
   214
100
AcDbLine
 10
157.025795
 20
386.165786
 30
0.0
 11
157.025795
 21
375.297534
 31
0.0
  0
LINE
  5
115
100
AcDbEntity
  8
3
  6
CENTER
 62
   214
100
AcDbLine
 10
221.591669
 20
380.73166
 30
0.0
 11
232.45992
 21
380.73166
 31
0.0
  0
INSERT
  5
126
100
AcDbEntity
  8
0
  6
CONTINUOUS
 62
   214
100
AcDbBlockReference
  2
*G3
 10
0.0
 20
0.0
 30
0.0
  0
LINE
  5
127
100
AcDbEntity
  8
3
  6
CENTER
 62
   214
100
AcDbLine
 10
227.025795
 20
386.165786
 30
0.0
 11
227.025795
 21
375.297534
 31
0.0
  0
LINE
  5
128
100
AcDbEntity
  8
3
  6
CENTER
 62
   214
100
AcDbLine
 10
281.591669
 20
380.73166
 30
0.0
 11
292.45992
 21
380.73166
 31
0.0
  0
INSERT
  5
139
100
AcDbEntity
  8
0
  6
CONTINUOUS
 62
   214
100
AcDbBlockReference
  2
*G5
 10
0.0
 20
0.0
 30
0.0
  0
LINE
  5
13A
100
AcDbEntity
  8
3
  6
CENTER
 62
   214
100
AcDbLine
 10
341.591669
 20
380.73166
 30
0.0
 11
352.45992
 21
380.73166
 31
0.0
  0
INSERT
  5
14B
100
AcDbEntity
  8
0
  6
CONTINUOUS
 62
   214
100
AcDbBlockReference
  2
*G7
 10
0.0
 20
0.0
 30
0.0
  0
LINE
  5
14C
100
AcDbEntity
  8
3
  6
CENTER
 62
   214
100
AcDbLine
 10
347.025795
 20
386.165786
 30
0.0
 11
347.025795
 21
375.297534
 31
0.0
  0
LINE
  5
14D
100
AcDbEntity
  8
3
  6
CENTER
 62
   214
100
AcDbLine
 10
411.591669
 20
380.73166
 30
0.0
 11
422.45992
 21
380.73166
 31
0.0
  0
INSERT
  5
15E
100
AcDbEntity
  8
0
  6
CONTINUOUS
 62
   214
100
AcDbBlockReference
  2
*G9
 10
0.0
 20
0.0
 30
0.0
  0
LINE
  5
15F
100
AcDbEntity
  8
3
  6
CENTER
 62
   214
100
AcDbLine
 10
417.025795
 20
386.165786
 30
0.0
 11
417.025795
 21
375.297534
 31
0.0
  0
LINE
  5
160
100
AcDbEntity
  8
3
  6
CONTINUOUS
 62
   214
100
AcDbLine
 10
112.025795
 20
373.23166
 30
0.0
 11
462.025795
 21
373.23166
 31
0.0
  0
LINE
  5
161
100
AcDbEntity
  8
3
  6
CONTINUOUS
 62
   214
100
AcDbLine
 10
462.025795
 20
388.23166
 30
0.0
 11
112.025795
 21
388.23166
 31
0.0
  0
LINE
  5
162
100
AcDbEntity
  8
3
  6
CONTINUOUS
 62
   214
100
AcDbLine
 10
112.025795
 20
408.23166
 30
0.0
 11
462.025795
 21
408.23166
 31
0.0
  0
LINE
  5
163
100
AcDbEntity
  8
3
  6
CENTER
 62
   214
100
AcDbLine
 10
461.480342
 20
265.012026
 30
0.0
 11
107.049505
 21
265.012026
 31
0.0
  0
LINE
  5
164
100
AcDbEntity
  8
3
  6
CONTINUOUS
 62
   214
100
AcDbLine
 10
137.025795
 20
225.762026
 30
0.0
 11
437.025795
 21
225.762026
 31
0.0
  0
LINE
  5
165
100
AcDbEntity
  8
3
  6
CONTINUOUS
 62
   214
100
AcDbLine
 10
476.525795
 20
220.012026
 30
0.0
 11
97.525795
 21
220.012026
 31
0.0
  0
LINE
  5
166
100
AcDbEntity
  8
3
  6
CONTINUOUS
 62
   214
100
AcDbLine
 10
97.525795
 20
219.012026
 30
0.0
 11
476.525795
 21
219.012026
 31
0.0
  0
LINE
  5
167
100
AcDbEntity
  8
3
  6
CONTINUOUS
 62
   214
100
AcDbLine
 10
447.025795
 20
135.812567
 30
0.0
 11
127.025795
 21
135.812567
 31
0.0
  0
LINE
  5
168
100
AcDbEntity
  8
3
  6
CONTINUOUS
 62
   214
100
AcDbLine
 10
127.025795
 20
59.812567
 30
0.0
 11
447.025795
 21
59.812567
 31
0.0
  0
LINE
  5
169
100
AcDbEntity
  8
3
  6
CONTINUOUS
 62
   214
100
AcDbLine
 10
474.525795
 20
127.812567
 30
0.0
 11
99.525795
 21
127.812567
 31
0.0
  0
LINE
  5
16A
100
AcDbEntity
  8
3
  6
CONTINUOUS
 62
   214
100
AcDbLine
 10
474.525795
 20
67.812567
 30
0.0
 11
99.525795
 21
67.812567
 31
0.0
  0
LINE
  5
16B
100
AcDbEntity
  8
3
  6
CONTINUOUS
 62
   214
100
AcDbLine
 10
112.025795
 20
373.23166
 30
0.0
 11
112.025795
 21
408.23166
 31
0.0
  0
LINE
  5
16C
100
AcDbEntity
  8
3
  6
CONTINUOUS
 62
   214
100
AcDbLine
 10
137.025795
 20
225.762026
 30
0.0
 11
137.025795
 21
373.23166
 31
0.0
  0
LINE
  5
16D
100
AcDbEntity
  8
3
  6
CONTINUOUS
 62
   214
100
AcDbLine
 10
127.025795
 20
227.012026
 30
0.0
 11
137.025795
 21
227.012026
 31
0.0
  0
LINE
  5
16E
100
AcDbEntity
  8
3
  6
CONTINUOUS
 62
   214
100
AcDbLine
 10
137.025795
 20
303.012026
 30
0.0
 11
127.025795
 21
303.012026
 31
0.0
  0
LINE
  5
16F
100
AcDbEntity
  8
3
  6
CONTINUOUS
 62
   214
100
AcDbLine
 10
116.025795
 20
272.012026
 30
0.0
 11
117.025795
 21
272.012026
 31
0.0
  0
LINE
  5
170
100
AcDbEntity
  8
3
  6
CONTINUOUS
 62
   214
100
AcDbLine
 10
115.925795
 20
270.412026
 30
0.0
 11
116.025795
 21
270.412026
 31
0.0
  0
LINE
  5
171
100
AcDbEntity
  8
3
  6
CONTINUOUS
 62
   214
100
AcDbLine
 10
115.925795
 20
259.612026
 30
0.0
 11
116.025795
 21
259.612026
 31
0.0
  0
LINE
  5
172
100
AcDbEntity
  8
3
  6
CONTINUOUS
 62
   214
100
AcDbLine
 10
119.525795
 20
271.012026
 30
0.0
 11
120.025795
 21
271.012026
 31
0.0
  0
LINE
  5
173
100
AcDbEntity
  8
3
  6
CONTINUOUS
 62
   214
100
AcDbLine
 10
119.525795
 20
259.012026
 30
0.0
 11
120.025795
 21
259.012026
 31
0.0
  0
LINE
  5
174
100
AcDbEntity
  8
3
  6
CONTINUOUS
 62
   214
100
AcDbLine
 10
117.025795
 20
259.012026
 30
0.0
 11
117.525795
 21
259.012026
 31
0.0
  0
LINE
  5
175
100
AcDbEntity
  8
3
  6
CONTINUOUS
 62
   214
100
AcDbLine
 10
117.025795
 20
271.012026
 30
0.0
 11
117.525795
 21
271.012026
 31
0.0
  0
LINE
  5
176
100
AcDbEntity
  8
3
  6
CONTINUOUS
 62
   214
100
AcDbLine
 10
114.525795
 20
259.012026
 30
0.0
 11
114.525795
 21
271.012026
 31
0.0
  0
LINE
  5
177
100
AcDbEntity
  8
3
  6
CONTINUOUS
 62
   214
100
AcDbLine
 10
115.925795
 20
259.012026
 30
0.0
 11
114.525795
 21
259.012026
 31
0.0
  0
LINE
  5
178
100
AcDbEntity
  8
3
  6
CONTINUOUS
 62
   214
100
AcDbLine
 10
115.925795
 20
271.012026
 30
0.0
 11
115.925795
 21
259.012026
 31
0.0
  0
LINE
  5
179
100
AcDbEntity
  8
3
  6
CONTINUOUS
 62
   214
100
AcDbLine
 10
114.525795
 20
271.012026
 30
0.0
 11
115.925795
 21
271.012026
 31
0.0
  0
LINE
  5
17A
100
AcDbEntity
  8
3
  6
CONTINUOUS
 62
   214
100
AcDbLine
 10
120.025795
 20
255.012026
 30
0.0
 11
121.025795
 21
255.012026
 31
0.0
  0
LINE
  5
17B
100
AcDbEntity
  8
3
  6
CONTINUOUS
 62
   214
100
AcDbLine
 10
120.025795
 20
275.012026
 30
0.0
 11
120.025795
 21
255.012026
 31
0.0
  0
LINE
  5
17C
100
AcDbEntity
  8
3
  6
CONTINUOUS
 62
   214
100
AcDbLine
 10
121.025795
 20
275.012026
 30
0.0
 11
120.025795
 21
275.012026
 31
0.0
  0
LINE
  5
17D
100
AcDbEntity
  8
3
  6
CONTINUOUS
 62
   214
100
AcDbLine
 10
127.025795
 20
233.012026
 30
0.0
 11
125.525795
 21
228.512026
 31
0.0
  0
LINE
  5
17E
100
AcDbEntity
  8
3
  6
CONTINUOUS
 62
   214
100
AcDbLine
 10
127.025795
 20
297.012026
 30
0.0
 11
127.025795
 21
233.012026
 31
0.0
  0
LINE
  5
17F
100
AcDbEntity
  8
3
  6
CONTINUOUS
 62
   214
100
AcDbLine
 10
125.525795
 20
301.512026
 30
0.0
 11
127.025795
 21
297.012026
 31
0.0
  0
LINE
  5
180
100
AcDbEntity
  8
3
  6
CONTINUOUS
 62
   214
100
AcDbLine
 10
121.025795
 20
228.512026
 30
0.0
 11
121.025795
 21
301.512026
 31
0.0
  0
LINE
  5
181
100
AcDbEntity
  8
3
  6
CONTINUOUS
 62
   214
100
AcDbLine
 10
125.525795
 20
228.512026
 30
0.0
 11
121.025795
 21
228.512026
 31
0.0
  0
LINE
  5
182
100
AcDbEntity
  8
3
  6
CONTINUOUS
 62
   214
100
AcDbLine
 10
125.525795
 20
301.512026
 30
0.0
 11
125.525795
 21
228.512026
 31
0.0
  0
LINE
  5
183
100
AcDbEntity
  8
3
  6
CONTINUOUS
 62
   214
100
AcDbLine
 10
121.025795
 20
301.512026
 30
0.0
 11
125.525795
 21
301.512026
 31
0.0
  0
LINE
  5
184
100
AcDbEntity
  8
3
  6
CONTINUOUS
 62
   214
100
AcDbLine
 10
127.025795
 20
303.012026
 30
0.0
 11
127.025795
 21
227.012026
 31
0.0
  0
ARC
  5
185
100
AcDbEntity
  8
3
  6
CONTINUOUS
 62
   214
100
AcDbCircle
 10
117.525795
 20
222.012026
 30
0.0
 40
2.0
100
AcDbArc
 50
-90.0
 51
0.0
  0
LINE
  5
186
100
AcDbEntity
  8
3
  6
CONTINUOUS
 62
   214
100
AcDbLine
 10
119.525795
 20
293.012026
 30
0.0
 11
119.525795
 21
222.012026
 31
0.0
  0
LINE
  5
187
100
AcDbEntity
  8
3
  6
CONTINUOUS
 62
   214
100
AcDbLine
 10
117.525795
 20
293.012026
 30
0.0
 11
119.525795
 21
293.012026
 31
0.0
  0
LINE
  5
188
100
AcDbEntity
  8
3
  6
CONTINUOUS
 62
   214
100
AcDbLine
 10
117.525795
 20
222.012026
 30
0.0
 11
117.525795
 21
293.012026
 31
0.0
  0
LINE
  5
189
100
AcDbEntity
  8
3
  6
CONTINUOUS
 62
   214
100
AcDbLine
 10
97.525795
 20
222.012026
 30
0.0
 11
117.525795
 21
222.012026
 31
0.0
  0
LINE
  5
18A
100
AcDbEntity
  8
3
  6
CONTINUOUS
 62
   214
100
AcDbLine
 10
97.525795
 20
222.012026
 30
0.0
 11
97.525795
 21
219.012026
 31
0.0
  0
LINE
  5
18B
100
AcDbEntity
  8
3
  6
CONTINUOUS
 62
   214
100
AcDbLine
 10
127.025795
 20
67.812567
 30
0.0
 11
127.025795
 21
59.812567
 31
0.0
  0
LINE
  5
18C
100
AcDbEntity
  8
3
  6
CONTINUOUS
 62
   214
100
AcDbLine
 10
127.025795
 20
135.812567
 30
0.0
 11
127.025795
 21
127.812567
 31
0.0
  0
LINE
  5
18D
100
AcDbEntity
  8
3
  6
CONTINUOUS
 62
   214
100
AcDbLine
 10
127.025795
 20
67.812567
 30
0.0
 11
127.025795
 21
65.812567
 31
0.0
  0
LINE
  5
18E
100
AcDbEntity
  8
3
  6
CONTINUOUS
 62
   214
100
AcDbLine
 10
127.025795
 20
129.812567
 30
0.0
 11
127.025795
 21
127.812567
 31
0.0
  0
LINE
  5
18F
100
AcDbEntity
  8
3
  6
CONTINUOUS
 62
   214
100
AcDbLine
 10
125.525795
 20
67.812567
 30
0.0
 11
125.525795
 21
61.312567
 31
0.0
  0
LINE
  5
190
100
AcDbEntity
  8
3
  6
CONTINUOUS
 62
   214
100
AcDbLine
 10
125.525795
 20
134.312567
 30
0.0
 11
125.525795
 21
127.812567
 31
0.0
  0
LINE
  5
191
100
AcDbEntity
  8
3
  6
CONTINUOUS
 62
   214
100
AcDbLine
 10
121.025795
 20
127.812567
 30
0.0
 11
121.025795
 21
134.312567
 31
0.0
  0
LINE
  5
192
100
AcDbEntity
  8
3
  6
CONTINUOUS
 62
   214
100
AcDbLine
 10
121.025795
 20
61.312567
 30
0.0
 11
121.025795
 21
67.812567
 31
0.0
  0
LINE
  5
193
100
AcDbEntity
  8
3
  6
CONTINUOUS
 62
   214
100
AcDbLine
 10
127.025795
 20
65.812567
 30
0.0
 11
125.525795
 21
61.312567
 31
0.0
  0
LINE
  5
194
100
AcDbEntity
  8
3
  6
CONTINUOUS
 62
   214
100
AcDbLine
 10
125.525795
 20
134.312567
 30
0.0
 11
127.025795
 21
129.812567
 31
0.0
  0
LINE
  5
195
100
AcDbEntity
  8
3
  6
CONTINUOUS
 62
   214
100
AcDbLine
 10
125.525795
 20
61.312567
 30
0.0
 11
121.025795
 21
61.312567
 31
0.0
  0
LINE
  5
196
100
AcDbEntity
  8
3
  6
CONTINUOUS
 62
   214
100
AcDbLine
 10
121.025795
 20
134.312567
 30
0.0
 11
125.525795
 21
134.312567
 31
0.0
  0
CIRCLE
  5
197
100
AcDbEntity
  8
3
  6
CONTINUOUS
 62
   214
100
AcDbCircle
 10
105.525795
 20
75.812567
 30
0.0
 40
3.25
  0
LINE
  5
198
100
AcDbEntity
  8
3
  6
CENTER
 62
   214
100
AcDbLine
 10
105.525795
 20
70.902804
 30
0.0
 11
105.525795
 21
80.72233
 31
0.0
  0
LINE
  5
199
100
AcDbEntity
  8
3
  6
CENTER
 62
   214
100
AcDbLine
 10
100.616032
 20
75.812567
 30
0.0
 11
110.435557
 21
75.812567
 31
0.0
  0
CIRCLE
  5
19A
100
AcDbEntity
  8
3
  6
CONTINUOUS
 62
   214
100
AcDbCircle
 10
105.525795
 20
119.812567
 30
0.0
 40
3.25
  0
LINE
  5
19B
100
AcDbEntity
  8
3
  6
CENTER
 62
   214
100
AcDbLine
 10
105.525795
 20
114.902804
 30
0.0
 11
105.525795
 21
124.72233
 31
0.0
  0
LINE
  5
19C
100
AcDbEntity
  8
3
  6
CENTER
 62
   214
100
AcDbLine
 10
100.616032
 20
119.812567
 30
0.0
 11
110.435557
 21
119.812567
 31
0.0
  0
LINE
  5
19D
100
AcDbEntity
  8
3
  6
CONTINUOUS
 62
   214
100
AcDbLine
 10
99.525795
 20
127.812567
 30
0.0
 11
97.525795
 21
125.812567
 31
0.0
  0
LINE
  5
19E
100
AcDbEntity
  8
3
  6
CONTINUOUS
 62
   214
100
AcDbLine
 10
97.525795
 20
69.812567
 30
0.0
 11
97.525795
 21
125.812567
 31
0.0
  0
LINE
  5
19F
100
AcDbEntity
  8
3
  6
CONTINUOUS
 62
   214
100
AcDbLine
 10
99.525795
 20
67.812567
 30
0.0
 11
97.525795
 21
69.812567
 31
0.0
  0
LINE
  5
1A0
100
AcDbEntity
  8
3
  6
CENTER
 62
   214
100
AcDbLine
 10
287.025795
 20
140.22924
 30
0.0
 11
287.025795
 21
53.674067
 31
0.0
  0
LINE
  5
1A1
100
AcDbEntity
  8
3
  6
CENTER
 62
   214
100
AcDbLine
 10
281.472095
 20
400.23166
 30
0.0
 11
292.579494
 21
400.23166
 31
0.0
  0
CIRCLE
  5
1A2
100
AcDbEntity
  8
3
  6
CONTINUOUS
 62
   214
100
AcDbCircle
 10
287.025795
 20
400.23166
 30
0.0
 40
3.25
  0
CIRCLE
  5
1A3
100
AcDbEntity
  8
3
  6
CONTINUOUS
 62
   214
100
AcDbCircle
 10
287.025795
 20
119.812567
 30
0.0
 40
3.25
  0
LINE
  5
1A4
100
AcDbEntity
  8
3
  6
CENTER
 62
   214
100
AcDbLine
 10
282.116032
 20
119.812567
 30
0.0
 11
291.935557
 21
119.812567
 31
0.0
  0
CIRCLE
  5
1A5
100
AcDbEntity
  8
3
  6
CONTINUOUS
 62
   214
100
AcDbCircle
 10
287.025795
 20
75.812567
 30
0.0
 40
3.25
  0
LINE
  5
1A6
100
AcDbEntity
  8
3
  6
CENTER
 62
   214
100
AcDbLine
 10
282.116032
 20
75.812567
 30
0.0
 11
291.935557
 21
75.812567
 31
0.0
  0
LINE
  5
1A7
100
AcDbEntity
  8
3
  6
CONTINUOUS
 62
   214
100
AcDbLine
 10
631.490962
 20
388.23166
 30
0.0
 11
631.490962
 21
373.23166
 31
0.0
  0
LINE
  5
1A8
100
AcDbEntity
  8
3
  6
CONTINUOUS
 62
   214
100
AcDbLine
 10
632.990962
 20
388.23166
 30
0.0
 11
631.490962
 21
388.23166
 31
0.0
  0
LINE
  5
1A9
100
AcDbEntity
  8
3
  6
CENTER
 62
   214
100
AcDbLine
 10
629.522631
 20
400.23166
 30
0.0
 11
638.210243
 21
400.23166
 31
0.0
  0
LINE
  5
1AA
100
AcDbEntity
  8
3
  6
CONTINUOUS
 62
   214
100
AcDbLine
 10
642.240962
 20
220.012026
 30
0.0
 11
702.240962
 21
220.012026
 31
0.0
  0
ARC
  5
1AB
100
AcDbEntity
  8
3
  6
CONTINUOUS
 62
   214
100
AcDbCircle
 10
672.240962
 20
265.012026
 30
0.0
 40
39.25
100
AcDbArc
 50
-40.15247
 51
-139.84753
  0
LINE
  5
1AC
100
AcDbEntity
  8
3
  6
CONTINUOUS
 62
   214
100
AcDbLine
 10
632.990962
 20
265.012026
 30
0.0
 11
632.990962
 21
408.23166
 31
0.0
  0
ARC
  5
1AD
100
AcDbEntity
  8
3
  6
CONTINUOUS
 62
   214
100
AcDbCircle
 10
672.240962
 20
265.012026
 30
0.0
 40
7.0
100
AcDbArc
 50
-62.874105
 51
-117.125895
  0
LINE
  5
1AE
100
AcDbEntity
  8
3
  6
CONTINUOUS
 62
   214
100
AcDbLine
 10
669.049332
 20
258.781979
 30
0.0
 11
669.240962
 21
256.591634
 31
0.0
  0
LINE
  5
1AF
100
AcDbEntity
  8
3
  6
CONTINUOUS
 62
   214
100
AcDbLine
 10
675.432592
 20
258.781979
 30
0.0
 11
675.240962
 21
256.591634
 31
0.0
  0
ARC
  5
1B0
100
AcDbEntity
  8
3
  6
CONTINUOUS
 62
   214
100
AcDbCircle
 10
672.240962
 20
264.007833
 30
0.0
 40
8.0
100
AcDbArc
 50
-86.416678
 51
-67.975689
  0
CIRCLE
  5
1B1
100
AcDbEntity
  8
3
  6
CONTINUOUS
 62
   214
100
AcDbCircle
 10
673.990962
 20
257.747841
 30
0.0
 40
0.5
  0
LINE
  5
1B2
100
AcDbEntity
  8
3
  6
CONTINUOUS
 62
   214
100
AcDbLine
 10
672.740962
 20
256.023473
 30
0.0
 11
672.740962
 21
259.032896
 31
0.0
  0
ARC
  5
1B3
100
AcDbEntity
  8
3
  6
CONTINUOUS
 62
   214
100
AcDbCircle
 10
672.240962
 20
264.007833
 30
0.0
 40
8.0
100
AcDbArc
 50
-112.024311
 51
-93.583322
  0
CIRCLE
  5
1B4
100
AcDbEntity
  8
3
  6
CONTINUOUS
 62
   214
100
AcDbCircle
 10
670.490962
 20
257.747841
 30
0.0
 40
0.5
  0
LINE
  5
1B5
100
AcDbEntity
  8
3
  6
CONTINUOUS
 62
   214
100
AcDbLine
 10
671.740962
 20
256.023473
 30
0.0
 11
671.740962
 21
259.032896
 31
0.0
  0
CIRCLE
  5
1B6
100
AcDbEntity
  8
3
  6
CONTINUOUS
 62
   214
100
AcDbCircle
 10
672.240962
 20
265.012026
 30
0.0
 40
6.0
  0
ARC
  5
1B7
100
AcDbEntity
  8
3
  6
CONTINUOUS
 62
   214
100
AcDbCircle
 10
672.240962
 20
265.012026
 30
0.0
 40
32.0
100
AcDbArc
 50
61.044976
 51
118.955024
  0
ARC
  5
1B8
100
AcDbEntity
  8
3
  6
CONTINUOUS
 62
   214
100
AcDbCircle
 10
672.240962
 20
265.012026
 30
0.0
 40
32.0
100
AcDbArc
 50
-20.364135
 51
19.522464
  0
ARC
  5
1B9
100
AcDbEntity
  8
3
  6
CONTINUOUS
 62
   214
100
AcDbCircle
 10
672.240962
 20
265.012026
 30
0.0
 40
32.0
100
AcDbArc
 50
159.635865
 51
-159.635865
  0
LINE
  5
1BA
100
AcDbEntity
  8
3
  6
CENTER
 62
   214
100
AcDbLine
 10
672.240962
 20
312.089787
 30
0.0
 11
672.240962
 21
217.934266
 31
0.0
  0
LINE
  5
1BB
100
AcDbEntity
  8
3
  6
CENTER
 62
   214
100
AcDbLine
 10
625.163202
 20
265.012026
 30
0.0
 11
719.318723
 21
265.012026
 31
0.0
  0
LINE
  5
1BC
100
AcDbEntity
  8
3
  6
CONTINUOUS
 62
   214
100
AcDbLine
 10
702.240962
 20
288.012026
 30
0.0
 11
697.240962
 21
293.012026
 31
0.0
  0
LINE
  5
1BD
100
AcDbEntity
  8
3
  6
CONTINUOUS
 62
   214
100
AcDbLine
 10
647.240962
 20
293.012026
 30
0.0
 11
697.240962
 21
293.012026
 31
0.0
  0
LINE
  5
1BE
100
AcDbEntity
  8
3
  6
CONTINUOUS
 62
   214
100
AcDbLine
 10
702.240962
 20
219.012026
 30
0.0
 11
702.240962
 21
288.012026
 31
0.0
  0
LINE
  5
1BF
100
AcDbEntity
  8
3
  6
CONTINUOUS
 62
   214
100
AcDbLine
 10
642.240962
 20
288.012026
 30
0.0
 11
647.240962
 21
293.012026
 31
0.0
  0
LINE
  5
1C0
100
AcDbEntity
  8
3
  6
CONTINUOUS
 62
   214
100
AcDbLine
 10
642.240962
 20
219.012026
 30
0.0
 11
642.240962
 21
288.012026
 31
0.0
  0
ARC
  5
1C1
100
AcDbEntity
  8
3
  6
CONTINUOUS
 62
   214
100
AcDbCircle
 10
672.240962
 20
265.012026
 30
0.0
 40
6.1
100
AcDbArc
 50
131.053351
 51
48.946649
  0
LINE
  5
1C2
100
AcDbEntity
  8
3
  6
CONTINUOUS
 62
   214
100
AcDbLine
 10
668.234717
 20
269.612026
 30
0.0
 11
676.247207
 21
269.612026
 31
0.0
  0
LINE
  5
1C3
100
AcDbEntity
  8
3
  6
CONTINUOUS
 62
   214
100
AcDbLine
 10
642.240962
 20
222.012026
 30
0.0
 11
702.240962
 21
222.012026
 31
0.0
  0
LINE
  5
1C4
100
AcDbEntity
  8
3
  6
CONTINUOUS
 62
   214
100
AcDbLine
 10
642.240962
 20
219.012026
 30
0.0
 11
702.240962
 21
219.012026
 31
0.0
  0
LINE
  5
1C5
100
AcDbEntity
  8
3
  6
CONTINUOUS
 62
   214
100
AcDbLine
 10
634.990962
 20
408.23166
 30
0.0
 11
632.990962
 21
408.23166
 31
0.0
  0
LINE
  5
1C6
100
AcDbEntity
  8
3
  6
CONTINUOUS
 62
   214
100
AcDbLine
 10
634.990962
 20
373.23166
 30
0.0
 11
634.990962
 21
408.23166
 31
0.0
  0
LINE
  5
1C7
100
AcDbEntity
  8
3
  6
CONTINUOUS
 62
   214
100
AcDbLine
 10
437.025795
 20
373.23166
 30
0.0
 11
437.025795
 21
225.762026
 31
0.0
  0
LINE
  5
1C8
100
AcDbEntity
  8
3
  6
CONTINUOUS
 62
   214
100
AcDbLine
 10
462.025795
 20
373.23166
 30
0.0
 11
462.025795
 21
408.23166
 31
0.0
  0
LINE
  5
1C9
100
AcDbEntity
  8
3
  6
CONTINUOUS
 62
   214
100
AcDbLine
 10
437.025795
 20
227.012026
 30
0.0
 11
447.025795
 21
227.012026
 31
0.0
  0
LINE
  5
1CA
100
AcDbEntity
  8
3
  6
CONTINUOUS
 62
   214
100
AcDbLine
 10
447.025795
 20
303.012026
 30
0.0
 11
437.025795
 21
303.012026
 31
0.0
  0
LINE
  5
1CB
100
AcDbEntity
  8
3
  6
CONTINUOUS
 62
   214
100
AcDbLine
 10
457.025795
 20
269.512026
 30
0.0
 11
456.525795
 21
269.512026
 31
0.0
  0
LINE
  5
1CC
100
AcDbEntity
  8
3
  6
CONTINUOUS
 62
   214
100
AcDbLine
 10
459.525795
 20
269.512026
 30
0.0
 11
458.025795
 21
269.512026
 31
0.0
  0
LINE
  5
1CD
100
AcDbEntity
  8
3
  6
CONTINUOUS
 62
   214
100
AcDbLine
 10
458.125795
 20
259.612026
 30
0.0
 11
458.025795
 21
259.612026
 31
0.0
  0
LINE
  5
1CE
100
AcDbEntity
  8
3
  6
CONTINUOUS
 62
   214
100
AcDbLine
 10
457.025795
 20
272.012026
 30
0.0
 11
458.025795
 21
272.012026
 31
0.0
  0
LINE
  5
1CF
100
AcDbEntity
  8
3
  6
CONTINUOUS
 62
   214
100
AcDbLine
 10
459.525795
 20
259.012026
 30
0.0
 11
459.525795
 21
269.512026
 31
0.0
  0
LINE
  5
1D0
100
AcDbEntity
  8
3
  6
CONTINUOUS
 62
   214
100
AcDbLine
 10
458.125795
 20
269.512026
 30
0.0
 11
458.125795
 21
259.012026
 31
0.0
  0
LINE
  5
1D1
100
AcDbEntity
  8
3
  6
CONTINUOUS
 62
   214
100
AcDbLine
 10
454.525795
 20
271.012026
 30
0.0
 11
454.025794
 21
271.012026
 31
0.0
  0
LINE
  5
1D2
100
AcDbEntity
  8
3
  6
CONTINUOUS
 62
   214
100
AcDbLine
 10
454.525795
 20
259.012026
 30
0.0
 11
454.025794
 21
259.012026
 31
0.0
  0
LINE
  5
1D3
100
AcDbEntity
  8
3
  6
CONTINUOUS
 62
   214
100
AcDbLine
 10
457.025795
 20
259.012026
 30
0.0
 11
456.525795
 21
259.012026
 31
0.0
  0
LINE
  5
1D4
100
AcDbEntity
  8
3
  6
CONTINUOUS
 62
   214
100
AcDbLine
 10
458.125795
 20
259.012026
 30
0.0
 11
459.525795
 21
259.012026
 31
0.0
  0
LINE
  5
1D5
100
AcDbEntity
  8
3
  6
CONTINUOUS
 62
   214
100
AcDbLine
 10
454.025795
 20
255.012026
 30
0.0
 11
453.025795
 21
255.012026
 31
0.0
  0
LINE
  5
1D6
100
AcDbEntity
  8
3
  6
CONTINUOUS
 62
   214
100
AcDbLine
 10
454.025795
 20
275.012026
 30
0.0
 11
454.025795
 21
255.012026
 31
0.0
  0
LINE
  5
1D7
100
AcDbEntity
  8
3
  6
CONTINUOUS
 62
   214
100
AcDbLine
 10
453.025795
 20
275.012026
 30
0.0
 11
454.025795
 21
275.012026
 31
0.0
  0
LINE
  5
1D8
100
AcDbEntity
  8
3
  6
CONTINUOUS
 62
   214
100
AcDbLine
 10
447.025795
 20
233.012026
 30
0.0
 11
448.525795
 21
228.512026
 31
0.0
  0
LINE
  5
1D9
100
AcDbEntity
  8
3
  6
CONTINUOUS
 62
   214
100
AcDbLine
 10
448.525795
 20
301.512026
 30
0.0
 11
447.025795
 21
297.012026
 31
0.0
  0
LINE
  5
1DA
100
AcDbEntity
  8
3
  6
CONTINUOUS
 62
   214
100
AcDbLine
 10
453.025795
 20
228.512026
 30
0.0
 11
453.025795
 21
301.512026
 31
0.0
  0
LINE
  5
1DB
100
AcDbEntity
  8
3
  6
CONTINUOUS
 62
   214
100
AcDbLine
 10
448.525795
 20
228.512026
 30
0.0
 11
453.025795
 21
228.512026
 31
0.0
  0
LINE
  5
1DC
100
AcDbEntity
  8
3
  6
CONTINUOUS
 62
   214
100
AcDbLine
 10
448.525795
 20
301.512026
 30
0.0
 11
448.525795
 21
228.512026
 31
0.0
  0
LINE
  5
1DD
100
AcDbEntity
  8
3
  6
CONTINUOUS
 62
   214
100
AcDbLine
 10
453.025795
 20
301.512026
 30
0.0
 11
448.525795
 21
301.512026
 31
0.0
  0
LINE
  5
1DE
100
AcDbEntity
  8
3
  6
CONTINUOUS
 62
   214
100
AcDbLine
 10
447.025795
 20
227.012026
 30
0.0
 11
447.025795
 21
303.012026
 31
0.0
  0
LINE
  5
1DF
100
AcDbEntity
  8
3
  6
CONTINUOUS
 62
   214
100
AcDbLine
 10
476.525795
 20
219.012026
 30
0.0
 11
476.525795
 21
222.012026
 31
0.0
  0
ARC
  5
1E0
100
AcDbEntity
  8
3
  6
CONTINUOUS
 62
   214
100
AcDbCircle
 10
456.525795
 20
222.012026
 30
0.0
 40
2.0
100
AcDbArc
 50
-180.0
 51
-90.0
  0
LINE
  5
1E1
100
AcDbEntity
  8
3
  6
CONTINUOUS
 62
   214
100
AcDbLine
 10
454.525795
 20
293.012026
 30
0.0
 11
454.525795
 21
222.012026
 31
0.0
  0
LINE
  5
1E2
100
AcDbEntity
  8
3
  6
CONTINUOUS
 62
   214
100
AcDbLine
 10
456.525795
 20
293.012026
 30
0.0
 11
454.525795
 21
293.012026
 31
0.0
  0
LINE
  5
1E3
100
AcDbEntity
  8
3
  6
CONTINUOUS
 62
   214
100
AcDbLine
 10
456.525795
 20
222.012026
 30
0.0
 11
456.525795
 21
293.012026
 31
0.0
  0
LINE
  5
1E4
100
AcDbEntity
  8
3
  6
CONTINUOUS
 62
   214
100
AcDbLine
 10
476.525795
 20
222.012026
 30
0.0
 11
456.525795
 21
222.012026
 31
0.0
  0
LINE
  5
1E5
100
AcDbEntity
  8
3
  6
CONTINUOUS
 62
   214
100
AcDbLine
 10
447.025795
 20
127.812567
 30
0.0
 11
447.025795
 21
135.812567
 31
0.0
  0
LINE
  5
1E6
100
AcDbEntity
  8
3
  6
CONTINUOUS
 62
   214
100
AcDbLine
 10
447.025795
 20
59.812567
 30
0.0
 11
447.025795
 21
67.812567
 31
0.0
  0
LINE
  5
1E7
100
AcDbEntity
  8
3
  6
CONTINUOUS
 62
   214
100
AcDbLine
 10
448.525795
 20
67.812567
 30
0.0
 11
448.525795
 21
61.312567
 31
0.0
  0
LINE
  5
1E8
100
AcDbEntity
  8
3
  6
CONTINUOUS
 62
   214
100
AcDbLine
 10
448.525795
 20
134.312567
 30
0.0
 11
448.525795
 21
127.812567
 31
0.0
  0
LINE
  5
1E9
100
AcDbEntity
  8
3
  6
CONTINUOUS
 62
   214
100
AcDbLine
 10
453.025795
 20
127.812567
 30
0.0
 11
453.025795
 21
134.312567
 31
0.0
  0
LINE
  5
1EA
100
AcDbEntity
  8
3
  6
CONTINUOUS
 62
   214
100
AcDbLine
 10
453.025795
 20
61.312567
 30
0.0
 11
453.025795
 21
67.812567
 31
0.0
  0
LINE
  5
1EB
100
AcDbEntity
  8
3
  6
CONTINUOUS
 62
   214
100
AcDbLine
 10
447.025795
 20
65.812567
 30
0.0
 11
448.525795
 21
61.312567
 31
0.0
  0
LINE
  5
1EC
100
AcDbEntity
  8
3
  6
CONTINUOUS
 62
   214
100
AcDbLine
 10
448.525795
 20
134.312567
 30
0.0
 11
447.025795
 21
129.812567
 31
0.0
  0
LINE
  5
1ED
100
AcDbEntity
  8
3
  6
CONTINUOUS
 62
   214
100
AcDbLine
 10
448.525795
 20
61.312567
 30
0.0
 11
453.025795
 21
61.312567
 31
0.0
  0
LINE
  5
1EE
100
AcDbEntity
  8
3
  6
CONTINUOUS
 62
   214
100
AcDbLine
 10
453.025795
 20
134.312567
 30
0.0
 11
448.525795
 21
134.312567
 31
0.0
  0
CIRCLE
  5
1EF
100
AcDbEntity
  8
3
  6
CONTINUOUS
 62
   214
100
AcDbCircle
 10
468.525795
 20
119.812567
 30
0.0
 40
3.25
  0
LINE
  5
1F0
100
AcDbEntity
  8
3
  6
CENTER
 62
   214
100
AcDbLine
 10
468.525795
 20
114.902804
 30
0.0
 11
468.525795
 21
124.72233
 31
0.0
  0
LINE
  5
1F1
100
AcDbEntity
  8
3
  6
CENTER
 62
   214
100
AcDbLine
 10
463.616032
 20
119.812567
 30
0.0
 11
473.435557
 21
119.812567
 31
0.0
  0
CIRCLE
  5
1F2
100
AcDbEntity
  8
3
  6
CONTINUOUS
 62
   214
100
AcDbCircle
 10
468.525795
 20
75.812567
 30
0.0
 40
3.25
  0
LINE
  5
1F3
100
AcDbEntity
  8
3
  6
CENTER
 62
   214
100
AcDbLine
 10
468.525795
 20
70.902804
 30
0.0
 11
468.525795
 21
80.72233
 31
0.0
  0
LINE
  5
1F4
100
AcDbEntity
  8
3
  6
CENTER
 62
   214
100
AcDbLine
 10
463.616032
 20
75.812567
 30
0.0
 11
473.435557
 21
75.812567
 31
0.0
  0
LINE
  5
1F5
100
AcDbEntity
  8
3
  6
CONTINUOUS
 62
   214
100
AcDbLine
 10
476.525795
 20
125.812567
 30
0.0
 11
474.525795
 21
127.812567
 31
0.0
  0
LINE
  5
1F6
100
AcDbEntity
  8
3
  6
CONTINUOUS
 62
   214
100
AcDbLine
 10
476.525795
 20
69.812567
 30
0.0
 11
476.525795
 21
125.812567
 31
0.0
  0
LINE
  5
1F7
100
AcDbEntity
  8
3
  6
CONTINUOUS
 62
   214
100
AcDbLine
 10
474.525795
 20
67.812567
 30
0.0
 11
476.525795
 21
69.812567
 31
0.0
  0
LINE
  5
1F8
100
AcDbEntity
  8
3
  6
CONTINUOUS
 62
   214
100
AcDbLine
 10
637.290962
 20
380.33166
 30
0.0
 11
637.290962
 21
381.13166
 31
0.0
  0
LINE
  5
1F9
100
AcDbEntity
  8
3
  6
CONTINUOUS
 62
   214
100
AcDbLine
 10
631.490962
 20
373.23166
 30
0.0
 11
634.990962
 21
373.23166
 31
0.0
  0
ARC
  5
1FA
100
AcDbEntity
  8
3
  6
CONTINUOUS
 62
   214
100
AcDbCircle
 10
672.240962
 20
265.012026
 30
0.0
 40
38.0
100
AcDbArc
 50
-37.863646
 51
-142.136354
  0
DIMENSION
  5
206
100
AcDbEntity
  8
2
  6
CONTINUOUS
 62
   134
100
AcDbDimension
  2
*D11
 10
476.525795
 20
207.012026
 30
0.0
 11
287.025795
 21
207.012026
 31
0.0
  1
379
100
AcDbAlignedDimension
 13
476.525795
 23
218.512026
 33
0.0
 14
97.525795
 24
218.512026
 34
0.0
100
AcDbRotatedDimension
  0
DIMENSION
  5
212
100
AcDbEntity
  8
2
  6
CONTINUOUS
 62
   134
100
AcDbDimension
  2
*D12
 10
488.525795
 20
219.012026
 30
0.0
 11
488.525795
 21
256.012026
 31
0.0
  1
74
100
AcDbAlignedDimension
 13
477.025795
 23
219.012026
 33
0.0
 14
457.025795
 24
293.012026
 34
0.0
 50
90.0
100
AcDbRotatedDimension
  0
DIMENSION
  5
21E
100
AcDbEntity
  8
2
  6
CONTINUOUS
 62
   134
100
AcDbDimension
  2
*D13
 10
642.240962
 20
207.012026
 30
0.0
 11
672.240962
 21
207.012026
 31
0.0
  1
60
100
AcDbAlignedDimension
 13
642.240962
 23
218.512026
 33
0.0
 14
702.240962
 24
218.512026
 34
0.0
100
AcDbRotatedDimension
  0
LINE
  5
21F
100
AcDbEntity
  8
3
  6
CENTER
 62
   214
100
AcDbLine
 10
105.525795
 20
227.803576
 30
0.0
 11
105.525795
 21
212.908162
 31
0.0
  0
LINE
  5
220
100
AcDbEntity
  8
3
  6
CENTER
 62
   214
100
AcDbLine
 10
287.025795
 20
414.463987
 30
0.0
 11
287.025795
 21
211.187321
 31
0.0
  0
LINE
  5
221
100
AcDbEntity
  8
3
  6
CENTER
 62
   214
100
AcDbLine
 10
694.240962
 20
227.803576
 30
0.0
 11
694.240962
 21
212.908162
 31
0.0
  0
LINE
  5
222
100
AcDbEntity
  8
3
  6
CENTER
 62
   214
100
AcDbLine
 10
650.240962
 20
227.803576
 30
0.0
 11
650.240962
 21
212.908162
 31
0.0
  0
LINE
  5
223
100
AcDbEntity
  8
3
  6
CENTER
 62
   214
100
AcDbLine
 10
468.525795
 20
227.803576
 30
0.0
 11
468.525795
 21
212.908162
 31
0.0
  0
TEXT
  5
224
100
AcDbEntity
  8
10
  6
CONTINUOUS
 62
     3
100
AcDbText
 10
562.103957
 20
86.464187
 30
0.0
 40
10.0
  1
防塵安全カバー(テープ幅300用)
 41
0.852941
 11
562.103957
 21
86.464187
 31
0.0
100
AcDbText
 73
     1
  0
LINE
  5
225
100
AcDbEntity
  8
3
  6
CONTINUOUS
 62
   214
100
AcDbLine
 10
116.025795
 20
256.023473
 30
0.0
 11
117.025795
 21
256.023473
 31
0.0
  0
LINE
  5
226
100
AcDbEntity
  8
3
  6
CONTINUOUS
 62
   214
100
AcDbLine
 10
117.025795
 20
272.012026
 30
0.0
 11
117.025795
 21
256.023473
 31
0.0
  0
LINE
  5
227
100
AcDbEntity
  8
3
  6
CONTINUOUS
 62
   214
100
AcDbLine
 10
116.025795
 20
256.023473
 30
0.0
 11
116.025795
 21
272.012026
 31
0.0
  0
LINE
  5
228
100
AcDbEntity
  8
3
  6
CONTINUOUS
 62
   214
100
AcDbLine
 10
458.025795
 20
256.023473
 30
0.0
 11
457.025795
 21
256.023473
 31
0.0
  0
LINE
  5
229
100
AcDbEntity
  8
3
  6
CONTINUOUS
 62
   214
100
AcDbLine
 10
458.025795
 20
272.012026
 30
0.0
 11
458.025795
 21
256.023473
 31
0.0
  0
LINE
  5
22A
100
AcDbEntity
  8
3
  6
CONTINUOUS
 62
   214
100
AcDbLine
 10
457.025795
 20
272.012026
 30
0.0
 11
457.025795
 21
256.023473
 31
0.0
  0
LINE
  5
22B
100
AcDbEntity
  8
3
  6
CONTINUOUS
 62
   214
100
AcDbLine
 10
116.025795
 20
256.591635
 30
0.0
 11
117.025795
 21
256.591635
 31
0.0
  0
LINE
  5
22C
100
AcDbEntity
  8
3
  6
CONTINUOUS
 62
   214
100
AcDbLine
 10
116.025795
 20
258.781979
 30
0.0
 11
117.025795
 21
258.781979
 31
0.0
  0
LINE
  5
22D
100
AcDbEntity
  8
3
  6
CONTINUOUS
 62
   214
100
AcDbLine
 10
457.025795
 20
258.781979
 30
0.0
 11
458.025795
 21
258.781979
 31
0.0
  0
LINE
  5
22E
100
AcDbEntity
  8
3
  6
CONTINUOUS
 62
   214
100
AcDbLine
 10
457.025795
 20
256.591635
 30
0.0
 11
458.025795
 21
256.591635
 31
0.0
  0
ENDSEC
  0
SECTION
  2
OBJECTS
  0
DICTIONARY
  5
19
100
AcDbDictionary
  3
ACAD_GROUP
350
1A
  3
ACAD_MLINESTYLE
350
1B
  0
DICTIONARY
  5
1A
102
{ACAD_REACTORS
330
19
102
}
100
AcDbDictionary
  0
DICTIONARY
  5
1B
102
{ACAD_REACTORS
330
19
102
}
100
AcDbDictionary
  3
STANDARD
350
1C
  0
MLINESTYLE
  5
1C
102
{ACAD_REACTORS
330
1B
102
}
100
AcDbMlineStyle
  2
STANDARD
 70
     0
  3

 62
     0
 51
90.0
 52
90.0
 71
     2
 49
0.5
 62
   256
  6
BYLAYER
 49
-0.5
 62
   256
  6
BYLAYER
  0
ENDSEC
  0
EOF
