  0
SECTION
  2
HEADER
  9
$ACADVER
  1
AC1014
  9
$ACADMAINTVER
 70
     0
  9
$DWGCODEPAGE
  3
DOS932
  9
$INSBASE
 10
0.0
 20
0.0
 30
0.0
  9
$EXTMIN
 10
0.0
 20
0.0
 30
0.0
  9
$EXTMAX
 10
841.0
 20
594.0
 30
0.0
  9
$LIMMIN
 10
0.0
 20
0.0
  9
$LIMMAX
 10
841.0
 20
594.0
  9
$ORTHOMODE
 70
     0
  9
$REGENMODE
 70
     1
  9
$FILLMODE
 70
     1
  9
$QTEXTMODE
 70
     0
  9
$MIRRTEXT
 70
     1
  9
$DRAGMODE
 70
     2
  9
$LTSCALE
 40
0.25
  9
$OSMODE
 70
     0
  9
$ATTMODE
 70
     1
  9
$TEXTSIZE
 40
4.0
  9
$TRACEWID
 40
0.05
  9
$TEXTSTYLE
  7
STANDARD
  9
$CLAYER
  8
0
  9
$CELTYPE
  6
CONTINUOUS
  9
$CECOLOR
 62
   256
  9
$CELTSCALE
 40
1.0
  9
$DELOBJ
 70
     1
  9
$DISPSILH
 70
     0
  9
$DIMSCALE
 40
1.0
  9
$DIMASZ
 40
4.0
  9
$DIMEXO
 40
0.5
  9
$DIMDLI
 40
10.0
  9
$DIMRND
 40
0.0
  9
$DIMDLE
 40
0.0
  9
$DIMEXE
 40
2.0
  9
$DIMTP
 40
0.0
  9
$DIMTM
 40
0.0
  9
$DIMTXT
 40
4.0
  9
$DIMCEN
 40
0.09
  9
$DIMTSZ
 40
0.0
  9
$DIMTOL
 70
     0
  9
$DIMLIM
 70
     0
  9
$DIMTIH
 70
     0
  9
$DIMTOH
 70
     0
  9
$DIMSE1
 70
     0
  9
$DIMSE2
 70
     0
  9
$DIMTAD
 70
     3
  9
$DIMZIN
 70
     0
  9
$DIMBLK
  1

  9
$DIMASO
 70
     1
  9
$DIMSHO
 70
     1
  9
$DIMPOST
  1

  9
$DIMAPOST
  1

  9
$DIMALT
 70
     0
  9
$DIMALTD
 70
     2
  9
$DIMALTF
 40
25.4
  9
$DIMLFAC
 40
1.0
  9
$DIMTOFL
 70
     1
  9
$DIMTVP
 40
0.7
  9
$DIMTIX
 70
     0
  9
$DIMSOXD
 70
     0
  9
$DIMSAH
 70
     0
  9
$DIMBLK1
  1

  9
$DIMBLK2
  1

  9
$DIMSTYLE
  2
STANDARD
  9
$DIMCLRD
 70
     0
  9
$DIMCLRE
 70
     0
  9
$DIMCLRT
 70
     0
  9
$DIMTFAC
 40
0.5
  9
$DIMGAP
 40
0.0
  9
$DIMJUST
 70
     0
  9
$DIMSD1
 70
     0
  9
$DIMSD2
 70
     0
  9
$DIMTOLJ
 70
     1
  9
$DIMTZIN
 70
     0
  9
$DIMALTZ
 70
     0
  9
$DIMALTTZ
 70
     0
  9
$DIMFIT
 70
     3
  9
$DIMUPT
 70
     0
  9
$DIMUNIT
 70
     2
  9
$DIMDEC
 70
     2
  9
$DIMTDEC
 70
     4
  9
$DIMALTU
 70
     2
  9
$DIMALTTD
 70
     2
  9
$DIMTXSTY
  7
STANDARD
  9
$DIMAUNIT
 70
     0
  9
$LUNITS
 70
     2
  9
$LUPREC
 70
     4
  9
$SKETCHINC
 40
0.1
  9
$FILLETRAD
 40
0.0
  9
$AUNITS
 70
     0
  9
$AUPREC
 70
     0
  9
$MENU
  1
acad
  9
$ELEVATION
 40
0.0
  9
$PELEVATION
 40
0.0
  9
$THICKNESS
 40
0.0
  9
$LIMCHECK
 70
     0
  9
$BLIPMODE
 70
     1
  9
$CHAMFERA
 40
0.0
  9
$CHAMFERB
 40
0.0
  9
$CHAMFERC
 40
0.0
  9
$CHAMFERD
 40
0.0
  9
$SKPOLY
 70
     0
  9
$TDCREATE
 40
2453433.598472222
  9
$TDUPDATE
 40
2453433.598472222
  9
$TDINDWG
 40
0.0000000000
  9
$TDUSRTIMER
 40
0.0000000000
  9
$USRTIMER
 70
     1
  9
$ANGBASE
 50
0.0
  9
$ANGDIR
 70
     0
  9
$PDMODE
 70
     0
  9
$PDSIZE
 40
0.0
  9
$PLINEWID
 40
0.0
  9
$COORDS
 70
     0
  9
$SPLFRAME
 70
     0
  9
$SPLINETYPE
 70
     6
  9
$SPLINESEGS
 70
     8
  9
$ATTDIA
 70
     0
  9
$ATTREQ
 70
     1
  9
$HANDLING
 70
     1
  9
$HANDSEED
  5
1E2
  9
$SURFTAB1
 70
     6
  9
$SURFTAB2
 70
     6
  9
$SURFTYPE
 70
     6
  9
$SURFU
 70
     6
  9
$SURFV
 70
     6
  9
$UCSNAME
  2

  9
$UCSORG
 10
0.0
 20
0.0
 30
0.0
  9
$UCSXDIR
 10
1.0
 20
0.0
 30
0.0
  9
$UCSYDIR
 10
0.0
 20
1.0
 30
0.0
  9
$PUCSNAME
  2

  9
$PUCSORG
 10
0.0
 20
0.0
 30
0.0
  9
$PUCSXDIR
 10
1.0
 20
0.0
 30
0.0
  9
$PUCSYDIR
 10
0.0
 20
1.0
 30
0.0
  9
$USERI1
 70
     0
  9
$USERI2
 70
     0
  9
$USERI3
 70
     0
  9
$USERI4
 70
     0
  9
$USERI5
 70
     0
  9
$USERR1
 40
0.0
  9
$USERR2
 40
0.0
  9
$USERR3
 40
0.0
  9
$USERR4
 40
0.0
  9
$USERR5
 40
0.0
  9
$WORLDVIEW
 70
     1
  9
$SHADEDGE
 70
     3
  9
$SHADEDIF
 70
    70
  9
$TILEMODE
 70
     1
  9
$MAXACTVP
 70
    16
  9
$PINSBASE
 10
0.0
 20
0.0
 30
0.0
  9
$PLIMCHECK
 70
     0
  9
$PEXTMIN
 10
0.0
 20
0.0
 30
0.0
  9
$PEXTMAX
 10
841.0
 20
594.0
 30
0.0
  9
$PLIMMIN
 10
0.0
 20
0.0
  9
$PLIMMAX
 10
841.0
 20
594.0
  9
$UNITMODE
 70
     0
  9
$VISRETAIN
 70
     0
  9
$PLINEGEN
 70
     1
  9
$PSLTSCALE
 70
     0
  9
$TREEDEPTH
 70
  3020
  9
$PICKSTYLE
 70
     1
  9
$CMLSTYLE
  2
STANDARD
  9
$CMLJUST
 70
     0
  9
$CMLSCALE
 40
1.0
  9
$PROXYGRAPHICS
 70
     0
  9
$MEASUREMENT
 70
     0
  0
ENDSEC
  0
SECTION
  2
CLASSES
  0
CLASS
  1
LWPOLYLINE
  2
AcDbPolyline
  3
"AutoCAD"
 90
        0
280
     0
281
     1
  0
CLASS
  1
IMAGE
  2
AcDbRasterImage
  3
ISM
 90
      127
280
     0
281
     1
  0
CLASS
  1
OLE2FRAME
  2
AcDbOle2Frame
  3
""
 90
        0
280
     0
281
     1
  0
CLASS
  1
HATCH
  2
AcDbHatch
  3
"ACAD_SEDONA"
 90
        0
280
     0
281
     1
  0
CLASS
  1
DICTIONARYVAR
  2
AcDbDictionaryVar
  3
"AutoCAD"
 90
        0
280
     0
281
     0
  0
CLASS
  1
RASTERVARIABLES
  2
AcDbRasterVariables
  3
ISM
 90
        0
280
     0
281
     0
  0
CLASS
  1
IMAGEDEF
  2
AcDbRasterImageDef
  3
ISM
 90
        0
280
     0
281
     0
  0
CLASS
  1
IMAGEDEF_REACTOR
  2
AcDbRasterImageDefReactor
  3
ISM
 90
        1
280
     0
281
     0
  0
CLASS
  1
IDBUFFER
  2
AcDbIdBuffer
  3
"Acad"
 90
        0
280
     0
281
     0
  0
CLASS
  1
SPATIAL_FILTER
  2
AcDbSpatialFilter
  3
"Acad"
 90
        0
280
     0
281
     0
  0
CLASS
  1
XRECORD
  2
AcDbXrecord
  3
"<Built In>"
 90
        0
280
     0
281
     0
  0
CLASS
  1
SORTENTSTABLE
  2
AcDbSortentsTable
  3
"AutoCAD"
 90
        0
280
     0
281
     0
  0
CLASS
  1
LAYER_INDEX
  2
AcDbLayerIndex
  3
"Acad"
 90
        0
280
     0
281
     0
  0
CLASS
  1
SPATIAL_INDEX
  2
AcDbSpatialIndex
  3
"Acad"
 90
        0
280
     0
281
     0
  0
CLASS
  1
OBJECT_PTR
  2
CAseDLPNTableRecord
  3
"ASE-LPNTableRecord"
 90
        1
280
     0
281
     0
  0
CLASS
  1
LAYOUT
  2
AcDbLayout
  3
"AutoCAD 2000"
 90
        1
280
     0
281
     0
  0
CLASS
  1
PLOTSETTINGS
  2
AcDbPlotSettings
  3
"AutoCAD 2000"
 90
        1
280
     0
281
     0
  0
CLASS
  1
ACDBDICTIONARYWDFLT
  2
AcDbDictionaryWithDefault
  3
"AutoCAD 2000"
 90
        1
280
     0
281
     0
  0
CLASS
  1
ACDBPLACEHOLDER
  2
AcDbPlaceHolder
  3
"AutoCAD 2000"
 90
        1
280
     0
281
     0
  0
CLASS
  1
VBA_PROJECT
  2
AcDbVbaProject
  3
"acadvba"
 90
        1
280
     0
281
     0
  0
CLASS
  1
WIPEOUT
  2
AcDbWipeout
  3
WipeOut|AutoCAD Express Tool|expresstools@autodesk.com
 90
      127
280
     0
281
     1
  0
CLASS
  1
WIPEOUTVARIABLES
  2
AcDbWipeoutVariables
  3
WipeOut|AutoCAD Express Tool|expresstools@autodesk.com
 90
        0
280
     0
281
     0
  0
CLASS
  1
RTEXT
  2
RText
  3
RText|AutoCAD Express Tool|expresstools@autodesk.com
 90
        0
280
     0
281
     1
  0
CLASS
  1
ARCALIGNEDTEXT
  2
AcDbArcAlignedText
  3
ATEXT|AutoCAD Express Tool|expresstools@autodesk.com
 90
        0
280
     0
281
     1
  0
ENDSEC
  0
SECTION
  2
TABLES
  0
TABLE
  2
VPORT
  5
7
100
AcDbSymbolTable
 70
     1
  0
VPORT
  5
15
100
AcDbSymbolTableRecord
100
AcDbViewportTableRecord
  2
*ACTIVE
 70
     0
 10
0.0
 20
0.0
 11
1.0
 21
1.0
 12
6.591288
 22
4.579184
 13
0.0
 23
0.0
 14
1.0
 24
1.0
 15
0.0
 25
0.0
 16
0.0
 26
0.0
 36
1.0
 17
0.0
 27
0.0
 37
0.0
 40
9.158369
 41
0.688564
 42
50.0
 43
0.0
 44
0.0
 50
0.0
 51
0.0
 71
     0
 72
   100
 73
     1
 74
     1
 75
     0
 76
     0
 77
     0
 78
     0
  0
ENDTAB
  0
TABLE
  2
LTYPE
  5
4
100
AcDbSymbolTable
 70
     9
  0
LTYPE
  5
11
100
AcDbSymbolTableRecord
100
AcDbLinetypeTableRecord
  2
BYBLOCK
 70
    64
  3

 72
    65
 73
     0
 40
0.0
  0
LTYPE
  5
12
100
AcDbSymbolTableRecord
100
AcDbLinetypeTableRecord
  2
BYLAYER
 70
    64
  3

 72
    65
 73
     0
 40
0.0
  0
LTYPE
  5
13
100
AcDbSymbolTableRecord
100
AcDbLinetypeTableRecord
  2
CONTINUOUS
 70
    64
  3
Solid line
 72
    65
 73
     0
 40
0.0
  0
LTYPE
  5
1E
100
AcDbSymbolTableRecord
100
AcDbLinetypeTableRecord
  2
HIDDEN
 70
    64
  3
- - - - - - - - 
 72
    65
 73
     2
 40
12.6
 49
8.4
 74
     0
 49
-4.2
 74
     0
  0
LTYPE
  5
1F
100
AcDbSymbolTableRecord
100
AcDbLinetypeTableRecord
  2
DOT
 70
    64
  3
･ ･ ･ ･ ･ ･ ･ ･ 
 72
    65
 73
     2
 40
8.0
 49
6.0
 74
     0
 49
-2.0
 74
     0
  0
LTYPE
  5
20
100
AcDbSymbolTableRecord
100
AcDbLinetypeTableRecord
  2
CENTER
 70
    64
  3
- ･ - ･ - ･ - ･ 
 72
    65
 73
     4
 40
50.5
 49
30.0
 74
     0
 49
-9.0
 74
     0
 49
2.5
 74
     0
 49
-9.0
 74
     0
  0
LTYPE
  5
21
100
AcDbSymbolTableRecord
100
AcDbLinetypeTableRecord
  2
PHANTOM
 70
    64
  3
- ･･ - ･･ - ･･ - ･･ 
 72
    65
 73
     6
 40
58.0
 49
30.0
 74
     0
 49
-9.0
 74
     0
 49
2.5
 74
     0
 49
-5.0
 74
     0
 49
2.5
 74
     0
 49
-9.0
 74
     0
  0
LTYPE
  5
22
100
AcDbSymbolTableRecord
100
AcDbLinetypeTableRecord
  2
ACAD_ISO06W100
 70
    64
  3
____ ... ____ ... ____
 72
    65
 73
     8
 40
37.5
 49
24.0
 74
     0
 49
-3.0
 74
     0
 49
0.5
 74
     0
 49
-3.0
 74
     0
 49
0.5
 74
     0
 49
-3.0
 74
     0
 49
0.5
 74
     0
 49
-3.0
 74
     0
  0
LTYPE
  5
23
100
AcDbSymbolTableRecord
100
AcDbLinetypeTableRecord
  2
ACAD_ISO14W100
 70
    64
  3
__ . . . __ . . . __ . . . 
 72
    65
 73
     8
 40
25.5
 49
12.0
 74
     0
 49
-3.0
 74
     0
 49
0.5
 74
     0
 49
-3.0
 74
     0
 49
0.5
 74
     0
 49
-3.0
 74
     0
 49
0.5
 74
     0
 49
-3.0
 74
     0
  0
ENDTAB
  0
TABLE
  2
LAYER
  5
2
100
AcDbSymbolTable
 70
    22
  0
LAYER
  5
14
100
AcDbSymbolTableRecord
100
AcDbLayerTableRecord
  2
0
 70
     0
 62
     7
  6
CONTINUOUS
  0
LAYER
  5
24
100
AcDbSymbolTableRecord
100
AcDbLayerTableRecord
  2
1
 70
     0
 62
     7
  6
CONTINUOUS
  0
LAYER
  5
25
100
AcDbSymbolTableRecord
100
AcDbLayerTableRecord
  2
2
 70
     0
 62
   134
  6
CONTINUOUS
  0
LAYER
  5
26
100
AcDbSymbolTableRecord
100
AcDbLayerTableRecord
  2
3
 70
     0
 62
   214
  6
CONTINUOUS
  0
LAYER
  5
27
100
AcDbSymbolTableRecord
100
AcDbLayerTableRecord
  2
4
 70
     0
 62
    54
  6
CONTINUOUS
  0
LAYER
  5
28
100
AcDbSymbolTableRecord
100
AcDbLayerTableRecord
  2
5
 70
     0
 62
    94
  6
CONTINUOUS
  0
LAYER
  5
29
100
AcDbSymbolTableRecord
100
AcDbLayerTableRecord
  2
6
 70
     0
 62
    14
  6
CONTINUOUS
  0
LAYER
  5
2A
100
AcDbSymbolTableRecord
100
AcDbLayerTableRecord
  2
7
 70
     0
 62
     4
  6
CONTINUOUS
  0
LAYER
  5
2B
100
AcDbSymbolTableRecord
100
AcDbLayerTableRecord
  2
8
 70
     0
 62
     6
  6
CONTINUOUS
  0
LAYER
  5
2C
100
AcDbSymbolTableRecord
100
AcDbLayerTableRecord
  2
9
 70
     0
 62
     2
  6
CONTINUOUS
  0
LAYER
  5
2D
100
AcDbSymbolTableRecord
100
AcDbLayerTableRecord
  2
10
 70
     0
 62
     3
  6
CONTINUOUS
  0
LAYER
  5
2E
100
AcDbSymbolTableRecord
100
AcDbLayerTableRecord
  2
11
 70
     0
 62
   251
  6
CONTINUOUS
  0
LAYER
  5
2F
100
AcDbSymbolTableRecord
100
AcDbLayerTableRecord
  2
12
 70
     0
 62
   136
  6
CONTINUOUS
  0
LAYER
  5
30
100
AcDbSymbolTableRecord
100
AcDbLayerTableRecord
  2
13
 70
     0
 62
   216
  6
CONTINUOUS
  0
LAYER
  5
31
100
AcDbSymbolTableRecord
100
AcDbLayerTableRecord
  2
14
 70
     0
 62
    56
  6
CONTINUOUS
  0
LAYER
  5
32
100
AcDbSymbolTableRecord
100
AcDbLayerTableRecord
  2
15
 70
     0
 62
    96
  6
CONTINUOUS
  0
LAYER
  5
33
100
AcDbSymbolTableRecord
100
AcDbLayerTableRecord
  2
16
 70
     0
 62
    16
  6
CONTINUOUS
  0
LAYER
  5
34
100
AcDbSymbolTableRecord
100
AcDbLayerTableRecord
  2
17
 70
     0
 62
   132
  6
CONTINUOUS
  0
LAYER
  5
35
100
AcDbSymbolTableRecord
100
AcDbLayerTableRecord
  2
18
 70
     0
 62
   212
  6
CONTINUOUS
  0
LAYER
  5
36
100
AcDbSymbolTableRecord
100
AcDbLayerTableRecord
  2
19
 70
     0
 62
    52
  6
CONTINUOUS
  0
LAYER
  5
37
100
AcDbSymbolTableRecord
100
AcDbLayerTableRecord
  2
20
 70
     0
 62
   250
  6
CONTINUOUS
  0
LAYER
  5
38
100
AcDbSymbolTableRecord
100
AcDbLayerTableRecord
  2
21
 70
     0
 62
     7
  6
CONTINUOUS
  0
ENDTAB
  0
TABLE
  2
STYLE
  5
3
100
AcDbSymbolTable
 70
     2
  0
STYLE
  5
17
100
AcDbSymbolTableRecord
100
AcDbTextStyleTableRecord
  2
STANDARD
 70
     0
 40
0.0
 41
1.0
 50
0.0
 71
     0
 42
0.0
  3
txt
  4
bigfont
  0
STYLE
  5
1D
100
AcDbSymbolTableRecord
100
AcDbTextStyleTableRecord
  2
T_STANDARD
 70
    68
 40
10.0
 41
1.0
 50
0.0
 71
     0
 42
10.0
  3
txt
  4
bigfont
  0
ENDTAB
  0
TABLE
  2
VIEW
  5
5
100
AcDbSymbolTable
 70
     0
  0
ENDTAB
  0
TABLE
  2
UCS
  5
6
100
AcDbSymbolTable
 70
     0
  0
ENDTAB
  0
TABLE
  2
APPID
  5
8
100
AcDbSymbolTable
 70
     1
  0
APPID
  5
16
100
AcDbSymbolTableRecord
100
AcDbRegAppTableRecord
  2
ACAD
 70
     0
  0
ENDTAB
  0
TABLE
  2
DIMSTYLE
  5
9
100
AcDbSymbolTable
 70
     1
  0
DIMSTYLE
105
18
100
AcDbSymbolTableRecord
100
AcDbDimStyleTableRecord
  2
STANDARD
 70
     0
  3

  4

  5

  6

  7

 40
1.0
 41
0.18
 42
0.0625
 43
0.38
 44
0.18
 45
0.0
 46
0.0
 47
0.0
 48
0.0
 71
     0
 72
     0
 73
     1
 74
     1
 75
     0
 76
     0
 77
     0
 78
     0
140
0.18
141
0.09
142
0.0
143
25.4
144
1.0
145
0.0
146
1.0
147
0.09
170
     0
171
     2
172
     0
173
     0
174
     0
175
     0
176
     0
177
     0
178
     0
270
     2
271
     4
272
     4
273
     2
274
     2
275
     0
280
     0
281
     0
282
     0
283
     1
284
     0
285
     0
286
     0
287
     0
288
     0
340
17
  0
ENDTAB
  0
TABLE
  2
BLOCK_RECORD
  5
1
100
AcDbSymbolTable
 70
    10
  0
BLOCK_RECORD
  5
A
100
AcDbSymbolTableRecord
100
AcDbBlockTableRecord
  2
*MODEL_SPACE
  0
BLOCK_RECORD
  5
B
100
AcDbSymbolTableRecord
100
AcDbBlockTableRecord
  2
*PAPER_SPACE
  0
BLOCK_RECORD
  5
39
100
AcDbSymbolTableRecord
100
AcDbBlockTableRecord
  2
*G0
  0
BLOCK_RECORD
  5
C9
100
AcDbSymbolTableRecord
100
AcDbBlockTableRecord
  2
*G1
  0
BLOCK_RECORD
  5
CB
100
AcDbSymbolTableRecord
100
AcDbBlockTableRecord
  2
*G2
  0
BLOCK_RECORD
  5
DB
100
AcDbSymbolTableRecord
100
AcDbBlockTableRecord
  2
*G3
  0
BLOCK_RECORD
  5
DD
100
AcDbSymbolTableRecord
100
AcDbBlockTableRecord
  2
*G4
  0
BLOCK_RECORD
  5
EC
100
AcDbSymbolTableRecord
100
AcDbBlockTableRecord
  2
*G5
  0
BLOCK_RECORD
  5
EE
100
AcDbSymbolTableRecord
100
AcDbBlockTableRecord
  2
*G6
  0
BLOCK_RECORD
  5
1AE
100
AcDbSymbolTableRecord
100
AcDbBlockTableRecord
  2
*D7
  0
BLOCK_RECORD
  5
1BA
100
AcDbSymbolTableRecord
100
AcDbBlockTableRecord
  2
*D8
  0
BLOCK_RECORD
  5
1C6
100
AcDbSymbolTableRecord
100
AcDbBlockTableRecord
  2
*D9
  0
ENDTAB
  0
ENDSEC
  0
SECTION
  2
BLOCKS
  0
BLOCK
  5
D
100
AcDbEntity
  8
0
100
AcDbBlockBegin
  2
*MODEL_SPACE
 70
     0
 10
0.0
 20
0.0
 30
0.0
  3
*MODEL_SPACE
  1

  0
ENDBLK
  5
E
100
AcDbEntity
  8
0
100
AcDbBlockEnd
  0
BLOCK
  5
F
100
AcDbEntity
 67
     1
  8
0
100
AcDbBlockBegin
  2
*PAPER_SPACE
 70
     0
 10
0.0
 20
0.0
 30
0.0
  3
*PAPER_SPACE
  1

  0
ENDBLK
  5
10
100
AcDbEntity
 67
     1
  8
0
100
AcDbBlockEnd
  0
BLOCK
  5
3A
100
AcDbEntity
  8
0
  6
CONTINUOUS
 62
     7
100
AcDbBlockBegin
  2
*G0
 70
     0
 10
0.0
 20
0.0
 30
0.0
  3
*G0
  1

  0
ENDBLK
  5
3B
100
AcDbEntity
  8
0
100
AcDbBlockEnd
  0
BLOCK
  5
CA
100
AcDbEntity
  8
0
  6
CONTINUOUS
 62
   214
100
AcDbBlockBegin
  2
*G1
 70
     0
 10
0.0
 20
0.0
 30
0.0
  3
*G1
  1

  0
INSERT
  5
D4
100
AcDbEntity
  8
0
  6
CONTINUOUS
 62
   214
100
AcDbBlockReference
  2
*G2
 10
0.0
 20
0.0
 30
0.0
  0
CIRCLE
  5
D5
100
AcDbEntity
  8
3
  6
CONTINUOUS
 62
   214
100
AcDbCircle
 10
273.207585
 20
385.85
 30
0.0
 40
2.0
  0
CIRCLE
  5
D6
100
AcDbEntity
  8
3
  6
CONTINUOUS
 62
   214
100
AcDbCircle
 10
273.207585
 20
385.85
 30
0.0
 40
1.65
  0
CIRCLE
  5
D7
100
AcDbEntity
  8
3
  6
CONTINUOUS
 62
   214
100
AcDbCircle
 10
273.207585
 20
385.85
 30
0.0
 40
3.464707
  0
ENDBLK
  5
D8
100
AcDbEntity
  8
0
100
AcDbBlockEnd
  0
BLOCK
  5
CC
100
AcDbEntity
  8
0
  6
CONTINUOUS
 62
   214
100
AcDbBlockBegin
  2
*G2
 70
     0
 10
0.0
 20
0.0
 30
0.0
  3
*G2
  1

  0
LINE
  5
CD
100
AcDbEntity
  8
3
  6
CONTINUOUS
 62
   214
100
AcDbLine
 10
273.207585
 20
389.85
 30
0.0
 11
269.743483
 21
387.85
 31
0.0
  0
LINE
  5
CE
100
AcDbEntity
  8
3
  6
CONTINUOUS
 62
   214
100
AcDbLine
 10
269.743483
 20
387.85
 30
0.0
 11
269.743483
 21
383.85
 31
0.0
  0
LINE
  5
CF
100
AcDbEntity
  8
3
  6
CONTINUOUS
 62
   214
100
AcDbLine
 10
269.743483
 20
383.85
 30
0.0
 11
273.207585
 21
381.85
 31
0.0
  0
LINE
  5
D0
100
AcDbEntity
  8
3
  6
CONTINUOUS
 62
   214
100
AcDbLine
 10
273.207585
 20
381.85
 30
0.0
 11
276.671686
 21
383.85
 31
0.0
  0
LINE
  5
D1
100
AcDbEntity
  8
3
  6
CONTINUOUS
 62
   214
100
AcDbLine
 10
276.671686
 20
383.85
 30
0.0
 11
276.671686
 21
387.85
 31
0.0
  0
LINE
  5
D2
100
AcDbEntity
  8
3
  6
CONTINUOUS
 62
   214
100
AcDbLine
 10
276.671686
 20
387.85
 30
0.0
 11
273.207585
 21
389.85
 31
0.0
  0
ENDBLK
  5
D3
100
AcDbEntity
  8
0
100
AcDbBlockEnd
  0
BLOCK
  5
DC
100
AcDbEntity
  8
0
  6
CONTINUOUS
 62
   214
100
AcDbBlockBegin
  2
*G3
 70
     0
 10
0.0
 20
0.0
 30
0.0
  3
*G3
  1

  0
INSERT
  5
E6
100
AcDbEntity
  8
0
  6
CONTINUOUS
 62
   214
100
AcDbBlockReference
  2
*G4
 10
0.0
 20
0.0
 30
0.0
  0
CIRCLE
  5
E7
100
AcDbEntity
  8
3
  6
CONTINUOUS
 62
   214
100
AcDbCircle
 10
313.207585
 20
385.85
 30
0.0
 40
2.0
  0
CIRCLE
  5
E8
100
AcDbEntity
  8
3
  6
CONTINUOUS
 62
   214
100
AcDbCircle
 10
313.207585
 20
385.85
 30
0.0
 40
1.65
  0
CIRCLE
  5
E9
100
AcDbEntity
  8
3
  6
CONTINUOUS
 62
   214
100
AcDbCircle
 10
313.207585
 20
385.85
 30
0.0
 40
3.464707
  0
ENDBLK
  5
EA
100
AcDbEntity
  8
0
100
AcDbBlockEnd
  0
BLOCK
  5
DE
100
AcDbEntity
  8
0
  6
CONTINUOUS
 62
   214
100
AcDbBlockBegin
  2
*G4
 70
     0
 10
0.0
 20
0.0
 30
0.0
  3
*G4
  1

  0
LINE
  5
DF
100
AcDbEntity
  8
3
  6
CONTINUOUS
 62
   214
100
AcDbLine
 10
313.207585
 20
389.85
 30
0.0
 11
309.743483
 21
387.85
 31
0.0
  0
LINE
  5
E0
100
AcDbEntity
  8
3
  6
CONTINUOUS
 62
   214
100
AcDbLine
 10
309.743483
 20
387.85
 30
0.0
 11
309.743483
 21
383.85
 31
0.0
  0
LINE
  5
E1
100
AcDbEntity
  8
3
  6
CONTINUOUS
 62
   214
100
AcDbLine
 10
309.743483
 20
383.85
 30
0.0
 11
313.207585
 21
381.85
 31
0.0
  0
LINE
  5
E2
100
AcDbEntity
  8
3
  6
CONTINUOUS
 62
   214
100
AcDbLine
 10
313.207585
 20
381.85
 30
0.0
 11
316.671686
 21
383.85
 31
0.0
  0
LINE
  5
E3
100
AcDbEntity
  8
3
  6
CONTINUOUS
 62
   214
100
AcDbLine
 10
316.671686
 20
383.85
 30
0.0
 11
316.671686
 21
387.85
 31
0.0
  0
LINE
  5
E4
100
AcDbEntity
  8
3
  6
CONTINUOUS
 62
   214
100
AcDbLine
 10
316.671686
 20
387.85
 30
0.0
 11
313.207585
 21
389.85
 31
0.0
  0
ENDBLK
  5
E5
100
AcDbEntity
  8
0
100
AcDbBlockEnd
  0
BLOCK
  5
ED
100
AcDbEntity
  8
0
  6
CONTINUOUS
 62
   214
100
AcDbBlockBegin
  2
*G5
 70
     0
 10
0.0
 20
0.0
 30
0.0
  3
*G5
  1

  0
INSERT
  5
F7
100
AcDbEntity
  8
0
  6
CONTINUOUS
 62
   214
100
AcDbBlockReference
  2
*G6
 10
0.0
 20
0.0
 30
0.0
  0
CIRCLE
  5
F8
100
AcDbEntity
  8
3
  6
CONTINUOUS
 62
   214
100
AcDbCircle
 10
353.207585
 20
385.85
 30
0.0
 40
2.0
  0
CIRCLE
  5
F9
100
AcDbEntity
  8
3
  6
CONTINUOUS
 62
   214
100
AcDbCircle
 10
353.207585
 20
385.85
 30
0.0
 40
1.65
  0
CIRCLE
  5
FA
100
AcDbEntity
  8
3
  6
CONTINUOUS
 62
   214
100
AcDbCircle
 10
353.207585
 20
385.85
 30
0.0
 40
3.464707
  0
ENDBLK
  5
FB
100
AcDbEntity
  8
0
100
AcDbBlockEnd
  0
BLOCK
  5
EF
100
AcDbEntity
  8
0
  6
CONTINUOUS
 62
   214
100
AcDbBlockBegin
  2
*G6
 70
     0
 10
0.0
 20
0.0
 30
0.0
  3
*G6
  1

  0
LINE
  5
F0
100
AcDbEntity
  8
3
  6
CONTINUOUS
 62
   214
100
AcDbLine
 10
353.207585
 20
389.85
 30
0.0
 11
349.743483
 21
387.85
 31
0.0
  0
LINE
  5
F1
100
AcDbEntity
  8
3
  6
CONTINUOUS
 62
   214
100
AcDbLine
 10
349.743483
 20
387.85
 30
0.0
 11
349.743483
 21
383.85
 31
0.0
  0
LINE
  5
F2
100
AcDbEntity
  8
3
  6
CONTINUOUS
 62
   214
100
AcDbLine
 10
349.743483
 20
383.85
 30
0.0
 11
353.207585
 21
381.85
 31
0.0
  0
LINE
  5
F3
100
AcDbEntity
  8
3
  6
CONTINUOUS
 62
   214
100
AcDbLine
 10
353.207585
 20
381.85
 30
0.0
 11
356.671686
 21
383.85
 31
0.0
  0
LINE
  5
F4
100
AcDbEntity
  8
3
  6
CONTINUOUS
 62
   214
100
AcDbLine
 10
356.671686
 20
383.85
 30
0.0
 11
356.671686
 21
387.85
 31
0.0
  0
LINE
  5
F5
100
AcDbEntity
  8
3
  6
CONTINUOUS
 62
   214
100
AcDbLine
 10
356.671686
 20
387.85
 30
0.0
 11
353.207585
 21
389.85
 31
0.0
  0
ENDBLK
  5
F6
100
AcDbEntity
  8
0
100
AcDbBlockEnd
  0
BLOCK
  5
1AF
100
AcDbEntity
  8
2
  6
CONTINUOUS
 62
   134
100
AcDbBlockBegin
  2
*D7
 70
     0
 10
0.0
 20
0.0
 30
0.0
  3
*D7
  1

  0
LINE
  5
1B0
100
AcDbEntity
  8
2
  6
CONTINUOUS
 62
   134
100
AcDbLine
 10
223.707585
 20
212.130367
 30
0.0
 11
402.707585
 21
212.130367
 31
0.0
  0
LINE
  5
1B1
100
AcDbEntity
  8
2
  6
CONTINUOUS
 62
   134
100
AcDbLine
 10
223.707585
 20
210.130367
 30
0.0
 11
223.707585
 21
223.630367
 31
0.0
  0
LINE
  5
1B2
100
AcDbEntity
  8
2
  6
CONTINUOUS
 62
   134
100
AcDbLine
 10
402.707585
 20
210.130367
 30
0.0
 11
402.707585
 21
223.630367
 31
0.0
  0
LINE
  5
1B3
100
AcDbEntity
  8
2
  6
CONTINUOUS
 62
   134
100
AcDbLine
 10
223.707585
 20
212.130367
 30
0.0
 11
227.571288
 21
213.165643
 31
0.0
  0
LINE
  5
1B4
100
AcDbEntity
  8
2
  6
CONTINUOUS
 62
   134
100
AcDbLine
 10
223.707585
 20
212.130367
 30
0.0
 11
227.571288
 21
211.09509
 31
0.0
  0
LINE
  5
1B5
100
AcDbEntity
  8
2
  6
CONTINUOUS
 62
   134
100
AcDbLine
 10
402.707585
 20
212.130367
 30
0.0
 11
398.843881
 21
211.09509
 31
0.0
  0
LINE
  5
1B6
100
AcDbEntity
  8
2
  6
CONTINUOUS
 62
   134
100
AcDbLine
 10
402.707585
 20
212.130367
 30
0.0
 11
398.843881
 21
213.165643
 31
0.0
  0
TEXT
  5
1B7
100
AcDbEntity
  8
2
  6
CONTINUOUS
 62
   134
100
AcDbText
 10
310.207585
 20
212.130367
 30
0.0
 40
4.0
  1
179
 41
0.5
 11
310.207585
 21
212.130367
 31
0.0
100
AcDbText
 73
     1
  0
ENDBLK
  5
1B8
100
AcDbEntity
  8
2
  6
CONTINUOUS
 62
   134
100
AcDbBlockEnd
  0
BLOCK
  5
1BB
100
AcDbEntity
  8
2
  6
CONTINUOUS
 62
   134
100
AcDbBlockBegin
  2
*D8
 70
     0
 10
0.0
 20
0.0
 30
0.0
  3
*D8
  1

  0
LINE
  5
1BC
100
AcDbEntity
  8
2
  6
CONTINUOUS
 62
   134
100
AcDbLine
 10
414.707585
 20
224.130367
 30
0.0
 11
414.707585
 21
298.130367
 31
0.0
  0
LINE
  5
1BD
100
AcDbEntity
  8
2
  6
CONTINUOUS
 62
   134
100
AcDbLine
 10
416.707585
 20
224.130367
 30
0.0
 11
403.207585
 21
224.130367
 31
0.0
  0
LINE
  5
1BE
100
AcDbEntity
  8
2
  6
CONTINUOUS
 62
   134
100
AcDbLine
 10
416.707585
 20
298.130367
 30
0.0
 11
383.207585
 21
298.130367
 31
0.0
  0
LINE
  5
1BF
100
AcDbEntity
  8
2
  6
CONTINUOUS
 62
   134
100
AcDbLine
 10
414.707585
 20
224.130367
 30
0.0
 11
413.672308
 21
227.99407
 31
0.0
  0
LINE
  5
1C0
100
AcDbEntity
  8
2
  6
CONTINUOUS
 62
   134
100
AcDbLine
 10
414.707585
 20
224.130367
 30
0.0
 11
415.742861
 21
227.99407
 31
0.0
  0
LINE
  5
1C1
100
AcDbEntity
  8
2
  6
CONTINUOUS
 62
   134
100
AcDbLine
 10
414.707585
 20
298.130367
 30
0.0
 11
415.742861
 21
294.266663
 31
0.0
  0
LINE
  5
1C2
100
AcDbEntity
  8
2
  6
CONTINUOUS
 62
   134
100
AcDbLine
 10
414.707585
 20
298.130367
 30
0.0
 11
413.672308
 21
294.266663
 31
0.0
  0
TEXT
  5
1C3
100
AcDbEntity
  8
2
  6
CONTINUOUS
 62
   134
100
AcDbText
 10
414.707585
 20
259.130367
 30
0.0
 40
4.0
  1
74
 50
90.0
 41
0.5
 11
414.707585
 21
259.130367
 31
0.0
100
AcDbText
 73
     1
  0
ENDBLK
  5
1C4
100
AcDbEntity
  8
2
  6
CONTINUOUS
 62
   134
100
AcDbBlockEnd
  0
BLOCK
  5
1C7
100
AcDbEntity
  8
2
  6
CONTINUOUS
 62
   134
100
AcDbBlockBegin
  2
*D9
 70
     0
 10
0.0
 20
0.0
 30
0.0
  3
*D9
  1

  0
LINE
  5
1C8
100
AcDbEntity
  8
2
  6
CONTINUOUS
 62
   134
100
AcDbLine
 10
568.422752
 20
212.130367
 30
0.0
 11
628.422752
 21
212.130367
 31
0.0
  0
LINE
  5
1C9
100
AcDbEntity
  8
2
  6
CONTINUOUS
 62
   134
100
AcDbLine
 10
568.422752
 20
210.130367
 30
0.0
 11
568.422752
 21
223.630367
 31
0.0
  0
LINE
  5
1CA
100
AcDbEntity
  8
2
  6
CONTINUOUS
 62
   134
100
AcDbLine
 10
628.422752
 20
210.130367
 30
0.0
 11
628.422752
 21
223.630367
 31
0.0
  0
LINE
  5
1CB
100
AcDbEntity
  8
2
  6
CONTINUOUS
 62
   134
100
AcDbLine
 10
568.422752
 20
212.130367
 30
0.0
 11
572.286455
 21
213.165643
 31
0.0
  0
LINE
  5
1CC
100
AcDbEntity
  8
2
  6
CONTINUOUS
 62
   134
100
AcDbLine
 10
568.422752
 20
212.130367
 30
0.0
 11
572.286455
 21
211.09509
 31
0.0
  0
LINE
  5
1CD
100
AcDbEntity
  8
2
  6
CONTINUOUS
 62
   134
100
AcDbLine
 10
628.422752
 20
212.130367
 30
0.0
 11
624.559049
 21
211.09509
 31
0.0
  0
LINE
  5
1CE
100
AcDbEntity
  8
2
  6
CONTINUOUS
 62
   134
100
AcDbLine
 10
628.422752
 20
212.130367
 30
0.0
 11
624.559049
 21
213.165643
 31
0.0
  0
TEXT
  5
1CF
100
AcDbEntity
  8
2
  6
CONTINUOUS
 62
   134
100
AcDbText
 10
596.422752
 20
212.130367
 30
0.0
 40
4.0
  1
60
 41
0.5
 11
596.422752
 21
212.130367
 31
0.0
100
AcDbText
 73
     1
  0
ENDBLK
  5
1D0
100
AcDbEntity
  8
2
  6
CONTINUOUS
 62
   134
100
AcDbBlockEnd
  0
ENDSEC
  0
SECTION
  2
ENTITIES
  0
INSERT
  5
3C
100
AcDbEntity
  8
0
  6
CONTINUOUS
 62
     7
100
AcDbBlockReference
  2
*G0
 10
0.0
 20
0.0
 30
0.0
  0
LINE
  5
3D
100
AcDbEntity
  8
3
  6
CONTINUOUS
 62
   214
100
AcDbLine
 10
253.207585
 20
562.451871
 30
0.0
 11
253.207585
 21
487.201871
 31
0.0
  0
LINE
  5
3E
100
AcDbEntity
  8
3
  6
CONTINUOUS
 62
   214
100
AcDbLine
 10
373.207585
 20
487.201871
 30
0.0
 11
373.207585
 21
562.451871
 31
0.0
  0
LINE
  5
3F
100
AcDbEntity
  8
3
  6
CONTINUOUS
 62
   214
100
AcDbLine
 10
275.207585
 20
479.201871
 30
0.0
 11
271.207585
 21
479.201871
 31
0.0
  0
LINE
  5
40
100
AcDbEntity
  8
3
  6
CONTINUOUS
 62
   214
100
AcDbLine
 10
275.207585
 20
483.701871
 30
0.0
 11
275.207585
 21
479.201871
 31
0.0
  0
LINE
  5
41
100
AcDbEntity
  8
3
  6
CENTER
 62
   214
100
AcDbLine
 10
273.207585
 20
478.472357
 30
0.0
 11
273.207585
 21
491.070534
 31
0.0
  0
LINE
  5
42
100
AcDbEntity
  8
3
  6
CONTINUOUS
 62
   214
100
AcDbLine
 10
271.457585
 20
479.201871
 30
0.0
 11
271.457585
 21
480.501871
 31
0.0
  0
LINE
  5
43
100
AcDbEntity
  8
3
  6
CONTINUOUS
 62
   214
100
AcDbLine
 10
274.957585
 20
480.501871
 30
0.0
 11
274.957585
 21
479.201871
 31
0.0
  0
LINE
  5
44
100
AcDbEntity
  8
3
  6
CONTINUOUS
 62
   214
100
AcDbLine
 10
271.207585
 20
479.201871
 30
0.0
 11
271.207585
 21
483.701871
 31
0.0
  0
LINE
  5
45
100
AcDbEntity
  8
3
  6
CONTINUOUS
 62
   214
100
AcDbLine
 10
269.207585
 20
480.501871
 30
0.0
 11
269.207585
 21
483.701871
 31
0.0
  0
LINE
  5
46
100
AcDbEntity
  8
3
  6
CONTINUOUS
 62
   214
100
AcDbLine
 10
277.207584
 20
480.501871
 30
0.0
 11
269.207585
 21
480.501871
 31
0.0
  0
LINE
  5
47
100
AcDbEntity
  8
3
  6
CONTINUOUS
 62
   214
100
AcDbLine
 10
277.207584
 20
483.701871
 30
0.0
 11
277.207584
 21
480.501871
 31
0.0
  0
LINE
  5
48
100
AcDbEntity
  8
3
  6
CONTINUOUS
 62
   214
100
AcDbLine
 10
272.807585
 20
489.781651
 30
0.0
 11
272.807585
 21
489.501871
 31
0.0
  0
LINE
  5
49
100
AcDbEntity
  8
3
  6
CONTINUOUS
 62
   214
100
AcDbLine
 10
273.607585
 20
489.781651
 30
0.0
 11
273.607585
 21
489.501871
 31
0.0
  0
ARC
  5
4A
100
AcDbEntity
  8
3
  6
CONTINUOUS
 62
   214
100
AcDbCircle
 10
275.707585
 20
487.432424
 30
0.0
 40
1.0
100
AcDbArc
 50
0.0
 51
32.574018
  0
LINE
  5
4B
100
AcDbEntity
  8
3
  6
CONTINUOUS
 62
   214
100
AcDbLine
 10
276.707585
 20
487.432424
 30
0.0
 11
276.707585
 21
487.201871
 31
0.0
  0
ARC
  5
4C
100
AcDbEntity
  8
3
  6
CONTINUOUS
 62
   214
100
AcDbCircle
 10
273.207585
 20
485.835204
 30
0.0
 40
3.966667
100
AcDbArc
 50
32.574018
 51
84.212437
  0
ARC
  5
4D
100
AcDbEntity
  8
3
  6
CONTINUOUS
 62
   214
100
AcDbCircle
 10
270.707585
 20
487.432424
 30
0.0
 40
1.0
100
AcDbArc
 50
147.425982
 51
180.0
  0
ARC
  5
4E
100
AcDbEntity
  8
3
  6
CONTINUOUS
 62
   214
100
AcDbCircle
 10
273.207585
 20
485.835204
 30
0.0
 40
3.966667
100
AcDbArc
 50
95.787563
 51
147.425982
  0
LINE
  5
4F
100
AcDbEntity
  8
3
  6
CONTINUOUS
 62
   214
100
AcDbLine
 10
269.707585
 20
487.432424
 30
0.0
 11
269.707585
 21
487.201871
 31
0.0
  0
LINE
  5
50
100
AcDbEntity
  8
3
  6
CONTINUOUS
 62
   214
100
AcDbLine
 10
315.207585
 20
479.201871
 30
0.0
 11
311.207585
 21
479.201871
 31
0.0
  0
LINE
  5
51
100
AcDbEntity
  8
3
  6
CONTINUOUS
 62
   214
100
AcDbLine
 10
315.207585
 20
483.701871
 30
0.0
 11
315.207585
 21
479.201871
 31
0.0
  0
LINE
  5
52
100
AcDbEntity
  8
3
  6
CONTINUOUS
 62
   214
100
AcDbLine
 10
311.457585
 20
479.201871
 30
0.0
 11
311.457585
 21
480.501871
 31
0.0
  0
LINE
  5
53
100
AcDbEntity
  8
3
  6
CONTINUOUS
 62
   214
100
AcDbLine
 10
314.957585
 20
480.501871
 30
0.0
 11
314.957585
 21
479.201871
 31
0.0
  0
LINE
  5
54
100
AcDbEntity
  8
3
  6
CONTINUOUS
 62
   214
100
AcDbLine
 10
311.207585
 20
479.201871
 30
0.0
 11
311.207585
 21
483.701871
 31
0.0
  0
LINE
  5
55
100
AcDbEntity
  8
3
  6
CONTINUOUS
 62
   214
100
AcDbLine
 10
309.207585
 20
480.501871
 30
0.0
 11
309.207585
 21
483.701871
 31
0.0
  0
LINE
  5
56
100
AcDbEntity
  8
3
  6
CONTINUOUS
 62
   214
100
AcDbLine
 10
317.207584
 20
480.501871
 30
0.0
 11
309.207585
 21
480.501871
 31
0.0
  0
LINE
  5
57
100
AcDbEntity
  8
3
  6
CONTINUOUS
 62
   214
100
AcDbLine
 10
317.207584
 20
483.701871
 30
0.0
 11
317.207584
 21
480.501871
 31
0.0
  0
LINE
  5
58
100
AcDbEntity
  8
3
  6
CONTINUOUS
 62
   214
100
AcDbLine
 10
312.807585
 20
489.781651
 30
0.0
 11
312.807585
 21
489.501871
 31
0.0
  0
LINE
  5
59
100
AcDbEntity
  8
3
  6
CONTINUOUS
 62
   214
100
AcDbLine
 10
313.607585
 20
489.781651
 30
0.0
 11
313.607585
 21
489.501871
 31
0.0
  0
ARC
  5
5A
100
AcDbEntity
  8
3
  6
CONTINUOUS
 62
   214
100
AcDbCircle
 10
315.707585
 20
487.432424
 30
0.0
 40
1.0
100
AcDbArc
 50
0.0
 51
32.574018
  0
LINE
  5
5B
100
AcDbEntity
  8
3
  6
CONTINUOUS
 62
   214
100
AcDbLine
 10
316.707585
 20
487.432424
 30
0.0
 11
316.707585
 21
487.201871
 31
0.0
  0
ARC
  5
5C
100
AcDbEntity
  8
3
  6
CONTINUOUS
 62
   214
100
AcDbCircle
 10
313.207585
 20
485.835204
 30
0.0
 40
3.966667
100
AcDbArc
 50
32.574018
 51
84.212437
  0
ARC
  5
5D
100
AcDbEntity
  8
3
  6
CONTINUOUS
 62
   214
100
AcDbCircle
 10
310.707585
 20
487.432424
 30
0.0
 40
1.0
100
AcDbArc
 50
147.425982
 51
180.0
  0
ARC
  5
5E
100
AcDbEntity
  8
3
  6
CONTINUOUS
 62
   214
100
AcDbCircle
 10
313.207585
 20
485.835204
 30
0.0
 40
3.966667
100
AcDbArc
 50
95.787563
 51
147.425982
  0
LINE
  5
5F
100
AcDbEntity
  8
3
  6
CONTINUOUS
 62
   214
100
AcDbLine
 10
309.707585
 20
487.432424
 30
0.0
 11
309.707585
 21
487.201871
 31
0.0
  0
LINE
  5
60
100
AcDbEntity
  8
3
  6
CONTINUOUS
 62
   214
100
AcDbLine
 10
355.207585
 20
479.201871
 30
0.0
 11
351.207585
 21
479.201871
 31
0.0
  0
LINE
  5
61
100
AcDbEntity
  8
3
  6
CONTINUOUS
 62
   214
100
AcDbLine
 10
355.207585
 20
483.701871
 30
0.0
 11
355.207585
 21
479.201871
 31
0.0
  0
LINE
  5
62
100
AcDbEntity
  8
3
  6
CENTER
 62
   214
100
AcDbLine
 10
353.207585
 20
478.472357
 30
0.0
 11
353.207585
 21
491.070534
 31
0.0
  0
LINE
  5
63
100
AcDbEntity
  8
3
  6
CONTINUOUS
 62
   214
100
AcDbLine
 10
351.457585
 20
479.201871
 30
0.0
 11
351.457585
 21
480.501871
 31
0.0
  0
LINE
  5
64
100
AcDbEntity
  8
3
  6
CONTINUOUS
 62
   214
100
AcDbLine
 10
354.957585
 20
480.501871
 30
0.0
 11
354.957585
 21
479.201871
 31
0.0
  0
LINE
  5
65
100
AcDbEntity
  8
3
  6
CONTINUOUS
 62
   214
100
AcDbLine
 10
351.207585
 20
479.201871
 30
0.0
 11
351.207585
 21
483.701871
 31
0.0
  0
LINE
  5
66
100
AcDbEntity
  8
3
  6
CONTINUOUS
 62
   214
100
AcDbLine
 10
349.207585
 20
480.501871
 30
0.0
 11
349.207585
 21
483.701871
 31
0.0
  0
LINE
  5
67
100
AcDbEntity
  8
3
  6
CONTINUOUS
 62
   214
100
AcDbLine
 10
357.207584
 20
480.501871
 30
0.0
 11
349.207585
 21
480.501871
 31
0.0
  0
LINE
  5
68
100
AcDbEntity
  8
3
  6
CONTINUOUS
 62
   214
100
AcDbLine
 10
357.207584
 20
483.701871
 30
0.0
 11
357.207584
 21
480.501871
 31
0.0
  0
LINE
  5
69
100
AcDbEntity
  8
3
  6
CONTINUOUS
 62
   214
100
AcDbLine
 10
352.807585
 20
489.781651
 30
0.0
 11
352.807585
 21
489.501871
 31
0.0
  0
LINE
  5
6A
100
AcDbEntity
  8
3
  6
CONTINUOUS
 62
   214
100
AcDbLine
 10
353.607585
 20
489.781651
 30
0.0
 11
353.607585
 21
489.501871
 31
0.0
  0
ARC
  5
6B
100
AcDbEntity
  8
3
  6
CONTINUOUS
 62
   214
100
AcDbCircle
 10
355.707585
 20
487.432424
 30
0.0
 40
1.0
100
AcDbArc
 50
0.0
 51
32.574018
  0
LINE
  5
6C
100
AcDbEntity
  8
3
  6
CONTINUOUS
 62
   214
100
AcDbLine
 10
356.707585
 20
487.432424
 30
0.0
 11
356.707585
 21
487.201871
 31
0.0
  0
ARC
  5
6D
100
AcDbEntity
  8
3
  6
CONTINUOUS
 62
   214
100
AcDbCircle
 10
353.207585
 20
485.835204
 30
0.0
 40
3.966667
100
AcDbArc
 50
32.574018
 51
84.212437
  0
ARC
  5
6E
100
AcDbEntity
  8
3
  6
CONTINUOUS
 62
   214
100
AcDbCircle
 10
350.707585
 20
487.432424
 30
0.0
 40
1.0
100
AcDbArc
 50
147.425982
 51
180.0
  0
ARC
  5
6F
100
AcDbEntity
  8
3
  6
CONTINUOUS
 62
   214
100
AcDbCircle
 10
353.207585
 20
485.835204
 30
0.0
 40
3.966667
100
AcDbArc
 50
95.787563
 51
147.425982
  0
LINE
  5
70
100
AcDbEntity
  8
3
  6
CONTINUOUS
 62
   214
100
AcDbLine
 10
349.707585
 20
487.432424
 30
0.0
 11
349.707585
 21
487.201871
 31
0.0
  0
LINE
  5
71
100
AcDbEntity
  8
3
  6
CONTINUOUS
 62
   214
100
AcDbLine
 10
388.207585
 20
483.701871
 30
0.0
 11
238.207585
 21
483.701871
 31
0.0
  0
LINE
  5
72
100
AcDbEntity
  8
3
  6
CONTINUOUS
 62
   214
100
AcDbLine
 10
388.207585
 20
483.701871
 30
0.0
 11
388.207585
 21
487.201871
 31
0.0
  0
LINE
  5
73
100
AcDbEntity
  8
3
  6
CONTINUOUS
 62
   214
100
AcDbLine
 10
238.207585
 20
483.701871
 30
0.0
 11
238.207585
 21
487.201871
 31
0.0
  0
LINE
  5
74
100
AcDbEntity
  8
3
  6
CONTINUOUS
 62
   214
100
AcDbLine
 10
388.207585
 20
487.201871
 30
0.0
 11
238.207585
 21
487.201871
 31
0.0
  0
LINE
  5
75
100
AcDbEntity
  8
3
  6
CONTINUOUS
 62
   214
100
AcDbLine
 10
238.207585
 20
485.201871
 30
0.0
 11
388.207585
 21
485.201871
 31
0.0
  0
LINE
  5
76
100
AcDbEntity
  8
3
  6
CONTINUOUS
 62
   214
100
AcDbLine
 10
380.207585
 20
514.451871
 30
0.0
 11
379.207585
 21
514.451871
 31
0.0
  0
LINE
  5
77
100
AcDbEntity
  8
3
  6
CONTINUOUS
 62
   214
100
AcDbLine
 10
380.207585
 20
534.451871
 30
0.0
 11
380.207585
 21
514.451871
 31
0.0
  0
LINE
  5
78
100
AcDbEntity
  8
3
  6
CONTINUOUS
 62
   214
100
AcDbLine
 10
379.207585
 20
534.451871
 30
0.0
 11
380.207585
 21
534.451871
 31
0.0
  0
LINE
  5
79
100
AcDbEntity
  8
3
  6
CONTINUOUS
 62
   214
100
AcDbLine
 10
246.207585
 20
514.451871
 30
0.0
 11
247.207585
 21
514.451871
 31
0.0
  0
LINE
  5
7A
100
AcDbEntity
  8
3
  6
CONTINUOUS
 62
   214
100
AcDbLine
 10
246.207585
 20
534.451871
 30
0.0
 11
246.207585
 21
514.451871
 31
0.0
  0
LINE
  5
7B
100
AcDbEntity
  8
3
  6
CONTINUOUS
 62
   214
100
AcDbLine
 10
247.207585
 20
534.451871
 30
0.0
 11
246.207585
 21
534.451871
 31
0.0
  0
LINE
  5
7C
100
AcDbEntity
  8
3
  6
CENTER
 62
   214
100
AcDbLine
 10
387.662132
 20
524.451871
 30
0.0
 11
233.231295
 21
524.451871
 31
0.0
  0
LINE
  5
7D
100
AcDbEntity
  8
3
  6
CONTINUOUS
 62
   214
100
AcDbLine
 10
383.207585
 20
528.951871
 30
0.0
 11
382.707585
 21
528.951871
 31
0.0
  0
LINE
  5
7E
100
AcDbEntity
  8
3
  6
CONTINUOUS
 62
   214
100
AcDbLine
 10
385.707585
 20
528.951871
 30
0.0
 11
384.207585
 21
528.951871
 31
0.0
  0
LINE
  5
7F
100
AcDbEntity
  8
3
  6
CONTINUOUS
 62
   214
100
AcDbLine
 10
384.307585
 20
519.051871
 30
0.0
 11
384.207585
 21
519.051871
 31
0.0
  0
LINE
  5
80
100
AcDbEntity
  8
3
  6
CONTINUOUS
 62
   214
100
AcDbLine
 10
384.207585
 20
517.451871
 30
0.0
 11
383.207585
 21
517.451871
 31
0.0
  0
LINE
  5
81
100
AcDbEntity
  8
3
  6
CONTINUOUS
 62
   214
100
AcDbLine
 10
384.207585
 20
531.451871
 30
0.0
 11
384.207585
 21
517.451871
 31
0.0
  0
LINE
  5
82
100
AcDbEntity
  8
3
  6
CONTINUOUS
 62
   214
100
AcDbLine
 10
383.207585
 20
531.451871
 30
0.0
 11
384.207585
 21
531.451871
 31
0.0
  0
LINE
  5
83
100
AcDbEntity
  8
3
  6
CONTINUOUS
 62
   214
100
AcDbLine
 10
383.207585
 20
531.451871
 30
0.0
 11
383.207585
 21
517.451871
 31
0.0
  0
LINE
  5
84
100
AcDbEntity
  8
3
  6
CONTINUOUS
 62
   214
100
AcDbLine
 10
385.707585
 20
518.451871
 30
0.0
 11
385.707585
 21
528.951871
 31
0.0
  0
LINE
  5
85
100
AcDbEntity
  8
3
  6
CONTINUOUS
 62
   214
100
AcDbLine
 10
384.307585
 20
528.951871
 30
0.0
 11
384.307585
 21
518.451871
 31
0.0
  0
LINE
  5
86
100
AcDbEntity
  8
3
  6
CONTINUOUS
 62
   214
100
AcDbLine
 10
380.707585
 20
530.451871
 30
0.0
 11
380.207584
 21
530.451871
 31
0.0
  0
LINE
  5
87
100
AcDbEntity
  8
3
  6
CONTINUOUS
 62
   214
100
AcDbLine
 10
380.707585
 20
518.451871
 30
0.0
 11
380.207584
 21
518.451871
 31
0.0
  0
LINE
  5
88
100
AcDbEntity
  8
3
  6
CONTINUOUS
 62
   214
100
AcDbLine
 10
383.207585
 20
518.451871
 30
0.0
 11
382.707585
 21
518.451871
 31
0.0
  0
LINE
  5
89
100
AcDbEntity
  8
3
  6
CONTINUOUS
 62
   214
100
AcDbLine
 10
384.307585
 20
518.451871
 30
0.0
 11
385.707585
 21
518.451871
 31
0.0
  0
LINE
  5
8A
100
AcDbEntity
  8
3
  6
CONTINUOUS
 62
   214
100
AcDbLine
 10
242.207585
 20
531.451871
 30
0.0
 11
243.207585
 21
531.451871
 31
0.0
  0
LINE
  5
8B
100
AcDbEntity
  8
3
  6
CONTINUOUS
 62
   214
100
AcDbLine
 10
242.107585
 20
529.851871
 30
0.0
 11
242.207585
 21
529.851871
 31
0.0
  0
LINE
  5
8C
100
AcDbEntity
  8
3
  6
CONTINUOUS
 62
   214
100
AcDbLine
 10
242.107585
 20
519.051871
 30
0.0
 11
242.207585
 21
519.051871
 31
0.0
  0
LINE
  5
8D
100
AcDbEntity
  8
3
  6
CONTINUOUS
 62
   214
100
AcDbLine
 10
242.207585
 20
517.451871
 30
0.0
 11
243.207585
 21
517.451871
 31
0.0
  0
LINE
  5
8E
100
AcDbEntity
  8
3
  6
CONTINUOUS
 62
   214
100
AcDbLine
 10
243.207585
 20
531.451871
 30
0.0
 11
243.207585
 21
517.451871
 31
0.0
  0
LINE
  5
8F
100
AcDbEntity
  8
3
  6
CONTINUOUS
 62
   214
100
AcDbLine
 10
242.207585
 20
517.451871
 30
0.0
 11
242.207585
 21
531.451871
 31
0.0
  0
LINE
  5
90
100
AcDbEntity
  8
3
  6
CONTINUOUS
 62
   214
100
AcDbLine
 10
245.707585
 20
530.451871
 30
0.0
 11
246.207585
 21
530.451871
 31
0.0
  0
LINE
  5
91
100
AcDbEntity
  8
3
  6
CONTINUOUS
 62
   214
100
AcDbLine
 10
245.707585
 20
518.451871
 30
0.0
 11
246.207585
 21
518.451871
 31
0.0
  0
LINE
  5
92
100
AcDbEntity
  8
3
  6
CONTINUOUS
 62
   214
100
AcDbLine
 10
243.207585
 20
518.451871
 30
0.0
 11
243.707585
 21
518.451871
 31
0.0
  0
LINE
  5
93
100
AcDbEntity
  8
3
  6
CONTINUOUS
 62
   214
100
AcDbLine
 10
243.207585
 20
530.451871
 30
0.0
 11
243.707585
 21
530.451871
 31
0.0
  0
LINE
  5
94
100
AcDbEntity
  8
3
  6
CONTINUOUS
 62
   214
100
AcDbLine
 10
240.707585
 20
518.451871
 30
0.0
 11
240.707585
 21
530.451871
 31
0.0
  0
LINE
  5
95
100
AcDbEntity
  8
3
  6
CONTINUOUS
 62
   214
100
AcDbLine
 10
242.107585
 20
518.451871
 30
0.0
 11
240.707585
 21
518.451871
 31
0.0
  0
LINE
  5
96
100
AcDbEntity
  8
3
  6
CONTINUOUS
 62
   214
100
AcDbLine
 10
242.107585
 20
530.451871
 30
0.0
 11
242.107585
 21
518.451871
 31
0.0
  0
LINE
  5
97
100
AcDbEntity
  8
3
  6
CONTINUOUS
 62
   214
100
AcDbLine
 10
240.707585
 20
530.451871
 30
0.0
 11
242.107585
 21
530.451871
 31
0.0
  0
CIRCLE
  5
98
100
AcDbEntity
  8
3
  6
HIDDEN
 62
   214
100
AcDbCircle
 10
313.207585
 20
546.451871
 30
0.0
 40
3.25
  0
CIRCLE
  5
99
100
AcDbEntity
  8
3
  6
HIDDEN
 62
   214
100
AcDbCircle
 10
313.207585
 20
502.451871
 30
0.0
 40
3.25
  0
LINE
  5
9A
100
AcDbEntity
  8
3
  6
HIDDEN
 62
   214
100
AcDbLine
 10
379.207585
 20
554.451871
 30
0.0
 11
247.207585
 21
554.451871
 31
0.0
  0
LINE
  5
9B
100
AcDbEntity
  8
3
  6
HIDDEN
 62
   214
100
AcDbLine
 10
379.207585
 20
494.451871
 30
0.0
 11
247.207585
 21
494.451871
 31
0.0
  0
LINE
  5
9C
100
AcDbEntity
  8
3
  6
CONTINUOUS
 62
   214
100
AcDbLine
 10
247.207585
 20
494.451871
 30
0.0
 11
225.707585
 21
494.451871
 31
0.0
  0
LINE
  5
9D
100
AcDbEntity
  8
3
  6
CONTINUOUS
 62
   214
100
AcDbLine
 10
400.707585
 20
494.451871
 30
0.0
 11
379.207585
 21
494.451871
 31
0.0
  0
LINE
  5
9E
100
AcDbEntity
  8
3
  6
CONTINUOUS
 62
   214
100
AcDbLine
 10
400.707585
 20
554.451871
 30
0.0
 11
379.207585
 21
554.451871
 31
0.0
  0
LINE
  5
9F
100
AcDbEntity
  8
3
  6
CONTINUOUS
 62
   214
100
AcDbLine
 10
247.207585
 20
554.451871
 30
0.0
 11
225.707585
 21
554.451871
 31
0.0
  0
LINE
  5
A0
100
AcDbEntity
  8
3
  6
CONTINUOUS
 62
   214
100
AcDbLine
 10
379.207585
 20
487.951871
 30
0.0
 11
379.207585
 21
560.951871
 31
0.0
  0
LINE
  5
A1
100
AcDbEntity
  8
3
  6
CONTINUOUS
 62
   214
100
AcDbLine
 10
374.707585
 20
560.951871
 30
0.0
 11
374.707585
 21
487.951871
 31
0.0
  0
LINE
  5
A2
100
AcDbEntity
  8
3
  6
CONTINUOUS
 62
   214
100
AcDbLine
 10
251.707585
 20
487.951871
 30
0.0
 11
251.707585
 21
560.951871
 31
0.0
  0
LINE
  5
A3
100
AcDbEntity
  8
3
  6
CONTINUOUS
 62
   214
100
AcDbLine
 10
247.207585
 20
560.951871
 30
0.0
 11
247.207585
 21
487.951871
 31
0.0
  0
LINE
  5
A4
100
AcDbEntity
  8
3
  6
CONTINUOUS
 62
   214
100
AcDbLine
 10
380.707585
 20
494.451871
 30
0.0
 11
380.707585
 21
554.451871
 31
0.0
  0
LINE
  5
A5
100
AcDbEntity
  8
3
  6
CONTINUOUS
 62
   214
100
AcDbLine
 10
382.707585
 20
554.451871
 30
0.0
 11
382.707585
 21
494.451871
 31
0.0
  0
LINE
  5
A6
100
AcDbEntity
  8
3
  6
CONTINUOUS
 62
   214
100
AcDbLine
 10
245.707585
 20
554.451871
 30
0.0
 11
245.707585
 21
494.451871
 31
0.0
  0
LINE
  5
A7
100
AcDbEntity
  8
3
  6
CONTINUOUS
 62
   214
100
AcDbLine
 10
243.707585
 20
554.451871
 30
0.0
 11
243.707585
 21
494.451871
 31
0.0
  0
LINE
  5
A8
100
AcDbEntity
  8
3
  6
CONTINUOUS
 62
   214
100
AcDbLine
 10
253.207585
 20
562.451871
 30
0.0
 11
373.207585
 21
562.451871
 31
0.0
  0
LINE
  5
A9
100
AcDbEntity
  8
3
  6
CONTINUOUS
 62
   214
100
AcDbLine
 10
373.207585
 20
556.451871
 30
0.0
 11
374.707585
 21
560.951871
 31
0.0
  0
LINE
  5
AA
100
AcDbEntity
  8
3
  6
CONTINUOUS
 62
   214
100
AcDbLine
 10
374.707585
 20
487.951871
 30
0.0
 11
373.207585
 21
492.451871
 31
0.0
  0
LINE
  5
AB
100
AcDbEntity
  8
3
  6
CONTINUOUS
 62
   214
100
AcDbLine
 10
374.707585
 20
560.951871
 30
0.0
 11
379.207585
 21
560.951871
 31
0.0
  0
LINE
  5
AC
100
AcDbEntity
  8
3
  6
CONTINUOUS
 62
   214
100
AcDbLine
 10
379.207585
 20
487.951871
 30
0.0
 11
374.707585
 21
487.951871
 31
0.0
  0
CIRCLE
  5
AD
100
AcDbEntity
  8
3
  6
CONTINUOUS
 62
   214
100
AcDbCircle
 10
394.707585
 20
502.451871
 30
0.0
 40
3.25
  0
LINE
  5
AE
100
AcDbEntity
  8
3
  6
CENTER
 62
   214
100
AcDbLine
 10
394.707585
 20
507.361633
 30
0.0
 11
394.707585
 21
497.542108
 31
0.0
  0
LINE
  5
AF
100
AcDbEntity
  8
3
  6
CENTER
 62
   214
100
AcDbLine
 10
389.797822
 20
502.451871
 30
0.0
 11
399.617347
 21
502.451871
 31
0.0
  0
CIRCLE
  5
B0
100
AcDbEntity
  8
3
  6
CONTINUOUS
 62
   214
100
AcDbCircle
 10
394.707585
 20
546.451871
 30
0.0
 40
3.25
  0
LINE
  5
B1
100
AcDbEntity
  8
3
  6
CENTER
 62
   214
100
AcDbLine
 10
394.707585
 20
551.361633
 30
0.0
 11
394.707585
 21
541.542108
 31
0.0
  0
LINE
  5
B2
100
AcDbEntity
  8
3
  6
CENTER
 62
   214
100
AcDbLine
 10
389.797822
 20
546.451871
 30
0.0
 11
399.617347
 21
546.451871
 31
0.0
  0
LINE
  5
B3
100
AcDbEntity
  8
3
  6
CONTINUOUS
 62
   214
100
AcDbLine
 10
402.707585
 20
496.451871
 30
0.0
 11
400.707585
 21
494.451871
 31
0.0
  0
LINE
  5
B4
100
AcDbEntity
  8
3
  6
CONTINUOUS
 62
   214
100
AcDbLine
 10
402.707585
 20
552.451871
 30
0.0
 11
402.707585
 21
496.451871
 31
0.0
  0
LINE
  5
B5
100
AcDbEntity
  8
3
  6
CONTINUOUS
 62
   214
100
AcDbLine
 10
400.707585
 20
554.451871
 30
0.0
 11
402.707585
 21
552.451871
 31
0.0
  0
LINE
  5
B6
100
AcDbEntity
  8
3
  6
CONTINUOUS
 62
   214
100
AcDbLine
 10
253.207585
 20
554.451871
 30
0.0
 11
253.207585
 21
556.451871
 31
0.0
  0
LINE
  5
B7
100
AcDbEntity
  8
3
  6
CONTINUOUS
 62
   214
100
AcDbLine
 10
253.207585
 20
492.451871
 30
0.0
 11
253.207585
 21
494.451871
 31
0.0
  0
LINE
  5
B8
100
AcDbEntity
  8
3
  6
CONTINUOUS
 62
   214
100
AcDbLine
 10
253.207585
 20
556.451871
 30
0.0
 11
251.707585
 21
560.951871
 31
0.0
  0
LINE
  5
B9
100
AcDbEntity
  8
3
  6
CONTINUOUS
 62
   214
100
AcDbLine
 10
251.707585
 20
487.951871
 30
0.0
 11
253.207585
 21
492.451871
 31
0.0
  0
LINE
  5
BA
100
AcDbEntity
  8
3
  6
CONTINUOUS
 62
   214
100
AcDbLine
 10
251.707585
 20
560.951871
 30
0.0
 11
247.207585
 21
560.951871
 31
0.0
  0
LINE
  5
BB
100
AcDbEntity
  8
3
  6
CONTINUOUS
 62
   214
100
AcDbLine
 10
247.207585
 20
487.951871
 30
0.0
 11
251.707585
 21
487.951871
 31
0.0
  0
CIRCLE
  5
BC
100
AcDbEntity
  8
3
  6
CONTINUOUS
 62
   214
100
AcDbCircle
 10
231.707585
 20
546.451871
 30
0.0
 40
3.25
  0
LINE
  5
BD
100
AcDbEntity
  8
3
  6
CENTER
 62
   214
100
AcDbLine
 10
231.707585
 20
551.361633
 30
0.0
 11
231.707585
 21
541.542108
 31
0.0
  0
LINE
  5
BE
100
AcDbEntity
  8
3
  6
CENTER
 62
   214
100
AcDbLine
 10
226.797822
 20
546.451871
 30
0.0
 11
236.617347
 21
546.451871
 31
0.0
  0
CIRCLE
  5
BF
100
AcDbEntity
  8
3
  6
CONTINUOUS
 62
   214
100
AcDbCircle
 10
231.707585
 20
502.451871
 30
0.0
 40
3.25
  0
LINE
  5
C0
100
AcDbEntity
  8
3
  6
CENTER
 62
   214
100
AcDbLine
 10
231.707585
 20
507.361633
 30
0.0
 11
231.707585
 21
497.542108
 31
0.0
  0
LINE
  5
C1
100
AcDbEntity
  8
3
  6
CENTER
 62
   214
100
AcDbLine
 10
226.797822
 20
502.451871
 30
0.0
 11
236.617347
 21
502.451871
 31
0.0
  0
LINE
  5
C2
100
AcDbEntity
  8
3
  6
CONTINUOUS
 62
   214
100
AcDbLine
 10
225.707585
 20
494.451871
 30
0.0
 11
223.707585
 21
496.451871
 31
0.0
  0
LINE
  5
C3
100
AcDbEntity
  8
3
  6
CONTINUOUS
 62
   214
100
AcDbLine
 10
223.707585
 20
552.451871
 30
0.0
 11
223.707585
 21
496.451871
 31
0.0
  0
LINE
  5
C4
100
AcDbEntity
  8
3
  6
CONTINUOUS
 62
   214
100
AcDbLine
 10
225.707585
 20
554.451871
 30
0.0
 11
223.707585
 21
552.451871
 31
0.0
  0
LINE
  5
C5
100
AcDbEntity
  8
3
  6
CENTER
 62
   214
100
AcDbLine
 10
308.297822
 20
502.451871
 30
0.0
 11
318.117347
 21
502.451871
 31
0.0
  0
LINE
  5
C6
100
AcDbEntity
  8
3
  6
CENTER
 62
   214
100
AcDbLine
 10
308.297822
 20
546.451871
 30
0.0
 11
318.117347
 21
546.451871
 31
0.0
  0
LINE
  5
C7
100
AcDbEntity
  8
3
  6
CENTER
 62
   214
100
AcDbLine
 10
267.773459
 20
385.85
 30
0.0
 11
278.64171
 21
385.85
 31
0.0
  0
LINE
  5
C8
100
AcDbEntity
  8
3
  6
CENTER
 62
   214
100
AcDbLine
 10
307.773459
 20
385.85
 30
0.0
 11
318.64171
 21
385.85
 31
0.0
  0
INSERT
  5
D9
100
AcDbEntity
  8
0
  6
CONTINUOUS
 62
   214
100
AcDbBlockReference
  2
*G1
 10
0.0
 20
0.0
 30
0.0
  0
LINE
  5
DA
100
AcDbEntity
  8
3
  6
CENTER
 62
   214
100
AcDbLine
 10
273.207585
 20
391.284126
 30
0.0
 11
273.207585
 21
380.415874
 31
0.0
  0
INSERT
  5
EB
100
AcDbEntity
  8
0
  6
CONTINUOUS
 62
   214
100
AcDbBlockReference
  2
*G3
 10
0.0
 20
0.0
 30
0.0
  0
INSERT
  5
FC
100
AcDbEntity
  8
0
  6
CONTINUOUS
 62
   214
100
AcDbBlockReference
  2
*G5
 10
0.0
 20
0.0
 30
0.0
  0
LINE
  5
FD
100
AcDbEntity
  8
3
  6
CENTER
 62
   214
100
AcDbLine
 10
347.773459
 20
385.85
 30
0.0
 11
358.64171
 21
385.85
 31
0.0
  0
LINE
  5
FE
100
AcDbEntity
  8
3
  6
CENTER
 62
   214
100
AcDbLine
 10
353.207585
 20
391.284126
 30
0.0
 11
353.207585
 21
380.415874
 31
0.0
  0
LINE
  5
FF
100
AcDbEntity
  8
3
  6
CONTINUOUS
 62
   214
100
AcDbLine
 10
553.172752
 20
383.85
 30
0.0
 11
553.172752
 21
387.85
 31
0.0
  0
LINE
  5
100
100
AcDbEntity
  8
3
  6
CONTINUOUS
 62
   214
100
AcDbLine
 10
557.672752
 20
383.85
 30
0.0
 11
553.172752
 21
383.85
 31
0.0
  0
LINE
  5
101
100
AcDbEntity
  8
3
  6
CENTER
 62
   214
100
AcDbLine
 10
552.443239
 20
385.85
 30
0.0
 11
565.041415
 21
385.85
 31
0.0
  0
LINE
  5
102
100
AcDbEntity
  8
3
  6
CONTINUOUS
 62
   214
100
AcDbLine
 10
553.172752
 20
387.6
 30
0.0
 11
554.472753
 21
387.6
 31
0.0
  0
LINE
  5
103
100
AcDbEntity
  8
3
  6
CONTINUOUS
 62
   214
100
AcDbLine
 10
554.472753
 20
384.1
 30
0.0
 11
553.172752
 21
384.1
 31
0.0
  0
LINE
  5
104
100
AcDbEntity
  8
3
  6
CONTINUOUS
 62
   214
100
AcDbLine
 10
553.172752
 20
387.85
 30
0.0
 11
557.672753
 21
387.85
 31
0.0
  0
LINE
  5
105
100
AcDbEntity
  8
3
  6
CONTINUOUS
 62
   214
100
AcDbLine
 10
557.672752
 20
381.850001
 30
0.0
 11
557.672752
 21
389.85
 31
0.0
  0
LINE
  5
106
100
AcDbEntity
  8
3
  6
CONTINUOUS
 62
   214
100
AcDbLine
 10
554.472753
 20
389.85
 30
0.0
 11
557.672753
 21
389.85
 31
0.0
  0
LINE
  5
107
100
AcDbEntity
  8
3
  6
CONTINUOUS
 62
   214
100
AcDbLine
 10
554.472753
 20
381.850001
 30
0.0
 11
554.472753
 21
389.85
 31
0.0
  0
LINE
  5
108
100
AcDbEntity
  8
3
  6
CONTINUOUS
 62
   214
100
AcDbLine
 10
557.672752
 20
381.850001
 30
0.0
 11
554.472753
 21
381.850001
 31
0.0
  0
LINE
  5
109
100
AcDbEntity
  8
3
  6
CONTINUOUS
 62
   214
100
AcDbLine
 10
563.752533
 20
386.25
 30
0.0
 11
563.472752
 21
386.25
 31
0.0
  0
LINE
  5
10A
100
AcDbEntity
  8
3
  6
CONTINUOUS
 62
   214
100
AcDbLine
 10
563.752533
 20
385.45
 30
0.0
 11
563.472752
 21
385.45
 31
0.0
  0
ARC
  5
10B
100
AcDbEntity
  8
3
  6
CONTINUOUS
 62
   214
100
AcDbCircle
 10
561.403306
 20
383.35
 30
0.0
 40
1.0
100
AcDbArc
 50
-90.0
 51
-57.425982
  0
LINE
  5
10C
100
AcDbEntity
  8
3
  6
CONTINUOUS
 62
   214
100
AcDbLine
 10
561.403306
 20
382.35
 30
0.0
 11
561.172752
 21
382.35
 31
0.0
  0
ARC
  5
10D
100
AcDbEntity
  8
3
  6
CONTINUOUS
 62
   214
100
AcDbCircle
 10
559.806086
 20
385.85
 30
0.0
 40
3.966667
100
AcDbArc
 50
-57.425982
 51
-5.787563
  0
ARC
  5
10E
100
AcDbEntity
  8
3
  6
CONTINUOUS
 62
   214
100
AcDbCircle
 10
561.403306
 20
388.35
 30
0.0
 40
1.0
100
AcDbArc
 50
57.425982
 51
90.0
  0
ARC
  5
10F
100
AcDbEntity
  8
3
  6
CONTINUOUS
 62
   214
100
AcDbCircle
 10
559.806086
 20
385.85
 30
0.0
 40
3.966667
100
AcDbArc
 50
5.787563
 51
57.425982
  0
LINE
  5
110
100
AcDbEntity
  8
3
  6
CONTINUOUS
 62
   214
100
AcDbLine
 10
561.403306
 20
389.35
 30
0.0
 11
561.172752
 21
389.35
 31
0.0
  0
LINE
  5
111
100
AcDbEntity
  8
3
  6
CONTINUOUS
 62
   214
100
AcDbLine
 10
561.172752
 20
382.35
 30
0.0
 11
561.172752
 21
389.35
 31
0.0
  0
LINE
  5
112
100
AcDbEntity
  8
3
  6
CENTER
 62
   214
100
AcDbLine
 10
313.207585
 20
145.347581
 30
0.0
 11
313.207585
 21
58.792407
 31
0.0
  0
LINE
  5
113
100
AcDbEntity
  8
3
  6
CONTINUOUS
 62
   214
100
AcDbLine
 10
557.672752
 20
393.35
 30
0.0
 11
557.672752
 21
378.35
 31
0.0
  0
LINE
  5
114
100
AcDbEntity
  8
3
  6
CONTINUOUS
 62
   214
100
AcDbLine
 10
559.172752
 20
393.35
 30
0.0
 11
557.672752
 21
393.35
 31
0.0
  0
LINE
  5
115
100
AcDbEntity
  8
3
  6
CENTER
 62
   214
100
AcDbLine
 10
555.704421
 20
405.35
 30
0.0
 11
564.392033
 21
405.35
 31
0.0
  0
LINE
  5
116
100
AcDbEntity
  8
3
  6
CONTINUOUS
 62
   214
100
AcDbLine
 10
568.422752
 20
225.130367
 30
0.0
 11
628.422752
 21
225.130367
 31
0.0
  0
ARC
  5
117
100
AcDbEntity
  8
3
  6
CONTINUOUS
 62
   214
100
AcDbCircle
 10
598.422752
 20
270.130367
 30
0.0
 40
39.25
100
AcDbArc
 50
-40.15247
 51
-139.84753
  0
LINE
  5
118
100
AcDbEntity
  8
3
  6
CONTINUOUS
 62
   214
100
AcDbLine
 10
559.172752
 20
270.130367
 30
0.0
 11
559.172752
 21
413.35
 31
0.0
  0
ARC
  5
119
100
AcDbEntity
  8
3
  6
CONTINUOUS
 62
   214
100
AcDbCircle
 10
598.422752
 20
270.130367
 30
0.0
 40
7.0
100
AcDbArc
 50
-62.874105
 51
-117.125895
  0
LINE
  5
11A
100
AcDbEntity
  8
3
  6
CONTINUOUS
 62
   214
100
AcDbLine
 10
595.231122
 20
263.900319
 30
0.0
 11
595.422752
 21
261.709974
 31
0.0
  0
LINE
  5
11B
100
AcDbEntity
  8
3
  6
CONTINUOUS
 62
   214
100
AcDbLine
 10
601.614383
 20
263.900319
 30
0.0
 11
601.422752
 21
261.709974
 31
0.0
  0
ARC
  5
11C
100
AcDbEntity
  8
3
  6
CONTINUOUS
 62
   214
100
AcDbCircle
 10
598.422752
 20
269.126173
 30
0.0
 40
8.0
100
AcDbArc
 50
-86.416678
 51
-67.975689
  0
CIRCLE
  5
11D
100
AcDbEntity
  8
3
  6
CONTINUOUS
 62
   214
100
AcDbCircle
 10
600.172752
 20
262.866181
 30
0.0
 40
0.5
  0
LINE
  5
11E
100
AcDbEntity
  8
3
  6
CONTINUOUS
 62
   214
100
AcDbLine
 10
598.922752
 20
261.141814
 30
0.0
 11
598.922752
 21
264.151236
 31
0.0
  0
ARC
  5
11F
100
AcDbEntity
  8
3
  6
CONTINUOUS
 62
   214
100
AcDbCircle
 10
598.422752
 20
269.126173
 30
0.0
 40
8.0
100
AcDbArc
 50
-112.024311
 51
-93.583322
  0
CIRCLE
  5
120
100
AcDbEntity
  8
3
  6
CONTINUOUS
 62
   214
100
AcDbCircle
 10
596.672752
 20
262.866181
 30
0.0
 40
0.5
  0
LINE
  5
121
100
AcDbEntity
  8
3
  6
CONTINUOUS
 62
   214
100
AcDbLine
 10
597.922752
 20
261.141814
 30
0.0
 11
597.922752
 21
264.151236
 31
0.0
  0
CIRCLE
  5
122
100
AcDbEntity
  8
3
  6
CONTINUOUS
 62
   214
100
AcDbCircle
 10
598.422752
 20
270.130367
 30
0.0
 40
6.0
  0
ARC
  5
123
100
AcDbEntity
  8
3
  6
CONTINUOUS
 62
   214
100
AcDbCircle
 10
598.422752
 20
270.130367
 30
0.0
 40
32.0
100
AcDbArc
 50
61.044976
 51
118.955024
  0
ARC
  5
124
100
AcDbEntity
  8
3
  6
CONTINUOUS
 62
   214
100
AcDbCircle
 10
598.422752
 20
270.130367
 30
0.0
 40
38.0
100
AcDbArc
 50
-37.863646
 51
90.0
  0
LINE
  5
125
100
AcDbEntity
  8
3
  6
CENTER
 62
   214
100
AcDbLine
 10
598.422752
 20
317.208127
 30
0.0
 11
598.422752
 21
223.052606
 31
0.0
  0
LINE
  5
126
100
AcDbEntity
  8
3
  6
CENTER
 62
   214
100
AcDbLine
 10
551.344992
 20
270.130367
 30
0.0
 11
645.500513
 21
270.130367
 31
0.0
  0
LINE
  5
127
100
AcDbEntity
  8
3
  6
CONTINUOUS
 62
   214
100
AcDbLine
 10
628.422752
 20
293.130367
 30
0.0
 11
623.422752
 21
298.130367
 31
0.0
  0
LINE
  5
128
100
AcDbEntity
  8
3
  6
CONTINUOUS
 62
   214
100
AcDbLine
 10
573.422752
 20
298.130367
 30
0.0
 11
623.422752
 21
298.130367
 31
0.0
  0
LINE
  5
129
100
AcDbEntity
  8
3
  6
CONTINUOUS
 62
   214
100
AcDbLine
 10
628.422752
 20
224.130367
 30
0.0
 11
628.422752
 21
293.130367
 31
0.0
  0
LINE
  5
12A
100
AcDbEntity
  8
3
  6
CONTINUOUS
 62
   214
100
AcDbLine
 10
568.422752
 20
293.130367
 30
0.0
 11
573.422752
 21
298.130367
 31
0.0
  0
LINE
  5
12B
100
AcDbEntity
  8
3
  6
CONTINUOUS
 62
   214
100
AcDbLine
 10
568.422752
 20
224.130367
 30
0.0
 11
568.422752
 21
293.130367
 31
0.0
  0
LINE
  5
12C
100
AcDbEntity
  8
3
  6
CONTINUOUS
 62
   214
100
AcDbLine
 10
594.416507
 20
274.730367
 30
0.0
 11
602.428997
 21
274.730367
 31
0.0
  0
LINE
  5
12D
100
AcDbEntity
  8
3
  6
CONTINUOUS
 62
   214
100
AcDbLine
 10
568.422752
 20
227.130367
 30
0.0
 11
628.422752
 21
227.130367
 31
0.0
  0
LINE
  5
12E
100
AcDbEntity
  8
3
  6
CONTINUOUS
 62
   214
100
AcDbLine
 10
568.422752
 20
224.130367
 30
0.0
 11
628.422752
 21
224.130367
 31
0.0
  0
LINE
  5
12F
100
AcDbEntity
  8
3
  6
CONTINUOUS
 62
   214
100
AcDbLine
 10
561.172752
 20
413.35
 30
0.0
 11
559.172752
 21
413.35
 31
0.0
  0
LINE
  5
130
100
AcDbEntity
  8
3
  6
CONTINUOUS
 62
   214
100
AcDbLine
 10
561.172752
 20
378.35
 30
0.0
 11
561.172752
 21
413.35
 31
0.0
  0
LINE
  5
131
100
AcDbEntity
  8
3
  6
CONTINUOUS
 62
   214
100
AcDbLine
 10
238.207585
 20
378.35
 30
0.0
 11
388.207585
 21
378.35
 31
0.0
  0
LINE
  5
132
100
AcDbEntity
  8
3
  6
CONTINUOUS
 62
   214
100
AcDbLine
 10
388.207585
 20
393.35
 30
0.0
 11
238.207585
 21
393.35
 31
0.0
  0
LINE
  5
133
100
AcDbEntity
  8
3
  6
CONTINUOUS
 62
   214
100
AcDbLine
 10
238.207585
 20
413.35
 30
0.0
 11
388.207585
 21
413.35
 31
0.0
  0
LINE
  5
134
100
AcDbEntity
  8
3
  6
CENTER
 62
   214
100
AcDbLine
 10
387.662132
 20
270.130367
 30
0.0
 11
233.231295
 21
270.130367
 31
0.0
  0
LINE
  5
135
100
AcDbEntity
  8
3
  6
CONTINUOUS
 62
   214
100
AcDbLine
 10
263.207585
 20
230.880367
 30
0.0
 11
363.207585
 21
230.880367
 31
0.0
  0
LINE
  5
136
100
AcDbEntity
  8
3
  6
CONTINUOUS
 62
   214
100
AcDbLine
 10
402.707585
 20
225.130367
 30
0.0
 11
223.707585
 21
225.130367
 31
0.0
  0
LINE
  5
137
100
AcDbEntity
  8
3
  6
CONTINUOUS
 62
   214
100
AcDbLine
 10
223.707585
 20
224.130367
 30
0.0
 11
402.707585
 21
224.130367
 31
0.0
  0
LINE
  5
138
100
AcDbEntity
  8
3
  6
CONTINUOUS
 62
   214
100
AcDbLine
 10
373.207585
 20
140.930907
 30
0.0
 11
253.207585
 21
140.930907
 31
0.0
  0
LINE
  5
139
100
AcDbEntity
  8
3
  6
CONTINUOUS
 62
   214
100
AcDbLine
 10
253.207585
 20
64.930907
 30
0.0
 11
373.207585
 21
64.930907
 31
0.0
  0
LINE
  5
13A
100
AcDbEntity
  8
3
  6
CONTINUOUS
 62
   214
100
AcDbLine
 10
400.707585
 20
132.930907
 30
0.0
 11
225.707585
 21
132.930907
 31
0.0
  0
LINE
  5
13B
100
AcDbEntity
  8
3
  6
CONTINUOUS
 62
   214
100
AcDbLine
 10
400.707585
 20
72.930907
 30
0.0
 11
225.707585
 21
72.930907
 31
0.0
  0
LINE
  5
13C
100
AcDbEntity
  8
3
  6
CONTINUOUS
 62
   214
100
AcDbLine
 10
363.207585
 20
378.35
 30
0.0
 11
363.207585
 21
230.880367
 31
0.0
  0
LINE
  5
13D
100
AcDbEntity
  8
3
  6
CONTINUOUS
 62
   214
100
AcDbLine
 10
388.207585
 20
378.35
 30
0.0
 11
388.207585
 21
413.35
 31
0.0
  0
LINE
  5
13E
100
AcDbEntity
  8
3
  6
CONTINUOUS
 62
   214
100
AcDbLine
 10
363.207585
 20
232.130367
 30
0.0
 11
373.207585
 21
232.130367
 31
0.0
  0
LINE
  5
13F
100
AcDbEntity
  8
3
  6
CONTINUOUS
 62
   214
100
AcDbLine
 10
373.207585
 20
308.130367
 30
0.0
 11
363.207585
 21
308.130367
 31
0.0
  0
LINE
  5
140
100
AcDbEntity
  8
3
  6
CONTINUOUS
 62
   214
100
AcDbLine
 10
383.207585
 20
274.630367
 30
0.0
 11
382.707585
 21
274.630367
 31
0.0
  0
LINE
  5
141
100
AcDbEntity
  8
3
  6
CONTINUOUS
 62
   214
100
AcDbLine
 10
385.707585
 20
274.630367
 30
0.0
 11
384.207585
 21
274.630367
 31
0.0
  0
LINE
  5
142
100
AcDbEntity
  8
3
  6
CONTINUOUS
 62
   214
100
AcDbLine
 10
384.307585
 20
264.730367
 30
0.0
 11
384.207585
 21
264.730367
 31
0.0
  0
LINE
  5
143
100
AcDbEntity
  8
3
  6
CONTINUOUS
 62
   214
100
AcDbLine
 10
383.207585
 20
277.130367
 30
0.0
 11
384.207585
 21
277.130367
 31
0.0
  0
LINE
  5
144
100
AcDbEntity
  8
3
  6
CONTINUOUS
 62
   214
100
AcDbLine
 10
385.707585
 20
264.130367
 30
0.0
 11
385.707585
 21
274.630367
 31
0.0
  0
LINE
  5
145
100
AcDbEntity
  8
3
  6
CONTINUOUS
 62
   214
100
AcDbLine
 10
384.307585
 20
274.630367
 30
0.0
 11
384.307585
 21
264.130367
 31
0.0
  0
LINE
  5
146
100
AcDbEntity
  8
3
  6
CONTINUOUS
 62
   214
100
AcDbLine
 10
380.707585
 20
276.130367
 30
0.0
 11
380.207584
 21
276.130367
 31
0.0
  0
LINE
  5
147
100
AcDbEntity
  8
3
  6
CONTINUOUS
 62
   214
100
AcDbLine
 10
380.707585
 20
264.130367
 30
0.0
 11
380.207584
 21
264.130367
 31
0.0
  0
LINE
  5
148
100
AcDbEntity
  8
3
  6
CONTINUOUS
 62
   214
100
AcDbLine
 10
383.207585
 20
264.130367
 30
0.0
 11
382.707585
 21
264.130367
 31
0.0
  0
LINE
  5
149
100
AcDbEntity
  8
3
  6
CONTINUOUS
 62
   214
100
AcDbLine
 10
384.307585
 20
264.130367
 30
0.0
 11
385.707585
 21
264.130367
 31
0.0
  0
LINE
  5
14A
100
AcDbEntity
  8
3
  6
CONTINUOUS
 62
   214
100
AcDbLine
 10
380.207585
 20
260.130367
 30
0.0
 11
379.207585
 21
260.130367
 31
0.0
  0
LINE
  5
14B
100
AcDbEntity
  8
3
  6
CONTINUOUS
 62
   214
100
AcDbLine
 10
380.207585
 20
280.130367
 30
0.0
 11
380.207585
 21
260.130367
 31
0.0
  0
LINE
  5
14C
100
AcDbEntity
  8
3
  6
CONTINUOUS
 62
   214
100
AcDbLine
 10
379.207585
 20
280.130367
 30
0.0
 11
380.207585
 21
280.130367
 31
0.0
  0
LINE
  5
14D
100
AcDbEntity
  8
3
  6
CONTINUOUS
 62
   214
100
AcDbLine
 10
373.207585
 20
238.130367
 30
0.0
 11
374.707585
 21
233.630367
 31
0.0
  0
LINE
  5
14E
100
AcDbEntity
  8
3
  6
CONTINUOUS
 62
   214
100
AcDbLine
 10
374.707585
 20
306.630367
 30
0.0
 11
373.207585
 21
302.130367
 31
0.0
  0
LINE
  5
14F
100
AcDbEntity
  8
3
  6
CONTINUOUS
 62
   214
100
AcDbLine
 10
379.207585
 20
233.630367
 30
0.0
 11
379.207585
 21
306.630367
 31
0.0
  0
LINE
  5
150
100
AcDbEntity
  8
3
  6
CONTINUOUS
 62
   214
100
AcDbLine
 10
374.707585
 20
233.630367
 30
0.0
 11
379.207585
 21
233.630367
 31
0.0
  0
LINE
  5
151
100
AcDbEntity
  8
3
  6
CONTINUOUS
 62
   214
100
AcDbLine
 10
374.707585
 20
306.630367
 30
0.0
 11
374.707585
 21
233.630367
 31
0.0
  0
LINE
  5
152
100
AcDbEntity
  8
3
  6
CONTINUOUS
 62
   214
100
AcDbLine
 10
379.207585
 20
306.630367
 30
0.0
 11
374.707585
 21
306.630367
 31
0.0
  0
LINE
  5
153
100
AcDbEntity
  8
3
  6
CONTINUOUS
 62
   214
100
AcDbLine
 10
373.207585
 20
232.130367
 30
0.0
 11
373.207585
 21
308.130367
 31
0.0
  0
LINE
  5
154
100
AcDbEntity
  8
3
  6
CONTINUOUS
 62
   214
100
AcDbLine
 10
402.707585
 20
224.130367
 30
0.0
 11
402.707585
 21
227.130367
 31
0.0
  0
ARC
  5
155
100
AcDbEntity
  8
3
  6
CONTINUOUS
 62
   214
100
AcDbCircle
 10
382.707585
 20
227.130367
 30
0.0
 40
2.0
100
AcDbArc
 50
-180.0
 51
-90.0
  0
LINE
  5
156
100
AcDbEntity
  8
3
  6
CONTINUOUS
 62
   214
100
AcDbLine
 10
380.707585
 20
298.130367
 30
0.0
 11
380.707585
 21
227.130367
 31
0.0
  0
LINE
  5
157
100
AcDbEntity
  8
3
  6
CONTINUOUS
 62
   214
100
AcDbLine
 10
382.707585
 20
298.130367
 30
0.0
 11
380.707585
 21
298.130367
 31
0.0
  0
LINE
  5
158
100
AcDbEntity
  8
3
  6
CONTINUOUS
 62
   214
100
AcDbLine
 10
382.707585
 20
227.130367
 30
0.0
 11
382.707585
 21
298.130367
 31
0.0
  0
LINE
  5
159
100
AcDbEntity
  8
3
  6
CONTINUOUS
 62
   214
100
AcDbLine
 10
402.707585
 20
227.130367
 30
0.0
 11
382.707585
 21
227.130367
 31
0.0
  0
LINE
  5
15A
100
AcDbEntity
  8
3
  6
CONTINUOUS
 62
   214
100
AcDbLine
 10
373.207585
 20
132.930907
 30
0.0
 11
373.207585
 21
140.930907
 31
0.0
  0
LINE
  5
15B
100
AcDbEntity
  8
3
  6
CONTINUOUS
 62
   214
100
AcDbLine
 10
373.207585
 20
64.930907
 30
0.0
 11
373.207585
 21
72.930907
 31
0.0
  0
LINE
  5
15C
100
AcDbEntity
  8
3
  6
CONTINUOUS
 62
   214
100
AcDbLine
 10
374.707585
 20
72.930907
 30
0.0
 11
374.707585
 21
66.430907
 31
0.0
  0
LINE
  5
15D
100
AcDbEntity
  8
3
  6
CONTINUOUS
 62
   214
100
AcDbLine
 10
374.707585
 20
139.430907
 30
0.0
 11
374.707585
 21
132.930907
 31
0.0
  0
LINE
  5
15E
100
AcDbEntity
  8
3
  6
CONTINUOUS
 62
   214
100
AcDbLine
 10
379.207585
 20
132.930907
 30
0.0
 11
379.207585
 21
139.430907
 31
0.0
  0
LINE
  5
15F
100
AcDbEntity
  8
3
  6
CONTINUOUS
 62
   214
100
AcDbLine
 10
379.207585
 20
66.430907
 30
0.0
 11
379.207585
 21
72.930907
 31
0.0
  0
LINE
  5
160
100
AcDbEntity
  8
3
  6
CONTINUOUS
 62
   214
100
AcDbLine
 10
373.207585
 20
70.930907
 30
0.0
 11
374.707585
 21
66.430907
 31
0.0
  0
LINE
  5
161
100
AcDbEntity
  8
3
  6
CONTINUOUS
 62
   214
100
AcDbLine
 10
374.707585
 20
139.430907
 30
0.0
 11
373.207585
 21
134.930907
 31
0.0
  0
LINE
  5
162
100
AcDbEntity
  8
3
  6
CONTINUOUS
 62
   214
100
AcDbLine
 10
374.707585
 20
66.430907
 30
0.0
 11
379.207585
 21
66.430907
 31
0.0
  0
LINE
  5
163
100
AcDbEntity
  8
3
  6
CONTINUOUS
 62
   214
100
AcDbLine
 10
379.207585
 20
139.430907
 30
0.0
 11
374.707585
 21
139.430907
 31
0.0
  0
CIRCLE
  5
164
100
AcDbEntity
  8
3
  6
CONTINUOUS
 62
   214
100
AcDbCircle
 10
394.707585
 20
124.930907
 30
0.0
 40
3.25
  0
LINE
  5
165
100
AcDbEntity
  8
3
  6
CENTER
 62
   214
100
AcDbLine
 10
394.707585
 20
120.021144
 30
0.0
 11
394.707585
 21
129.84067
 31
0.0
  0
LINE
  5
166
100
AcDbEntity
  8
3
  6
CENTER
 62
   214
100
AcDbLine
 10
389.797822
 20
124.930907
 30
0.0
 11
399.617347
 21
124.930907
 31
0.0
  0
CIRCLE
  5
167
100
AcDbEntity
  8
3
  6
CONTINUOUS
 62
   214
100
AcDbCircle
 10
394.707585
 20
80.930907
 30
0.0
 40
3.25
  0
LINE
  5
168
100
AcDbEntity
  8
3
  6
CENTER
 62
   214
100
AcDbLine
 10
394.707585
 20
76.021144
 30
0.0
 11
394.707585
 21
85.84067
 31
0.0
  0
LINE
  5
169
100
AcDbEntity
  8
3
  6
CENTER
 62
   214
100
AcDbLine
 10
389.797822
 20
80.930907
 30
0.0
 11
399.617347
 21
80.930907
 31
0.0
  0
LINE
  5
16A
100
AcDbEntity
  8
3
  6
CONTINUOUS
 62
   214
100
AcDbLine
 10
402.707585
 20
130.930907
 30
0.0
 11
400.707585
 21
132.930907
 31
0.0
  0
LINE
  5
16B
100
AcDbEntity
  8
3
  6
CONTINUOUS
 62
   214
100
AcDbLine
 10
402.707585
 20
74.930907
 30
0.0
 11
402.707585
 21
130.930907
 31
0.0
  0
LINE
  5
16C
100
AcDbEntity
  8
3
  6
CONTINUOUS
 62
   214
100
AcDbLine
 10
400.707585
 20
72.930907
 30
0.0
 11
402.707585
 21
74.930907
 31
0.0
  0
LINE
  5
16D
100
AcDbEntity
  8
3
  6
CONTINUOUS
 62
   214
100
AcDbLine
 10
238.207585
 20
378.35
 30
0.0
 11
238.207585
 21
413.35
 31
0.0
  0
LINE
  5
16E
100
AcDbEntity
  8
3
  6
CONTINUOUS
 62
   214
100
AcDbLine
 10
263.207585
 20
230.880367
 30
0.0
 11
263.207585
 21
378.35
 31
0.0
  0
LINE
  5
16F
100
AcDbEntity
  8
3
  6
CONTINUOUS
 62
   214
100
AcDbLine
 10
253.207585
 20
232.130367
 30
0.0
 11
263.207585
 21
232.130367
 31
0.0
  0
LINE
  5
170
100
AcDbEntity
  8
3
  6
CONTINUOUS
 62
   214
100
AcDbLine
 10
263.207585
 20
308.130367
 30
0.0
 11
253.207585
 21
308.130367
 31
0.0
  0
LINE
  5
171
100
AcDbEntity
  8
3
  6
CONTINUOUS
 62
   214
100
AcDbLine
 10
242.207585
 20
277.130367
 30
0.0
 11
243.207585
 21
277.130367
 31
0.0
  0
LINE
  5
172
100
AcDbEntity
  8
3
  6
CONTINUOUS
 62
   214
100
AcDbLine
 10
242.107585
 20
275.530367
 30
0.0
 11
242.207585
 21
275.530367
 31
0.0
  0
LINE
  5
173
100
AcDbEntity
  8
3
  6
CONTINUOUS
 62
   214
100
AcDbLine
 10
242.107585
 20
264.730367
 30
0.0
 11
242.207585
 21
264.730367
 31
0.0
  0
LINE
  5
174
100
AcDbEntity
  8
3
  6
CONTINUOUS
 62
   214
100
AcDbLine
 10
245.707585
 20
276.130367
 30
0.0
 11
246.207585
 21
276.130367
 31
0.0
  0
LINE
  5
175
100
AcDbEntity
  8
3
  6
CONTINUOUS
 62
   214
100
AcDbLine
 10
245.707585
 20
264.130367
 30
0.0
 11
246.207585
 21
264.130367
 31
0.0
  0
LINE
  5
176
100
AcDbEntity
  8
3
  6
CONTINUOUS
 62
   214
100
AcDbLine
 10
243.207585
 20
264.130367
 30
0.0
 11
243.707585
 21
264.130367
 31
0.0
  0
LINE
  5
177
100
AcDbEntity
  8
3
  6
CONTINUOUS
 62
   214
100
AcDbLine
 10
243.207585
 20
276.130367
 30
0.0
 11
243.707585
 21
276.130367
 31
0.0
  0
LINE
  5
178
100
AcDbEntity
  8
3
  6
CONTINUOUS
 62
   214
100
AcDbLine
 10
240.707585
 20
264.130367
 30
0.0
 11
240.707585
 21
276.130367
 31
0.0
  0
LINE
  5
179
100
AcDbEntity
  8
3
  6
CONTINUOUS
 62
   214
100
AcDbLine
 10
242.107585
 20
264.130367
 30
0.0
 11
240.707585
 21
264.130367
 31
0.0
  0
LINE
  5
17A
100
AcDbEntity
  8
3
  6
CONTINUOUS
 62
   214
100
AcDbLine
 10
242.107585
 20
276.130367
 30
0.0
 11
242.107585
 21
264.130367
 31
0.0
  0
LINE
  5
17B
100
AcDbEntity
  8
3
  6
CONTINUOUS
 62
   214
100
AcDbLine
 10
240.707585
 20
276.130367
 30
0.0
 11
242.107585
 21
276.130367
 31
0.0
  0
LINE
  5
17C
100
AcDbEntity
  8
3
  6
CONTINUOUS
 62
   214
100
AcDbLine
 10
246.207585
 20
260.130367
 30
0.0
 11
247.207585
 21
260.130367
 31
0.0
  0
LINE
  5
17D
100
AcDbEntity
  8
3
  6
CONTINUOUS
 62
   214
100
AcDbLine
 10
246.207585
 20
280.130367
 30
0.0
 11
246.207585
 21
260.130367
 31
0.0
  0
LINE
  5
17E
100
AcDbEntity
  8
3
  6
CONTINUOUS
 62
   214
100
AcDbLine
 10
247.207585
 20
280.130367
 30
0.0
 11
246.207585
 21
280.130367
 31
0.0
  0
LINE
  5
17F
100
AcDbEntity
  8
3
  6
CONTINUOUS
 62
   214
100
AcDbLine
 10
253.207585
 20
238.130367
 30
0.0
 11
251.707585
 21
233.630367
 31
0.0
  0
LINE
  5
180
100
AcDbEntity
  8
3
  6
CONTINUOUS
 62
   214
100
AcDbLine
 10
253.207585
 20
302.130367
 30
0.0
 11
253.207585
 21
238.130367
 31
0.0
  0
LINE
  5
181
100
AcDbEntity
  8
3
  6
CONTINUOUS
 62
   214
100
AcDbLine
 10
251.707585
 20
306.630367
 30
0.0
 11
253.207585
 21
302.130367
 31
0.0
  0
LINE
  5
182
100
AcDbEntity
  8
3
  6
CONTINUOUS
 62
   214
100
AcDbLine
 10
247.207585
 20
233.630367
 30
0.0
 11
247.207585
 21
306.630367
 31
0.0
  0
LINE
  5
183
100
AcDbEntity
  8
3
  6
CONTINUOUS
 62
   214
100
AcDbLine
 10
251.707585
 20
233.630367
 30
0.0
 11
247.207585
 21
233.630367
 31
0.0
  0
LINE
  5
184
100
AcDbEntity
  8
3
  6
CONTINUOUS
 62
   214
100
AcDbLine
 10
251.707585
 20
306.630367
 30
0.0
 11
251.707585
 21
233.630367
 31
0.0
  0
LINE
  5
185
100
AcDbEntity
  8
3
  6
CONTINUOUS
 62
   214
100
AcDbLine
 10
247.207585
 20
306.630367
 30
0.0
 11
251.707585
 21
306.630367
 31
0.0
  0
LINE
  5
186
100
AcDbEntity
  8
3
  6
CONTINUOUS
 62
   214
100
AcDbLine
 10
253.207585
 20
308.130367
 30
0.0
 11
253.207585
 21
232.130367
 31
0.0
  0
ARC
  5
187
100
AcDbEntity
  8
3
  6
CONTINUOUS
 62
   214
100
AcDbCircle
 10
243.707585
 20
227.130367
 30
0.0
 40
2.0
100
AcDbArc
 50
-90.0
 51
0.0
  0
LINE
  5
188
100
AcDbEntity
  8
3
  6
CONTINUOUS
 62
   214
100
AcDbLine
 10
245.707585
 20
298.130367
 30
0.0
 11
245.707585
 21
227.130367
 31
0.0
  0
LINE
  5
189
100
AcDbEntity
  8
3
  6
CONTINUOUS
 62
   214
100
AcDbLine
 10
243.707585
 20
298.130367
 30
0.0
 11
245.707585
 21
298.130367
 31
0.0
  0
LINE
  5
18A
100
AcDbEntity
  8
3
  6
CONTINUOUS
 62
   214
100
AcDbLine
 10
243.707585
 20
227.130367
 30
0.0
 11
243.707585
 21
298.130367
 31
0.0
  0
LINE
  5
18B
100
AcDbEntity
  8
3
  6
CONTINUOUS
 62
   214
100
AcDbLine
 10
223.707585
 20
227.130367
 30
0.0
 11
243.707585
 21
227.130367
 31
0.0
  0
LINE
  5
18C
100
AcDbEntity
  8
3
  6
CONTINUOUS
 62
   214
100
AcDbLine
 10
223.707585
 20
227.130367
 30
0.0
 11
223.707585
 21
224.130367
 31
0.0
  0
LINE
  5
18D
100
AcDbEntity
  8
3
  6
CONTINUOUS
 62
   214
100
AcDbLine
 10
253.207585
 20
72.930907
 30
0.0
 11
253.207585
 21
64.930907
 31
0.0
  0
LINE
  5
18E
100
AcDbEntity
  8
3
  6
CONTINUOUS
 62
   214
100
AcDbLine
 10
253.207585
 20
140.930907
 30
0.0
 11
253.207585
 21
132.930907
 31
0.0
  0
LINE
  5
18F
100
AcDbEntity
  8
3
  6
CONTINUOUS
 62
   214
100
AcDbLine
 10
253.207585
 20
72.930907
 30
0.0
 11
253.207585
 21
70.930907
 31
0.0
  0
LINE
  5
190
100
AcDbEntity
  8
3
  6
CONTINUOUS
 62
   214
100
AcDbLine
 10
253.207585
 20
134.930907
 30
0.0
 11
253.207585
 21
132.930907
 31
0.0
  0
LINE
  5
191
100
AcDbEntity
  8
3
  6
CONTINUOUS
 62
   214
100
AcDbLine
 10
251.707585
 20
72.930907
 30
0.0
 11
251.707585
 21
66.430907
 31
0.0
  0
LINE
  5
192
100
AcDbEntity
  8
3
  6
CONTINUOUS
 62
   214
100
AcDbLine
 10
251.707585
 20
139.430907
 30
0.0
 11
251.707585
 21
132.930907
 31
0.0
  0
LINE
  5
193
100
AcDbEntity
  8
3
  6
CONTINUOUS
 62
   214
100
AcDbLine
 10
247.207585
 20
132.930907
 30
0.0
 11
247.207585
 21
139.430907
 31
0.0
  0
LINE
  5
194
100
AcDbEntity
  8
3
  6
CONTINUOUS
 62
   214
100
AcDbLine
 10
247.207585
 20
66.430907
 30
0.0
 11
247.207585
 21
72.930907
 31
0.0
  0
LINE
  5
195
100
AcDbEntity
  8
3
  6
CONTINUOUS
 62
   214
100
AcDbLine
 10
253.207585
 20
70.930907
 30
0.0
 11
251.707585
 21
66.430907
 31
0.0
  0
LINE
  5
196
100
AcDbEntity
  8
3
  6
CONTINUOUS
 62
   214
100
AcDbLine
 10
251.707585
 20
139.430907
 30
0.0
 11
253.207585
 21
134.930907
 31
0.0
  0
LINE
  5
197
100
AcDbEntity
  8
3
  6
CONTINUOUS
 62
   214
100
AcDbLine
 10
251.707585
 20
66.430907
 30
0.0
 11
247.207585
 21
66.430907
 31
0.0
  0
LINE
  5
198
100
AcDbEntity
  8
3
  6
CONTINUOUS
 62
   214
100
AcDbLine
 10
247.207585
 20
139.430907
 30
0.0
 11
251.707585
 21
139.430907
 31
0.0
  0
CIRCLE
  5
199
100
AcDbEntity
  8
3
  6
CONTINUOUS
 62
   214
100
AcDbCircle
 10
231.707585
 20
80.930907
 30
0.0
 40
3.25
  0
LINE
  5
19A
100
AcDbEntity
  8
3
  6
CENTER
 62
   214
100
AcDbLine
 10
231.707585
 20
76.021144
 30
0.0
 11
231.707585
 21
85.84067
 31
0.0
  0
LINE
  5
19B
100
AcDbEntity
  8
3
  6
CENTER
 62
   214
100
AcDbLine
 10
226.797822
 20
80.930907
 30
0.0
 11
236.617347
 21
80.930907
 31
0.0
  0
CIRCLE
  5
19C
100
AcDbEntity
  8
3
  6
CONTINUOUS
 62
   214
100
AcDbCircle
 10
231.707585
 20
124.930907
 30
0.0
 40
3.25
  0
LINE
  5
19D
100
AcDbEntity
  8
3
  6
CENTER
 62
   214
100
AcDbLine
 10
231.707585
 20
120.021144
 30
0.0
 11
231.707585
 21
129.84067
 31
0.0
  0
LINE
  5
19E
100
AcDbEntity
  8
3
  6
CENTER
 62
   214
100
AcDbLine
 10
226.797822
 20
124.930907
 30
0.0
 11
236.617347
 21
124.930907
 31
0.0
  0
LINE
  5
19F
100
AcDbEntity
  8
3
  6
CONTINUOUS
 62
   214
100
AcDbLine
 10
225.707585
 20
132.930907
 30
0.0
 11
223.707585
 21
130.930907
 31
0.0
  0
LINE
  5
1A0
100
AcDbEntity
  8
3
  6
CONTINUOUS
 62
   214
100
AcDbLine
 10
223.707585
 20
74.930907
 30
0.0
 11
223.707585
 21
130.930907
 31
0.0
  0
LINE
  5
1A1
100
AcDbEntity
  8
3
  6
CONTINUOUS
 62
   214
100
AcDbLine
 10
225.707585
 20
72.930907
 30
0.0
 11
223.707585
 21
74.930907
 31
0.0
  0
LINE
  5
1A2
100
AcDbEntity
  8
3
  6
CENTER
 62
   214
100
AcDbLine
 10
307.653885
 20
405.35
 30
0.0
 11
318.761285
 21
405.35
 31
0.0
  0
CIRCLE
  5
1A3
100
AcDbEntity
  8
3
  6
CONTINUOUS
 62
   214
100
AcDbCircle
 10
313.207585
 20
405.35
 30
0.0
 40
3.25
  0
CIRCLE
  5
1A4
100
AcDbEntity
  8
3
  6
CONTINUOUS
 62
   214
100
AcDbCircle
 10
313.207585
 20
124.930907
 30
0.0
 40
3.25
  0
LINE
  5
1A5
100
AcDbEntity
  8
3
  6
CENTER
 62
   214
100
AcDbLine
 10
308.297822
 20
124.930907
 30
0.0
 11
318.117347
 21
124.930907
 31
0.0
  0
CIRCLE
  5
1A6
100
AcDbEntity
  8
3
  6
CONTINUOUS
 62
   214
100
AcDbCircle
 10
313.207585
 20
80.930907
 30
0.0
 40
3.25
  0
LINE
  5
1A7
100
AcDbEntity
  8
3
  6
CENTER
 62
   214
100
AcDbLine
 10
308.297822
 20
80.930907
 30
0.0
 11
318.117347
 21
80.930907
 31
0.0
  0
LINE
  5
1A8
100
AcDbEntity
  8
3
  6
CONTINUOUS
 62
   214
100
AcDbLine
 10
273.607585
 20
489.501871
 30
0.0
 11
272.807585
 21
489.501871
 31
0.0
  0
LINE
  5
1A9
100
AcDbEntity
  8
3
  6
CENTER
 62
   214
100
AcDbLine
 10
313.207585
 20
478.472357
 30
0.0
 11
313.207585
 21
568.590371
 31
0.0
  0
LINE
  5
1AA
100
AcDbEntity
  8
3
  6
CONTINUOUS
 62
   214
100
AcDbLine
 10
313.607585
 20
489.501871
 30
0.0
 11
312.807585
 21
489.501871
 31
0.0
  0
LINE
  5
1AB
100
AcDbEntity
  8
3
  6
CONTINUOUS
 62
   214
100
AcDbLine
 10
353.607585
 20
489.501871
 30
0.0
 11
352.807585
 21
489.501871
 31
0.0
  0
LINE
  5
1AC
100
AcDbEntity
  8
3
  6
CONTINUOUS
 62
   214
100
AcDbLine
 10
563.472752
 20
385.45
 30
0.0
 11
563.472752
 21
386.25
 31
0.0
  0
LINE
  5
1AD
100
AcDbEntity
  8
3
  6
CONTINUOUS
 62
   214
100
AcDbLine
 10
557.672752
 20
378.35
 30
0.0
 11
561.172752
 21
378.35
 31
0.0
  0
DIMENSION
  5
1B9
100
AcDbEntity
  8
2
  6
CONTINUOUS
 62
   134
100
AcDbDimension
  2
*D7
 10
223.707585
 20
212.130367
 30
0.0
 11
313.207585
 21
212.130367
 31
0.0
  1
179
100
AcDbAlignedDimension
 13
223.707585
 23
223.630367
 33
0.0
 14
402.707585
 24
223.630367
 34
0.0
100
AcDbRotatedDimension
  0
DIMENSION
  5
1C5
100
AcDbEntity
  8
2
  6
CONTINUOUS
 62
   134
100
AcDbDimension
  2
*D8
 10
414.707585
 20
224.130367
 30
0.0
 11
414.707585
 21
261.130367
 31
0.0
  1
74
100
AcDbAlignedDimension
 13
403.207585
 23
224.130367
 33
0.0
 14
383.207585
 24
298.130367
 34
0.0
 50
90.0
100
AcDbRotatedDimension
  0
DIMENSION
  5
1D1
100
AcDbEntity
  8
2
  6
CONTINUOUS
 62
   134
100
AcDbDimension
  2
*D9
 10
568.422752
 20
212.130367
 30
0.0
 11
598.422752
 21
212.130367
 31
0.0
  1
60
100
AcDbAlignedDimension
 13
568.422752
 23
223.630367
 33
0.0
 14
628.422752
 24
223.630367
 34
0.0
100
AcDbRotatedDimension
  0
TEXT
  5
1D2
100
AcDbEntity
  8
10
  6
CONTINUOUS
 62
     3
100
AcDbText
 10
497.70013
 20
122.533138
 30
0.0
 40
10.0
  1
防塵安全カバー(テープ幅100用)
 41
0.852941
 11
497.70013
 21
122.533138
 31
0.0
100
AcDbText
 73
     1
  0
LINE
  5
1D3
100
AcDbEntity
  8
3
  6
CENTER
 62
   214
100
AcDbLine
 10
313.207585
 20
419.582327
 30
0.0
 11
313.207585
 21
217.837523
 31
0.0
  0
LINE
  5
1D4
100
AcDbEntity
  8
3
  6
CENTER
 62
   214
100
AcDbLine
 10
394.707585
 20
232.921916
 30
0.0
 11
394.707585
 21
217.837523
 31
0.0
  0
LINE
  5
1D5
100
AcDbEntity
  8
3
  6
CENTER
 62
   214
100
AcDbLine
 10
231.707585
 20
232.921916
 30
0.0
 11
231.707585
 21
217.837523
 31
0.0
  0
LINE
  5
1D6
100
AcDbEntity
  8
3
  6
CENTER
 62
   214
100
AcDbLine
 10
620.422752
 20
232.921916
 30
0.0
 11
620.422752
 21
217.837523
 31
0.0
  0
LINE
  5
1D7
100
AcDbEntity
  8
3
  6
CENTER
 62
   214
100
AcDbLine
 10
576.422752
 20
232.921916
 30
0.0
 11
576.422752
 21
217.837523
 31
0.0
  0
LINE
  5
1D8
100
AcDbEntity
  8
3
  6
CONTINUOUS
 62
   214
100
AcDbLine
 10
384.207585
 20
261.141814
 30
0.0
 11
383.207585
 21
261.141814
 31
0.0
  0
LINE
  5
1D9
100
AcDbEntity
  8
3
  6
CONTINUOUS
 62
   214
100
AcDbLine
 10
384.207585
 20
277.130367
 30
0.0
 11
384.207585
 21
261.141814
 31
0.0
  0
LINE
  5
1DA
100
AcDbEntity
  8
3
  6
CONTINUOUS
 62
   214
100
AcDbLine
 10
383.207585
 20
277.130367
 30
0.0
 11
383.207585
 21
261.141814
 31
0.0
  0
LINE
  5
1DB
100
AcDbEntity
  8
3
  6
CONTINUOUS
 62
   214
100
AcDbLine
 10
242.207585
 20
261.141814
 30
0.0
 11
243.207585
 21
261.141814
 31
0.0
  0
LINE
  5
1DC
100
AcDbEntity
  8
3
  6
CONTINUOUS
 62
   214
100
AcDbLine
 10
243.207585
 20
277.130367
 30
0.0
 11
243.207585
 21
261.141814
 31
0.0
  0
LINE
  5
1DD
100
AcDbEntity
  8
3
  6
CONTINUOUS
 62
   214
100
AcDbLine
 10
242.207585
 20
261.141814
 30
0.0
 11
242.207585
 21
277.130367
 31
0.0
  0
LINE
  5
1DE
100
AcDbEntity
  8
3
  6
CONTINUOUS
 62
   214
100
AcDbLine
 10
242.207585
 20
261.709975
 30
0.0
 11
243.207585
 21
261.709975
 31
0.0
  0
LINE
  5
1DF
100
AcDbEntity
  8
3
  6
CONTINUOUS
 62
   214
100
AcDbLine
 10
243.207585
 20
263.900319
 30
0.0
 11
242.207585
 21
263.900319
 31
0.0
  0
LINE
  5
1E0
100
AcDbEntity
  8
3
  6
CONTINUOUS
 62
   214
100
AcDbLine
 10
383.207585
 20
261.709975
 30
0.0
 11
384.207585
 21
261.709975
 31
0.0
  0
LINE
  5
1E1
100
AcDbEntity
  8
3
  6
CONTINUOUS
 62
   214
100
AcDbLine
 10
384.207585
 20
263.900319
 30
0.0
 11
383.207585
 21
263.900319
 31
0.0
  0
ENDSEC
  0
SECTION
  2
OBJECTS
  0
DICTIONARY
  5
19
100
AcDbDictionary
  3
ACAD_GROUP
350
1A
  3
ACAD_MLINESTYLE
350
1B
  0
DICTIONARY
  5
1A
102
{ACAD_REACTORS
330
19
102
}
100
AcDbDictionary
  0
DICTIONARY
  5
1B
102
{ACAD_REACTORS
330
19
102
}
100
AcDbDictionary
  3
STANDARD
350
1C
  0
MLINESTYLE
  5
1C
102
{ACAD_REACTORS
330
1B
102
}
100
AcDbMlineStyle
  2
STANDARD
 70
     0
  3

 62
     0
 51
90.0
 52
90.0
 71
     2
 49
0.5
 62
   256
  6
BYLAYER
 49
-0.5
 62
   256
  6
BYLAYER
  0
ENDSEC
  0
EOF
